#VERSION:0.83;
#TITLE:Temporal Displacement;
#SUBTITLE:;
#ARTIST:SM-MEGAtive;
#TITLETRANSLIT:;
#SUBTITLETRANSLIT:;
#ARTISTTRANSLIT:;
#GENRE:;
#ORIGIN:;
#TAGS:;
#CREDIT:;
#BANNER:Temporal Displacement.png;
#BACKGROUND:Temporal Displacement-bg.png;
#PREVIEWVID:;
#JACKET:Temporal Displacement-jacket.png;
#CDIMAGE:;
#DISCIMAGE:;
#LYRICSPATH:;
#CDTITLE:cdtitle.png;
#MUSIC:Temporal Displacement.ogg;
#OFFSET:-1.500000;
#SAMPLESTART:85.500999;
#SAMPLELENGTH:12.000000;
#SELECTABLE:YES;
#DISPLAYBPM:10.000000:160.000000;
#BPMS:0.000000=80.000000,
14.000000=160.000000,
104.000000=80.000000,
105.000000=160.000000,
119.000000=320.000000,
121.000000=160.000000,
175.000000=40.000000,
176.000000=20.000000,
176.500000=40.000000,
178.000000=80.000000,
179.000000=160.000000,
239.000000=80.000000,
241.000000=160.000000,
265.000000=20.000000,
265.500000=10.000000;
#STOPS:14.000000=1.125000,
80.000000=0.188000,
81.500000=0.187000,
82.500000=0.188000,
84.000000=0.187000,
85.000000=0.188000,
86.500000=0.187000,
88.000000=0.188000,
92.500000=0.187000,
94.000000=0.188000,
95.000000=0.187000,
96.500000=0.188000,
97.500000=0.187000,
99.000000=0.188000,
100.500000=0.187000,
119.000000=0.094000,
119.500000=0.094000,
120.000000=0.094000,
120.500000=0.094000,
135.000000=0.188000,
135.500000=0.187000,
136.500000=0.188000,
137.000000=0.187000,
137.500000=0.188000,
138.500000=0.187000,
139.000000=0.188000,
140.000000=0.187000,
143.000000=0.188000,
143.500000=0.187000,
144.500000=0.188000,
145.000000=0.187000,
145.500000=0.188000,
146.500000=0.187000,
147.000000=0.188000,
148.000000=0.187000;
#DELAYS:;
#WARPS:;
#TIMESIGNATURES:151.000000=3=4,
175.000000=4=4;
#TICKCOUNTS:0.000000=4;
#COMBOS:0.000000=1;
#SPEEDS:0.000000=1.000000=0.000000=0;
#SCROLLS:0.000000=1.000000;
#FAKES:;
#LABELS:0.000000=Song Start;
#BGCHANGES:;
#KEYSOUNDS:;
#ATTACKS:
;

//---------------dance-single - MEGAtive----------------
#NOTEDATA:;
#CHARTNAME:;
#CHARTHASH:773763141:
#STEPSTYPE:dance-single;
#BANNER:;
#DESCRIPTION:MEGAtive;
#CHARTSTYLE:;
#DIFFICULTY:Beginner;
#METER:5;
#METERF:0.000000;
#RADARVALUES:0.179019,0.237119,0.000000,0.412423,0.003966,158.000000,158.000000,0.000000,52.000000,0.000000,0.000000,0.000000,0.000000,0.000000,0.179019,0.237119,0.000000,0.412423,0.003966,158.000000,158.000000,0.000000,52.000000,0.000000,0.000000,0.000000,0.000000,0.000000;
#CREDIT:MEGAtive;
#DISPLAYBPM:10.000000:160.000000;
#NOTES:
0000
0000
0000
0000
,
0000
0000
0000
0000
,
1000
0000
0001
0000
,
2000
3002
1003
0001
,
0000
0100
0000
0010
,
0000
1000
1000
1000
,
0000
0100
0000
0010
,
0000
0002
0000
1003
,
0000
0100
0000
0010
,
0000
0001
0001
0001
,
0000
0100
0000
0010
,
0000
1000
1000
1000
,
0000
0010
0000
0100
,
0000
0001
0001
0001
,
0000
0010
0000
0100
,
0000
1000
1000
1000
,
0000
0010
0000
0100
,
0000
0001
0001
0002
,
0000
2003
0000
3200
,
0000
0000
0000
2300
,
0000
0000
0000
0000
,
0000
3020
0000
0000
,
0000
0000
0000
0130
0000
0100
0000
0002
,
0000
0000
0000
0000
,
0000
0000
0000
2003
0000
0000
0000
0000
,
0000
0000
3100
0100
,
0020
0031
0000
0001
,
0000
1000
0000
2000
,
3000
0010
0000
0010
,
0000
0100
0000
0200
,
0000
0301
0000
0001
,
0000
1000
0000
2000
,
0000
3200
0000
0320
,
0000
0032
0000
2003
,
0000
0000
3020
0000
0000
0230
0000
0000
,
0000
0302
0000
0000
0000
0000
0023
0000
,
0000
0000
0230
0000
0000
2300
0000
0000
,
0000
3002
0000
0000
0000
0000
0203
0000
,
0000
0000
0302
0000
,
0000
2003
0000
0000
,
3200
0000
0000
0310
,
0010
0010
0100
0100
,
0100
1000
1000
1000
,
0001
0001
0001
0200
,
0000
0000
0000
0301
,
0001
0000
0002
0000
0000
0003
0000
0000
,
0100
0200
0000
0310
,
0000
0010
1000
0000
0000
1000
0002
0000
,
0000
0023
0000
0130
,
0100
0000
0200
0000
0000
0300
0000
0000
,
0010
0020
0000
0031
,
0000
0001
1000
0000
0000
1000
0020
0000
,
0000
0230
0000
0301
,
0001
0002
0000
0003
,
0010
0020
0000
0130
,
0000
0100
1000
0000
0000
1000
0002
0000
,
0203
0320
2030
3001
,
0001
1000
1000
0100
,
0100
0000
0010
0000
0000
0010
0200
0000
,
2300
3002
0203
0320
,
0000
0000
1030
0000
0100
0000
0000
0100
,
0000
0000
0100
0000
0000
0100
0000
2000
,
0000
0000
3001
0000
0100
0000
0000
0100
,
0000
0000
0100
0000
0000
0100
0000
0002
,
0000
1003
1000
1000
,
0000
0010
0010
0010
,
0000
0000
0000
0000
0200
0000
0000
0300
0000
0000
0000
0000
0000
0000
0000
0000
;

//---------------dance-single - MEGAtive----------------
#NOTEDATA:;
#CHARTNAME:;
#CHARTHASH:3368117837:
#STEPSTYPE:dance-single;
#BANNER:;
#DESCRIPTION:MEGAtive;
#CHARTSTYLE:;
#DIFFICULTY:Easy;
#METER:8;
#METERF:0.000000;
#RADARVALUES:0.318382,0.421544,0.047587,0.690016,0.134831,281.000000,275.000000,6.000000,87.000000,0.000000,0.000000,0.000000,0.000000,0.000000,0.318382,0.421544,0.047587,0.690016,0.134831,281.000000,275.000000,6.000000,87.000000,0.000000,0.000000,0.000000,0.000000,0.000000;
#CREDIT:MEGAtive;
#DISPLAYBPM:10.000000:160.000000;
#NOTES:
0000
0000
0000
0000
,
0000
0000
0000
0000
,
1000
0100
0010
0001
1000
0010
0100
0001
,
2000
3020
0230
0302
1003
0000
1002
0000
,
0103
0000
0002
0000
0013
0100
0000
0100
,
0000
0010
0100
0000
1000
0000
0002
0000
,
0013
0000
0002
0000
0103
0010
0000
0010
,
0000
0100
0010
0000
0010
0000
2000
0000
,
3010
0000
2000
0000
3100
0010
0000
0010
,
0000
0100
0010
0000
0001
0000
2000
0000
,
3100
0000
2000
0000
3010
0100
0000
0100
,
0000
0010
0100
0000
0001
0000
2000
0000
,
3100
0000
0020
0000
0130
1000
0000
1000
,
0000
0100
1000
0000
0001
0000
0200
0000
,
0310
0000
2000
0000
3010
0100
0000
0100
,
0000
0010
0100
0000
0100
0000
0002
0000
,
0103
0000
0002
0000
0013
0100
0000
0100
,
0000
0010
0100
0000
1000
0000
0002
0000
,
0203
0320
2030
3200
,
0000
0000
0310
2000
,
3000
0002
0000
0003
0200
0300
0200
0000
,
0300
0020
0030
2000
0000
3000
0200
0000
,
0300
0020
0000
0031
0000
0001
0000
0200
,
0000
0300
0020
0000
0030
2000
3000
0002
,
0000
0003
0020
0030
0200
0000
0300
0020
,
0000
0030
0002
0000
1003
0000
1000
0000
,
0020
0000
0130
0000
0000
0100
0001
0000
,
1000
0000
1001
0000
0001
0000
0220
0330
,
0000
0000
1001
0000
0000
0001
0100
0000
,
0010
0110
1000
0002
,
0000
0000
1003
0000
0000
1000
0100
0000
,
0010
0110
0100
2000
,
0000
3002
0000
0203
,
0000
0000
0000
0000
0320
0000
0000
0000
0000
0000
0000
0000
2030
3000
0002
0003
,
1000
0000
0002
0003
0200
0300
0020
0030
0100
0000
0020
0030
2000
3000
0010
0000
,
2000
3000
0001
0000
1000
0000
0000
0000
1000
0000
0000
0000
0200
0300
0020
0030
,
0100
0000
0020
0030
0002
0003
2000
3000
0001
0000
2000
3000
0020
0030
1000
0000
,
0020
0030
0100
0000
0002
0000
0000
0000
0000
0000
0000
0000
1003
0000
0000
0000
,
1000
1000
0010
0010
,
0010
0100
0100
0100
,
0001
0001
0001
1000
,
0100
0010
0001
0100
,
0010
2000
3020
0230
,
0302
0023
0230
2300
,
0000
0000
0000
3001
,
0010
0000
0000
0000
0100
0000
0000
0100
0000
0000
0100
0000
0000
0000
0000
0000
,
1000
0000
0000
0000
0010
0000
0000
0010
0000
0000
0010
0000
0100
0000
0000
0100
,
0000
0000
0000
0000
0001
0000
0000
0001
0000
0000
0000
0000
1000
0000
0000
0000
,
0100
0000
0000
0000
0010
0000
0000
0010
0000
0000
0010
0000
0001
0000
0000
0000
,
0100
0000
0000
0000
0010
0000
0000
0010
0000
0000
0010
0000
0000
0000
0000
0000
,
1000
0000
0000
0000
0100
0000
0000
0100
0000
0000
0100
0000
0010
0000
0000
0010
,
0000
0000
0000
0000
0001
0000
0000
0001
0000
0000
0000
0000
1000
0000
0000
0000
,
0010
0200
0000
0301
,
0010
0000
0000
0000
0100
0000
0000
0100
0000
0000
0100
0000
0000
0000
0000
0000
,
0010
0000
0000
0000
0001
0000
0000
0001
0000
0000
0001
0000
1000
0000
0000
1000
,
0000
0000
0000
0000
0010
0000
0000
0010
0000
0000
0000
0000
0100
0000
0000
0000
,
0001
0000
0000
0000
0010
0000
0000
0010
0000
0000
0010
0000
0100
0000
0000
0000
,
1000
0001
1000
0010
,
0100
0000
0000
0000
0010
0000
0000
0010
0000
0000
0010
0000
2000
0000
0000
0000
,
3002
0023
0230
2300
,
0000
3020
0130
0002
,
0013
0000
0100
0000
0000
0000
0100
0000
0000
0000
0010
0000
0001
0000
0000
0001
,
0000
1000
0200
0000
0310
0000
0002
0000
,
0103
0000
0010
0000
0000
0000
0010
0000
0000
0000
0100
0000
0001
0000
0000
0001
,
0000
0010
0100
0000
1000
0000
0001
0000
,
1000
0020
0230
0302
,
2003
0000
0000
0000
3200
0000
0020
0330
0000
0000
0000
0000
0000
0000
0000
0000
;

//---------------dance-single - MEGAtive----------------
#NOTEDATA:;
#CHARTNAME:;
#CHARTHASH:2719287280:
#STEPSTYPE:dance-single;
#BANNER:;
#DESCRIPTION:MEGAtive;
#CHARTSTYLE:;
#DIFFICULTY:Medium;
#METER:12;
#METERF:0.000000;
#RADARVALUES:0.469075,0.500584,0.134831,0.460011,0.210177,414.000000,397.000000,17.000000,58.000000,0.000000,0.000000,0.000000,0.000000,0.000000,0.469075,0.500584,0.134831,0.460011,0.210177,414.000000,397.000000,17.000000,58.000000,0.000000,0.000000,0.000000,0.000000,0.000000;
#CREDIT:MEGAtive;
#DISPLAYBPM:10.000000:160.000000;
#NOTES:
0000
0000
0000
0000
,
0000
0000
0000
0000
,
0001
0001
1000
1000
0100
0100
0010
0010
,
0001
0010
0100
1000
0001
1000
0010
0100
0002
0003
0000
0000
1000
0000
0000
0000
,
0001
0100
0001
0000
1000
0100
0000
0100
,
0000
0010
0100
1000
0001
0000
0100
0000
,
0010
1000
0010
0000
0100
0001
0000
0001
,
0000
1000
0200
0000
0010
0000
1300
0000
,
0001
0010
0001
0000
1000
0010
0000
0010
,
0000
0100
0010
1000
0001
0000
0010
0000
,
0100
1000
0100
0000
0010
0001
0000
0001
,
0000
1000
0010
0100
0001
0000
2001
0000
,
3100
0010
0100
0000
1000
0010
0000
0010
,
0000
0100
0001
0010
0001
0000
2000
0000
,
3010
0100
0010
0000
1000
0100
0000
0100
,
0000
0010
0100
1000
0001
0000
1002
0000
,
0103
0010
0100
0000
0001
0000
0010
0001
,
1000
0001
0100
0000
0010
0000
1000
1000
,
0010
0010
0100
0100
0001
0001
0020
0000
,
0000
0000
0130
2002
,
3003
0220
0000
0330
2020
3030
2002
0000
,
3003
0001
0002
1003
0000
2000
3100
0000
,
0020
0130
0000
1000
0000
1000
0001
0202
,
0000
0303
2002
0000
3003
2200
3300
0220
,
0000
0330
1000
2000
3010
0000
0200
0301
,
0000
2000
3100
0000
0010
0000
0010
0100
,
2100
0000
3001
0100
0010
0100
0001
0010
,
0100
1000
0010
0100
0001
0010
0200
0000
,
0300
0000
0100
1000
0010
0100
0010
1000
,
0100
0000
0010
0000
0001
0000
0100
0000
0000
0100
0000
0000
0020
0030
2000
3000
,
0020
0030
2000
3000
0001
0000
0010
0000
0100
0000
1000
0000
0010
0000
0100
0000
,
0001
0000
0010
0000
0100
0000
1000
0000
0000
1000
0000
0000
0002
0000
0000
0000
,
0103
0010
2000
0000
3100
0010
0002
0000
,
0103
0000
0000
0000
0010
0000
0000
0000
2000
0000
0000
0000
0000
0000
0000
0000
0010
0000
0000
0000
0000
0000
0000
0000
3002
0003
0000
0000
0002
0003
0000
0000
,
0001
0000
0000
0000
2000
3000
0000
0000
0200
0300
0000
0000
0200
0300
0000
0000
0010
0000
0000
0000
0002
0003
0000
0000
0002
0003
0000
0000
0100
0000
0000
0000
,
0020
0030
0000
0000
1000
0000
0000
0000
0010
0000
0000
0000
0100
0000
0000
0000
0001
0000
0000
0000
1000
0000
0000
0000
0200
0300
0000
0000
0200
0300
0000
0000
,
0100
0000
0000
0000
0020
0030
0000
0000
0002
0003
0000
0000
0002
0003
0000
0000
0100
0000
0000
0000
0020
0030
0000
0000
0020
0030
0000
0000
0100
0000
0000
0000
,
0002
0003
0000
0000
1000
0000
0000
0000
0100
0000
0000
0000
0010
0000
0000
0000
0001
0000
0000
0000
1000
0000
0000
0000
0010
0000
0000
0000
1010
0000
0000
0000
,
0000
1001
0000
0001
1000
0100
0000
0110
,
0000
0001
0000
0001
1000
0000
1100
0000
0000
0000
1001
0000
0000
0000
0001
0000
,
1000
0000
0010
0000
0000
0000
0110
0000
0000
1000
0000
1000
0001
0000
0010
0000
,
0100
0000
0010
0001
1000
0000
0001
0100
,
0010
0000
1000
0100
0010
0001
0100
0010
,
1000
0001
0010
0100
1000
0010
0200
0000
,
1000
0000
0000
0000
0000
0000
0000
0000
0000
0000
0010
0000
0310
0000
0000
1000
,
0000
0000
1000
0000
0100
0000
0000
0001
0000
0000
0001
0000
0100
0000
0000
0010
,
0000
0000
0010
0000
0100
0000
0000
1000
0000
0000
1000
0000
0001
0000
0000
0100
,
0000
0000
0100
0000
0010
0000
0000
0001
0000
0000
0001
0000
0010
0000
0100
0000
,
0010
0000
1000
0000
0001
0000
0000
0001
0000
0000
1000
0000
0100
0000
0000
0010
,
0000
0000
0010
0000
0100
0000
0000
0001
0000
0000
0001
0000
0100
0000
0000
0010
,
0000
0000
0010
0000
0100
0000
0000
1000
0000
0000
1000
0000
0001
0000
0000
0100
,
0000
0000
0100
0000
0010
0000
0000
0001
0000
0000
0001
0000
0010
0000
0100
0000
,
0010
0000
1000
0000
1000
0000
0001
0000
0001
0000
0010
0000
0010
0000
0000
0100
,
0000
0000
0100
0000
1000
0000
0000
0001
0000
0000
0001
0000
1000
0000
0010
0000
,
0000
0010
0000
0000
1000
0000
0000
0100
0000
0000
0010
0000
0001
0000
0000
1000
,
0000
0000
1000
0000
0001
0000
0000
0100
0000
0000
0100
0000
0010
0000
1000
0000
,
0001
0000
0010
0000
0100
0000
0000
0100
0000
0000
0010
0000
0001
0000
1000
0000
,
0001
0100
0010
0100
0001
1000
0100
1000
,
0001
0000
1000
0000
0010
0000
0000
0010
0000
0000
0100
0000
0001
0000
0010
0000
,
0100
1000
0001
1000
0010
0100
0002
0000
,
0000
0100
1003
0000
0001
0001
0010
0000
,
0100
0010
0000
0010
0000
0010
0100
1000
,
0001
0000
0100
0000
0001
0001
0100
0000
,
0010
0100
0000
0100
0000
0100
0010
1000
,
0001
0000
0010
0001
1000
0001
0100
0001
,
1000
0100
0010
0010
0100
0100
1000
1000
,
0001
0000
0001
0000
0200
0000
0020
0330
0000
0000
0000
0000
0000
0000
0000
0000
;

//---------------dance-single - MEGAtive----------------
#NOTEDATA:;
#CHARTNAME:;
#CHARTHASH:2204709145:
#STEPSTYPE:dance-single;
#BANNER:;
#DESCRIPTION:MEGAtive;
#CHARTSTYLE:;
#DIFFICULTY:Hard;
#METER:15;
#METERF:0.000000;
#RADARVALUES:0.622034,0.632317,0.039656,0.380699,0.463976,549.000000,544.000000,5.000000,48.000000,0.000000,0.000000,0.000000,0.000000,0.000000,0.622034,0.632317,0.039656,0.380699,0.463976,549.000000,544.000000,5.000000,48.000000,0.000000,0.000000,0.000000,0.000000,0.000000;
#CREDIT:MEGAtive;
#DISPLAYBPM:10.000000:160.000000;
#NOTES:
0000
0000
0000
0000
,
0000
0000
0000
0000
,
1000
0000
1000
0000
0001
0000
0001
0000
0100
0010
0100
0010
1000
0001
1000
0001
,
0010
0010
0100
0100
1000
1000
0001
0001
0200
0300
0000
0000
0001
0000
1000
0000
,
0010
1000
0100
0010
0001
0100
0010
1000
,
0010
0100
0001
0010
0100
1000
0001
1000
,
0100
1000
0010
0100
0001
0010
0100
1000
,
0100
0010
0002
0000
0100
0000
1003
0001
,
0010
0001
0100
0010
1000
0100
0010
0001
,
0010
0100
1000
0010
0100
0001
1000
0001
,
0100
0001
0010
0100
1000
0010
0100
0001
,
0100
0010
1000
0001
0010
0100
1000
0001
,
0100
0010
0001
0010
0100
0010
1000
0100
,
1000
0010
0100
1000
0100
0010
1000
0001
,
0010
0100
0001
0100
0010
0100
1000
0010
,
1000
0100
0010
0001
0100
0001
1000
0001
,
0010
0100
0001
0100
0010
0100
1000
1000
,
0001
0000
0001
0000
0100
0000
0100
0000
0010
0000
0010
0000
1000
0010
1000
0000
,
0010
0100
0010
0000
0100
0001
0100
0000
0001
1000
0001
0000
0020
0000
0000
0000
,
0000
0000
0000
0000
0100
0000
0031
1000
,
0020
0030
1000
0000
0001
0000
0020
0030
0100
0000
0020
0030
0100
0000
1000
0000
,
0020
0030
0100
0000
0220
0330
0010
0000
1000
0000
0002
0003
0010
0000
0001
0000
,
2000
3000
0010
0000
1000
0000
0001
0000
0010
0000
0100
0000
1000
0000
0001
0000
,
1000
0000
0020
0030
1000
0000
0001
0000
0020
0030
0100
0000
0020
0030
0100
0000
,
1000
0000
0020
0030
0100
0000
0220
0330
0010
0000
1000
0000
0002
0003
0010
0000
,
0001
0000
2000
3000
0010
0000
1000
0000
0001
0000
0010
0000
0100
0000
1000
0000
,
0020
0000
0130
1000
0100
0010
1000
0010
,
0100
1000
0100
0010
1000
0001
0020
0000
,
0030
0000
0100
0001
0100
0010
0001
0010
,
0100
0000
0001
0000
0100
0000
0010
0001
0000
1000
0001
0000
0200
0300
0200
0300
,
0200
0300
0200
0300
0010
0000
0001
0000
0010
0000
0100
0000
0001
0000
0100
0000
,
0010
0000
0001
0000
0010
0000
0100
0001
0000
1000
0001
0000
0020
0000
0000
0000
,
0130
1000
0020
0000
0130
0001
0020
0000
,
0130
0000
0000
0000
1000
0000
0000
0000
0001
0000
0000
0000
0100
0000
0000
0000
0010
0000
0000
0000
0100
0000
0000
0000
0002
0003
0000
0000
0002
0003
0000
0000
,
1000
0000
0000
0000
0200
0300
0000
0000
0020
0030
0000
0000
0020
0030
0000
0000
0100
0000
0000
0000
2000
3000
0000
0000
2000
3000
0000
0000
0001
0000
0000
0000
,
0200
0300
0000
0000
0010
0000
0000
0000
0100
0000
0000
0000
1000
0000
0000
0000
0100
0000
0000
0000
0001
0000
0000
0000
2000
3000
0000
0000
2000
3000
0000
0000
,
0001
0000
0000
0000
0020
0030
0000
0000
0200
0300
0000
0000
0200
0300
0000
0000
0010
0000
0000
0000
0002
0003
0000
0000
0002
0003
0000
0000
1000
0000
0000
0000
,
0020
0030
0000
0000
0100
0000
0000
0000
0010
0000
1000
0000
0010
0000
0000
0000
1000
0000
0001
0000
1000
0000
0000
0000
0100
0000
0000
0000
0010
0000
0000
0000
,
0100
0000
0001
0000
0100
0000
0010
0100
0010
0000
0001
0000
0100
0000
1000
0000
,
0100
0001
0000
0001
0010
0000
0100
0000
0010
0000
1000
0000
0010
0000
0100
0010
,
0100
0000
1000
0000
0010
0000
0100
0000
0010
1000
0000
1000
0100
0000
0010
0000
,
0100
0001
0100
0010
0001
0100
0010
0001
,
0010
0000
1000
0000
0010
0000
0100
0001
0100
0000
0001
1000
0001
0000
1000
0100
,
1000
0000
0100
0010
0100
0000
0010
0001
0010
0000
0001
1000
0002
0000
0000
0000
,
0100
0000
0000
0000
0000
0000
0000
0000
0000
0000
1000
0000
1003
0000
0100
0010
,
0000
0100
0010
0000
0001
0000
1000
0010
0000
1000
0010
0000
0100
0000
0001
0010
,
0000
0001
0010
0000
0100
0000
1000
0010
0000
0010
1000
0000
0001
0000
0010
0100
,
0000
0010
0100
0000
1000
0000
0001
0100
0000
0001
0100
0000
0010
0000
1000
0000
,
0001
0000
0010
0000
0100
0000
0000
0101
0000
0000
0100
0000
1000
0000
0001
0100
,
0000
0001
0100
0000
0010
0000
1000
0100
0000
1000
0100
0000
0010
0000
0001
0100
,
0000
0001
0100
0000
0010
0000
1000
0100
0000
0100
1000
0000
0001
0000
0100
0010
,
0000
0100
0010
0000
1000
0000
0001
0010
0000
0001
0010
0000
0100
0000
1000
0000
,
0001
0000
0100
0000
1000
0000
0001
0000
0010
0000
1000
0000
0001
0000
0010
0100
,
0000
1000
0100
0000
1000
0000
0001
0100
0000
0010
0100
0000
0010
0000
1000
0100
,
0000
0010
0100
0000
0010
0000
0001
0100
0000
0100
0010
0000
1000
0000
0001
0010
,
0000
0100
0010
0000
0001
0000
1000
0010
0000
0100
0010
0000
0100
0000
0001
0000
,
1000
0000
0100
0000
0010
0000
0000
1010
0000
0000
0010
0000
0100
0000
0100
0000
,
1000
1000
0001
0001
0100
0100
0010
0010
,
0100
0000
0100
0000
1000
0000
0000
1100
0000
0000
0100
0000
0010
0000
0100
0001
,
0100
0000
0001
1000
0001
0000
1000
0100
1000
0000
0100
0010
0200
0000
0000
0000
,
0000
0010
1300
0001
0100
0100
1000
0100
,
0100
0000
0010
0000
0100
0000
0100
0000
0001
0000
0100
0000
0100
0000
0001
1000
,
0000
0001
1000
0000
0001
0000
0010
0000
0100
0000
0100
0000
0001
0000
0100
0000
,
0100
0000
0010
0000
0100
0000
0100
0000
1000
0000
0100
0000
0100
0000
0010
0001
,
0000
1000
0001
0000
0100
0000
0100
0000
0010
0000
0010
0000
1000
0000
1000
0000
,
0001
0000
0001
0000
1000
0100
1000
0000
0100
0010
0100
0000
0010
0001
0010
0000
,
0001
1000
0001
0000
0200
0000
0020
0330
0000
0000
0000
0000
0000
0000
0000
0000
;

//---------------dance-single - MEGAtive----------------
#NOTEDATA:;
#CHARTNAME:;
#CHARTHASH:269675109:
#STEPSTYPE:dance-single;
#BANNER:;
#DESCRIPTION:MEGAtive;
#CHARTSTYLE:;
#DIFFICULTY:Challenge;
#METER:17;
#METERF:0.000000;
#RADARVALUES:0.808984,0.974821,0.333111,0.499667,0.912090,714.000000,672.000000,42.000000,63.000000,0.000000,0.000000,0.000000,0.000000,0.000000,0.808984,0.974821,0.333111,0.499667,0.912090,714.000000,672.000000,42.000000,63.000000,0.000000,0.000000,0.000000,0.000000,0.000000;
#CREDIT:MEGAtive;
#DISPLAYBPM:10.000000:160.000000;
#NOTES:
// measure 0
0000
0000
0000
0000
,  // measure 1
0000
0000
0000
0000
,  // measure 2
0101
0000
0100
0000
0010
0100
0010
1000
0001
0001
0010
0010
0100
0100
1000
1000
,  // measure 3
0001
1000
0010
0100
0001
1000
0001
0010
0100
1000
0001
1000
0010
0100
0001
1000
0200
0300
0000
0000
0000
0000
0000
0000
1100
0000
0000
0000
0001
0000
1000
0000
,  // measure 4
0010
0000
1000
0001
0010
0000
0001
1000
0010
0000
0010
0000
0100
0000
0010
0100
,  // measure 5
0001
0000
1000
0001
0010
0000
0010
0000
1000
0000
0010
0000
0001
0000
1000
0001
,  // measure 6
0100
0000
0001
1000
0100
0000
1000
0001
0100
0000
0100
0000
0010
0000
0100
0010
,  // measure 7
1000
0000
0001
1000
0100
0000
0100
0000
0001
0000
0100
0000
1100
0000
0001
1000
,  // measure 8
0010
0000
1000
0001
0010
0000
0001
1000
0010
0000
0010
0000
0100
0000
0010
0100
,  // measure 9
0001
0000
1000
0001
0010
0000
0010
0000
1000
0000
0010
0000
0001
0000
1000
0001
,  // measure 10
0100
0000
0001
1000
0100
0000
1000
0001
0100
0000
0100
0000
0010
0000
0100
0010
,  // measure 11
1000
0000
0001
1000
0100
0000
0001
0000
0100
0000
1000
0000
1001
0000
0001
0100
,  // measure 12
0010
0000
1000
0100
0010
0000
0001
0100
0010
0000
0010
0000
0001
0000
0010
0100
,  // measure 13
0001
0000
1000
0100
0010
0000
0010
0000
1000
0000
0010
0000
0001
0000
1000
0010
,  // measure 14
0100
0000
0001
0010
0100
0000
1000
0010
0100
0000
0100
0000
1000
0000
0100
0010
,  // measure 15
1000
0000
0001
0010
0100
0000
0001
0000
0100
0000
1000
0000
1001
0000
0001
0100
,  // measure 16
0010
0000
1000
0100
0010
0000
0001
0100
0010
0000
0010
0000
0001
0000
0010
0100
,  // measure 17
0001
0000
1000
0001
0010
0000
0100
0000
0001
0000
0100
0000
0010
0001
1000
0001
,  // measure 18
0100
0010
1000
0001
0010
0100
0010
0001
1000
0010
0100
0001
2000
0000
0100
0000
,  // measure 19
0000
3100
0010
0001
0100
0010
1000
0100
,  // measure 20
0020
0030
0001
0000
1000
0000
0020
0030
0100
0000
0200
0300
1000
0000
0100
0000
,  // measure 21
0020
0030
1000
0000
2002
3003
0001
0000
0010
0000
0200
0300
0010
0000
0001
0000
,  // measure 22
0200
0300
0010
0000
0100
0000
0010
0000
0001
0000
0010
0000
1000
0000
0001
0000
,  // measure 23
0010
0000
0200
0000
0310
0000
0001
0000
0200
0300
0010
0000
0020
0030
0001
0000
,  // measure 24
0010
0000
0200
0300
0001
0000
2002
3003
1000
0000
0100
0000
0020
0030
0001
0000
,  // measure 25
0100
0000
0020
0030
0100
0000
0010
0000
0001
0000
0010
0000
1000
0000
0001
0000
,  // measure 26
0020
0000
0000
0000
0130
1000
0001
1000
0100
0000
0010
0001
1000
0001
0010
0000
,  // measure 27
0100
1000
0001
1000
0010
0000
0100
0001
1000
0001
0010
0000
0200
0000
0000
0000
,  // measure 28
0300
0010
0000
0010
0100
1000
0001
0100
0001
0000
0100
0010
0100
0001
1000
0000
,  // measure 29
0001
1000
0001
0010
0100
0000
0010
0001
0000
1000
0010
0000
0200
0300
0200
0300
,  // measure 30
0200
0300
0200
0300
0010
1000
0001
1000
0010
0000
0100
0001
1000
0001
0100
0000
,  // measure 31
0010
1000
0001
1000
0100
0000
0010
0100
0000
1000
0001
0000
0201
0000
0000
0000
,  // measure 32
0310
1000
1200
0000
0310
0001
0201
0000
,  // measure 33
0310
0000
0000
0000
1000
0000
0000
0000
0001
0000
0000
0000
1000
0000
0000
0000
0100
0000
0000
0000
0010
0000
0000
0000
0022
0033
0000
0000
0022
0033
0000
0000
,  // measure 34
0001
0000
0000
0000
2002
3003
0000
0000
2020
3030
0000
0000
2002
3003
0000
0000
1000
0000
0000
0000
2200
3300
0000
0000
2200
3300
0000
0000
1000
0000
0000
0000
,  // measure 35
2002
3003
0000
0000
0011
0000
0000
0000
0010
0000
0000
0000
0001
0000
0000
0000
1000
0000
0000
0000
0010
0000
0000
0000
2020
3030
0000
0000
2020
3030
0000
0000
,  // measure 36
1000
0000
0000
0000
2002
3003
0000
0000
0022
0033
0000
0000
2002
3003
0000
0000
0001
0000
0000
0000
0202
0303
0000
0000
0202
0303
0000
0000
0001
0000
0000
0000
,  // measure 37
2002
3003
0000
0000
1100
0000
0000
0000
0100
0000
1000
0000
0001
0000
1000
0000
0010
0000
0100
0000
0010
0000
1000
0000
0001
0000
0000
0000
0011
0000
0000
0000
,  // measure 38
1000
0000
1100
0000
0001
0000
0001
0010
0100
0000
1100
0000
1000
0000
1001
0000
,  // measure 39
0001
0100
0000
0100
0010
0000
1010
0000
1000
0000
1010
0000
0001
0000
0001
1000
,  // measure 40
0010
0000
1010
0000
0100
0000
1001
0000
0001
0010
0000
0010
0100
0000
0100
0000
,  // measure 41
1000
1000
0010
0010
1001
1000
0010
0010
,  // measure 42
0100
0000
0100
0000
1001
0000
0001
1000
0100
0000
0010
0100
1000
0000
0001
1000
,  // measure 43
0010
0000
0100
0001
1000
0000
0100
0010
0001
1000
0001
0100
0020
0000
0000
0000
,  // measure 44
0001
0000
0000
0000
0000
0000
0000
0000
0000
0000
1000
0000
1030
0000
0001
0010
,  // measure 45
0000
0100
0010
0000
0001
0000
1000
0010
0000
0010
0100
0010
1000
0000
0100
0010
,  // measure 46
0000
0010
0100
1000
0001
0000
1000
0010
0100
0001
1000
0001
0010
0000
0100
0010
,  // measure 47
0000
0010
0001
0000
0100
0000
0010
0001
0000
0001
0010
0000
0100
0010
0100
0001
,  // measure 48
1000
0001
0010
0100
1000
0001
0100
0010
0100
0001
1000
0100
0010
0000
0100
1000
,  // measure 49
0000
0001
1000
0000
0010
0000
1000
0010
0000
0010
0100
0010
1000
0000
0001
0010
,  // measure 50
0000
0010
0100
1000
0001
0000
1000
0001
0010
0100
1000
0001
0100
0000
0010
0100
,  // measure 51
0000
0100
0001
0000
0010
0000
0100
0001
0000
0001
0100
0000
0010
0100
0010
0001
,  // measure 52
1000
0001
0100
0010
0100
0001
0100
0010
0100
0001
1000
0100
0010
0000
0001
0010
,  // measure 53
0000
0001
1000
0000
0010
0000
0100
0010
0000
0010
0100
0010
1000
0000
0001
0010
,  // measure 54
0000
0010
0100
1000
0001
0000
1000
0010
0100
0010
1000
0001
0010
0000
0100
1000
,  // measure 55
0000
1000
0010
0000
0100
0000
1000
0100
0000
0100
0010
0000
0100
0010
0100
0001
,  // measure 56
1000
0100
0010
0100
1000
0001
1000
0010
0100
0001
1000
0001
0010
0000
0010
0000
,  // measure 57
0001
0001
1000
1000
0010
0010
0110
1000
,  // measure 58
1000
0000
0001
0000
0001
0000
0000
1100
0000
0000
0100
0010
0001
1000
0001
0100
,  // measure 59
0010
1000
0001
0010
0100
0010
0001
1000
0001
0100
0010
1000
0002
0000
0000
0000
,  // measure 60
0000
1000
1003
0010
0100
0100
1000
0100
,  // measure 61
0100
0000
0010
0000
1000
0000
1000
0000
0100
0000
1000
0000
1000
0000
0010
0100
,  // measure 62
0000
0100
0010
0000
1001
0000
1000
0000
0100
0000
0100
0000
0001
0000
0100
0000
,  // measure 63
0100
0000
0010
0000
0001
0000
0001
0000
0100
0000
0001
0000
0001
0000
0010
0100
,  // measure 64
0000
0100
0010
0000
1001
0000
0001
0000
0100
0000
0100
0000
0010
0000
0010
0000
,  // measure 65
1000
0000
1000
0000
0100
0010
0100
1000
0001
1000
0010
0100
0001
1000
0001
0010
,  // measure 66
0100
0010
0001
1000
0020
0000
0200
0330
0000
0000
0000
0000
0000
0000
0000
0000
;
