#TITLE:Tempest;
#SUBTITLE:;
#ARTIST:Symmetrik & Geoplex;
#TITLETRANSLIT:;
#SUBTITLETRANSLIT:;
#ARTISTTRANSLIT:;
#GENRE:;
#CREDIT:KAYSTAR;
#BANNER:tempestbn.png;
#BACKGROUND:tempestbg.png;
#LYRICSPATH:;
#CDTITLE:;
#MUSIC:tempest.ogg;
#OFFSET:0.000000;
#SAMPLESTART:75.429001;
#SAMPLELENGTH:10.000000;
#SELECTABLE:YES;
#BPMS:0.000000=175.000000
,58.000000=87.500000
,65.000000=175.000000
,67.000000=87.500000
,82.000000=175.000000
,84.000000=87.500000
,124.000000=175.000000
,220.000000=87.500000
;
#STOPS:56.000000=0.686000
;
#BGCHANGES:40.000=tempest.avi=1.000=0=0=1===CrossFade_Fastest==,
236.000=tempestbg.png=1.000=0=0=1=====,
99999=-nosongbg-=1.000=0=0=0 // don't automatically add -songbackground-
;
#KEYSOUNDS:;
#ATTACKS:;

//---------------dance-single - KAYSTAR----------------
#NOTES:
     dance-single:
     KAYSTAR:
     Beginner:
     4:
     0.164845,0.230349,0.034704,0.008676,0.000000,133.000000,129.000000,4.000000,1.000000,0.000000,0.000000,0.164845,0.230349,0.034704,0.008676,0.000000,133.000000,129.000000,4.000000,1.000000,0.000000,0.000000:
0000
0000
0000
0000
,
0000
0000
0000
0000
,
0000
0000
0000
0000
,
0000
0000
0000
0000
,
0000
0000
0000
0000
,
0000
0000
0000
0000
,
0100
0000
0000
0000
,
0000
0100
0100
0000
,
0010
0000
0010
0000
,
0000
0010
0010
0000
,
1000
0000
1000
0000
,
0001
0000
0001
0000
,
1000
1000
0100
0100
,
0010
0000
0010
0000
,
0001
0000
0001
0000
,
1000
1000
0010
0000
,
1000
1000
0000
1000
,
0000
0001
0001
0010
,
0000
0001
0001
0100
,
0000
0010
0010
1000
,
0000
0100
0100
0000
,
0100
0000
1000
1000
,
0010
0000
0100
0000
,
0100
0100
0100
0001
,
1000
0001
0010
0000
,
0010
0010
0010
0001
,
1000
0001
0100
0100
,
0010
0000
0000
0000
0000
0000
1000
1000
,
1000
0000
0001
0001
,
0010
0000
0000
0000
0000
0000
0001
0001
,
0002
0000
0000
0003
,
1000
0000
0000
0000
,
1000
0000
0010
0010
,
0010
0000
0000
0000
,
0100
0000
0001
0001
,
0001
0000
1000
0000
,
0100
0000
1000
0000
,
1001
0000
0110
0000
,
1000
1000
1000
1000
,
0001
0000
0100
0000
,
0010
0000
1000
1000
,
1000
0000
0100
0000
,
0010
0000
0001
0001
,
0001
0000
1000
0000
,
0010
0000
0100
0000
,
1001
0000
0010
0000
,
1001
0000
0100
0000
,
0001
0000
0010
0000
,
0100
0000
0010
0010
,
0010
0000
0001
0000
,
0100
0000
0010
0010
,
0010
0000
1000
0000
,
0100
0000
1000
1000
,
0000
0001
0001
0000
,
0100
0100
0000
0100
,
0100
0000
0000
0000
,
0010
0000
0000
0000
,
1000
0000
0000
0000
,
0001
0000
0000
0000
0000
0000
0010
0010
,
0010
0000
0000
0000
;

//---------------dance-single - KAYSTAR----------------
#NOTES:
     dance-single:
     KAYSTAR:
     Easy:
     9:
     0.337126,0.516224,0.104112,0.095436,0.138817,272.000000,260.000000,12.000000,11.000000,0.000000,0.000000,0.337126,0.516224,0.104112,0.095436,0.138817,272.000000,260.000000,12.000000,11.000000,0.000000,0.000000:
0000
0000
0000
0000
,
0000
0000
0000
0000
,
0000
0000
0000
0000
,
0000
0000
0000
0000
,
0000
0000
0000
0000
,
0000
0000
0000
0000
,
1000
0000
0010
0000
,
0000
1000
1000
0000
,
0001
0000
0000
0000
0010
0000
0000
0001
,
0000
0001
1000
0000
1000
0000
0000
0000
,
2010
0000
3100
0000
,
0012
0000
0103
0000
,
1000
0100
0010
0001
,
1000
0000
0000
0010
0000
0000
0100
0000
,
0002
0000
0000
0000
0003
0000
0000
0000
0000
0000
0000
0000
0000
0000
0000
0000
0000
0000
0000
0000
0000
0000
0000
0000
1000
0000
0000
0000
0000
0000
0000
0000
0000
0000
0000
0000
1100
0000
0000
0000
0000
0000
0010
0000
0000
0001
0000
0000
,
0000
0010
0001
0000
1000
0000
0010
0000
0110
0000
0000
0000
0101
0000
0010
1000
,
0000
0010
1000
0000
0100
0000
0000
0000
0000
0000
0000
0000
0000
0000
0000
0000
,
1010
0000
0001
0100
0000
0001
0100
0000
0001
0000
0001
0000
1000
0000
0000
0000
,
0011
0000
0100
1000
0000
0100
1000
0000
0001
0000
0001
0000
1000
0000
0000
0000
,
0110
0000
0001
0100
0000
0010
0100
0000
0001
0000
1000
0000
0100
0000
0000
0000
,
0110
0000
0001
0010
0000
0100
0010
0000
0001
0000
0000
0000
0000
0000
0000
0000
,
0000
0000
0000
0000
1010
0000
0001
0100
0000
0010
0100
0000
0001
0010
0100
0000
,
1000
0000
0000
0000
0101
0000
0010
1000
0000
0100
0010
0000
0001
0000
0000
0000
,
1000
0000
1000
0000
0100
0000
1000
0100
0000
0010
0100
0000
0001
0100
0000
0000
,
1000
0000
0001
0000
0100
0000
0010
0100
0000
1000
0100
0000
0001
0000
1000
0000
,
1000
0000
0001
0000
0100
0000
0001
0100
0000
0010
0100
0000
1000
0100
0000
0000
,
0001
1000
0100
0001
0100
1000
0001
0100
,
0020
0000
0000
0030
,
0200
0000
0000
0300
,
0002
0000
0000
0003
,
1000
0000
0000
0000
0000
0000
0000
0100
0000
1000
0000
0001
0000
0100
0000
0000
,
0001
0000
1000
0000
0000
0100
1000
0000
,
0000
0100
0001
0000
0100
1000
0001
0000
,
1000
0000
0001
0000
0000
0100
0001
0000
,
0000
0100
1000
0000
0100
0001
1000
0000
,
0100
0001
0010
1000
,
0100
0000
1000
0000
0001
1000
0001
0000
,
0100
1000
0010
0001
,
1000
0000
0000
1000
0000
0000
1000
0000
,
0001
0000
0001
0010
0000
0001
1000
0000
,
0010
0100
0000
0100
0000
0100
0000
0100
,
0001
0000
1000
0100
0000
0010
0001
0000
,
1000
0010
0000
0100
0001
0000
1001
0000
,
0001
0000
1000
0010
0000
1000
0001
0000
,
0010
0000
0100
0000
0000
0100
0000
0000
1000
0000
0100
0000
0010
0000
0000
0000
,
0100
0010
0001
0000
1000
0001
1000
0000
,
0001
0100
0010
0000
0100
0010
1000
0000
,
0001
0010
0001
0000
1000
0100
1000
0000
,
0001
1000
0010
1000
0001
0100
0001
0000
,
1000
0010
1000
0000
0001
0010
0001
0000
,
1000
0100
1000
0001
0100
0001
1000
0001
,
0010
0000
0100
0000
1000
0100
1000
0000
,
0001
1000
0001
0000
0100
0010
0100
0001
,
0000
1000
0100
0000
0100
0001
0000
0100
,
1000
0001
1000
0001
0000
0000
0100
0000
,
0020
0000
0000
0030
,
0200
0000
0000
0300
,
0002
0000
0000
0003
,
2000
0000
0000
0000
0000
0000
0000
0000
3000
0000
0000
0000
0001
0010
0100
0010
,
0002
0000
0003
0000
;

//---------------dance-single - KAYSTAR----------------
#NOTES:
     dance-single:
     KAYSTAR:
     Medium:
     12:
     0.447436,0.696903,0.251605,0.338365,0.325351,361.000000,332.000000,29.000000,39.000000,0.000000,0.000000,0.447436,0.696903,0.251605,0.338365,0.325351,361.000000,332.000000,29.000000,39.000000,0.000000,0.000000:
0000
0000
0000
0000
,
0000
0000
0000
0000
,
0000
0000
0000
0000
,
0000
0000
0000
0000
,
0000
0000
0000
0000
,
0000
0000
0000
0000
,
2000
0000
3100
0000
,
0000
1000
1001
0000
,
0002
0000
0000
0000
0103
0000
0000
1010
,
0000
1000
0001
0000
1001
0000
0000
0000
,
0021
0000
0000
0000
0130
1000
0001
0100
,
0201
0000
0000
0000
0310
1000
0001
0010
,
0200
2300
3020
0230
,
0301
1000
1000
0001
0010
0010
0001
1000
,
2000
0000
0000
0000
3000
0000
0000
0000
0000
0000
0000
0000
0000
0000
0000
0000
0000
0000
0000
0000
0000
0000
0000
0000
0102
0000
0000
0000
0000
0000
0000
0000
0000
0000
0000
0000
1003
0000
0000
0000
0000
0000
0100
0000
0000
0001
0000
0000
,
0000
0100
1000
0000
0001
2000
0010
0000
3002
0000
0000
0000
1003
0000
0001
0100
,
0000
1000
0100
0000
0020
0000
0000
0000
0000
0000
0000
0000
2030
0000
0000
0000
,
3001
0000
1000
0100
0000
0001
0100
0000
0100
1000
0001
0000
1002
0000
0000
0000
,
0013
0000
0001
1000
0000
1000
0001
0000
1000
0100
0010
0001
2000
0000
0000
3010
,
1000
0000
0010
0100
0000
0100
0001
1000
0100
2000
0001
0000
3200
0000
0000
0000
,
0310
0000
0100
1000
0000
0100
0001
0000
0200
0000
0000
0000
0000
0000
0000
0000
,
2300
0000
0000
0000
3001
0000
0100
1000
0000
0100
0001
0000
0001
1000
0100
0000
,
0012
0000
0000
0000
1003
0000
0001
0100
0000
0100
1000
0000
0110
0000
0000
0000
,
0001
1000
0100
1000
0001
0000
0100
1000
0000
0001
0010
0000
1000
0010
0000
0000
,
1000
0001
0100
0001
1000
0000
0100
0001
0000
1000
0010
0000
0100
0000
0100
0000
,
2001
0000
0000
0000
3001
0000
0100
1000
0000
0001
0010
0000
1000
0010
0000
0000
,
1000
0001
1000
0100
1000
0001
0100
0001
1000
0010
0100
0001
1000
0100
0010
0001
,
1000
0000
0000
0101
0000
0000
2010
0000
0000
0001
0000
0000
3100
0010
0001
2000
,
0000
0000
0000
0000
3000
0000
0000
0000
0001
0000
0000
1000
0100
0000
0000
1000
,
0001
0000
0000
1100
0000
0000
0012
0000
0000
1000
0000
0000
0103
0100
0010
2000
,
0000
0000
0000
0000
3000
0000
0000
0001
0000
1000
0000
0100
0000
0001
0000
0100
,
1000
0000
1001
0000
0000
1000
0100
0000
,
0010
0000
1001
0000
0000
0001
0100
0000
,
0010
0000
1001
0000
0000
1000
0010
0000
,
0000
0100
1000
0000
0000
0100
0001
0000
,
1000
0000
1001
0000
0000
0001
0010
0000
,
1000
0000
1001
0000
0000
0001
0100
0000
,
1000
0000
1001
0000
0000
0001
0010
0000
,
0001
1000
1000
0010
1000
1000
0001
0001
,
1000
0000
0001
0100
0010
1000
0100
0000
,
1000
0001
0000
0101
0000
1100
0000
0001
,
0100
0000
0010
1000
0001
0010
0001
0100
,
0010
0000
0000
0000
1000
0000
0000
0001
0000
0000
0001
0000
1000
0000
0000
0000
,
0010
0000
1000
0100
1000
0001
0100
0000
,
0010
0000
1000
0000
0001
1000
0000
0000
0001
0000
1000
0000
0100
0000
0001
0000
,
0000
0100
1000
0000
0001
1000
0010
1000
,
0001
0000
0000
0000
1001
0000
0000
1000
0000
0000
1000
0000
1000
0000
0001
0000
,
0001
0000
1000
0100
0010
0001
0100
0000
,
0001
0000
0100
0000
0010
0100
0000
0000
0010
0000
1000
0000
0001
0000
1000
0000
,
0100
0000
0010
0001
1000
0010
1000
0100
,
0010
0000
0000
0000
0001
0000
0000
1000
0000
0000
1000
0000
0001
0000
0000
0000
,
0010
0000
0001
0100
0001
1000
0100
0000
,
0010
0000
0001
0000
1000
0001
0000
0000
1000
0000
0001
0000
0100
0000
1000
0000
,
0000
0100
0001
0000
1000
0100
0000
0001
,
0100
1000
0010
0001
0000
0000
0010
0000
,
2001
0000
0000
3100
0000
0000
1002
0000
0000
0103
0000
0000
0210
0000
0000
0301
,
2000
0000
0000
0100
0000
0000
3002
0000
0000
0103
0000
0000
2002
0000
3003
0000
,
1020
0000
0000
0100
0000
0000
0001
0000
0000
0000
0000
0000
0130
0000
0000
0000
,
2001
0000
0000
3200
0000
0000
0302
0000
0000
0203
1000
0000
1300
0100
0010
0002
,
0000
0000
0003
0000
;

//---------------dance-single - KAYSTAR----------------
#NOTES:
     dance-single:
     KAYSTAR:
     Hard:
     15:
     0.625914,0.903392,0.190873,0.242929,0.728787,505.000000,483.000000,22.000000,28.000000,0.000000,0.000000,0.625914,0.903392,0.190873,0.242929,0.728787,505.000000,483.000000,22.000000,28.000000,0.000000,0.000000:
// measure 0
0000
0000
0000
0000
,  // measure 1
0000
0000
0000
0000
,  // measure 2
0000
0000
0000
0000
,  // measure 3
0000
0000
0000
0000
,  // measure 4
0000
0000
0000
0000
,  // measure 5
0000
0000
0000
0000
,  // measure 6
0001
0000
0101
0000
,  // measure 7
0000
1000
1010
0000
,  // measure 8
0001
0000
0000
0000
0011
0000
0001
0100
,  // measure 9
0000
1000
0100
0000
0110
0000
0000
0000
,  // measure 10
2001
0000
0000
0000
0100
0000
0000
0000
3001
0100
0010
0000
1000
0010
0100
0000
,  // measure 11
0120
0000
0001
0000
0130
0001
0010
1000
,  // measure 12
0020
0032
2003
3200
,  // measure 13
0301
0100
0100
1000
0010
0010
0100
0001
,  // measure 14
2000
0000
0000
0000
0000
0000
0000
0000
0000
0000
0000
0000
0000
0000
0000
0000
3000
0000
0000
0000
0000
0000
0000
0000
0000
0000
0000
0000
0000
0000
0000
0000
0000
0000
0000
0000
0000
0000
0000
0000
0000
0000
0000
0000
0000
0000
0000
0000
0000
0000
0000
0000
0000
0000
0000
0000
0000
0000
0000
0000
0000
0000
0000
0000
0000
0000
0000
0000
0000
0000
0000
0000
0000
0000
0000
0000
0000
0000
0000
0000
0000
0000
0000
0000
0000
0000
0000
0000
0000
0000
0000
0000
0000
0000
0000
0000
0102
0000
0000
0000
0000
0000
0000
0000
0000
0000
0000
0000
0000
0000
0000
0000
0000
0000
0000
0000
0000
0000
0000
0000
1000
0000
0000
0000
0000
0000
0000
0000
0000
0000
0000
0000
0000
0000
0000
0000
0000
0000
0000
0000
0000
0000
0000
0000
0013
0000
0000
0000
0000
0000
0000
0000
0000
0000
0000
0000
0000
0000
0000
0000
0000
0000
0000
0000
0000
0000
0000
0000
0001
0000
0000
0000
0000
0000
0010
0000
0000
0000
0000
0000
1000
0000
0000
0000
0000
0000
0000
0000
0000
0000
0000
0000
,  // measure 15
0010
0000
0001
0000
1000
0000
0010
0000
0100
0000
0000
0100
0001
0000
0000
0000
2010
0000
0000
0000
0001
0000
0000
0000
3100
0000
1000
0100
0001
0000
0100
0000
,  // measure 16
1000
0001
0100
0010
1020
0000
0000
0000
0000
0000
0000
0000
0230
0000
1000
0000
,  // measure 17
0301
0000
0000
0000
0001
0010
1000
0000
0010
0000
0001
0000
0100
0000
0010
0000
1000
0000
0100
0000
0001
0000
0000
0000
0201
0000
0000
0000
0010
0000
0000
0000
,  // measure 18
1300
0000
0001
0100
1000
0000
0100
0000
0000
0000
0100
0000
0001
0000
0000
0000
1000
0000
1000
0000
0001
0000
0001
0000
0012
0000
0000
0000
1000
0000
0000
0000
,  // measure 19
0103
0000
0000
0000
0001
0100
1000
0000
0100
0000
0001
0000
1000
0000
0100
0000
0010
0000
0000
0010
0001
0000
0000
0000
2100
0000
0000
0000
0001
0000
0000
0000
,  // measure 20
3010
0000
1000
0010
0001
0000
0010
0000
1000
0000
0001
0000
0010
0000
0100
0000
1200
0000
0000
0000
0000
0000
0000
0000
0000
0000
0000
0000
0000
0000
0000
0000
,  // measure 21
0320
0000
0000
0000
1000
0000
0000
0000
0031
0000
0000
0000
0001
0100
1000
0000
0100
0000
0001
0000
0010
0000
0100
0000
1000
0000
0010
0000
0001
0000
0000
0000
,  // measure 22
0021
0000
0000
0000
0100
0000
0000
0000
1030
0000
0001
0010
1000
0000
0010
0000
0000
0000
0010
0000
0001
0000
0000
0000
2002
0000
0000
0000
3003
0000
0000
0000
,  // measure 23
0001
0000
0010
0000
0100
0000
0001
0000
0201
0000
0000
0000
1300
0100
0001
0000
0000
0000
0001
0100
1000
0000
0000
0000
0001
0100
1000
0000
0000
0000
0100
0001
,  // measure 24
1000
0000
0010
0000
0100
0000
1000
0000
1200
0000
0000
0000
0301
0100
1000
0000
0000
0000
1000
0100
0001
0000
0000
0000
1001
0000
0000
0001
0100
0000
0000
0000
,  // measure 25
2010
0000
0000
0000
0001
0000
0000
0000
3200
0000
0000
0000
1300
0100
0001
0000
0000
0000
0001
0000
0100
0000
1000
0000
0001
0000
0100
0000
0010
0000
1000
0000
,  // measure 26
0001
0000
0010
0000
1000
0000
0010
0000
0001
0000
0100
0000
0001
0000
1000
0000
1000
0000
0010
0000
0001
0000
0010
0000
1000
0000
0100
0000
0010
0001
0010
0001
,  // measure 27
2000
0000
0000
0100
0000
0000
3020
0000
0000
0100
0000
0000
0031
0010
1000
0100
,  // measure 28
0010
1000
0010
0001
0000
0000
1000
0000
0010
0000
0000
0100
0001
0000
0000
1000
,  // measure 29
0200
0000
0000
0000
0000
0000
0010
0000
0000
0000
0000
0000
2300
0000
0000
0000
0000
0000
0010
0000
0000
0000
0000
0000
3001
0010
0001
0000
1000
0000
0010
0000
,  // measure 30
0001
0010
1000
0000
0000
0000
0000
0001
0000
0101
0000
1100
0000
0101
0000
0001
,  // measure 31
1000
0000
0010
1000
0000
0100
0100
0000
,  // measure 32
1000
0010
0100
0001
0000
0010
0010
0000
,  // measure 33
0100
0000
0010
0001
0100
0010
0010
0000
,  // measure 34
0001
0010
1000
0000
0001
0010
1000
0000
,  // measure 35
0001
0100
1000
0010
0001
0010
1000
0100
,  // measure 36
0001
0100
1000
0010
0001
0010
1000
0000
,  // measure 37
0001
0010
1000
0010
0001
0100
1000
0100
,  // measure 38
0001
0010
0010
0100
1000
1000
0010
0100
,  // measure 39
0001
0000
1000
0001
0000
0001
1000
0000
0100
0000
0001
0000
0100
0000
1000
0000
,  // measure 40
0001
0000
0100
0010
0000
0010
1000
0000
0001
0010
0000
0010
0100
0000
1000
0000
,  // measure 41
1000
0000
0001
0100
0000
0001
0100
0000
0010
1000
0000
1000
0100
0000
1000
0100
,  // measure 42
0000
0010
0001
0000
0001
0100
0000
0001
0100
0000
0001
1000
0001
0000
0010
0000
,  // measure 43
0010
0000
0001
1000
0000
1000
0001
0000
0010
0001
0000
0010
0001
0000
0001
0100
,  // measure 44
0000
0010
1000
0000
0010
1000
0000
1000
0100
0000
1000
0000
0010
0000
0001
0000
,  // measure 45
0010
1000
0001
0010
1000
0010
0001
0001
,  // measure 46
0100
0000
0000
0100
0010
0100
0000
0010
1000
0000
1000
0000
0001
0000
0001
0000
,  // measure 47
1000
0000
0100
0010
0000
0010
0001
0000
0001
0100
0000
0100
0010
0000
0010
1000
,  // measure 48
0000
1000
0100
0000
0100
0010
0000
0010
0001
0000
1000
0001
1000
0000
0100
0000
,  // measure 49
0100
0000
1000
0001
0000
0001
0100
0000
0100
0010
0000
0010
0001
0000
0001
0010
,  // measure 50
0000
0010
1000
0000
1000
0100
0000
0100
1000
0000
0001
1000
0001
0000
0100
0000
,  // measure 51
0100
0000
0001
0010
0000
0010
0100
0000
0100
0001
0000
0001
1000
0000
1000
0010
,  // measure 52
0000
0010
0001
0000
0001
1000
0000
1000
0001
0000
0100
0000
1000
0000
0100
0000
,  // measure 53
0001
1000
0100
0001
0100
1000
0001
0001
,  // measure 54
1000
0000
0010
0000
0001
0000
0010
0000
1000
0000
0100
0000
0010
0001
0010
0001
,  // measure 55
1000
0000
0000
0010
0000
0000
0100
0000
0000
0001
0000
0000
1000
0100
0010
0001
,  // measure 56
1000
0000
0000
0010
0000
0000
0100
0000
0000
0001
0000
0000
1000
0000
0000
0001
,  // measure 57
0010
0000
0010
0100
0000
0100
1000
0000
0000
0001
0000
0000
1000
0000
0001
1000
,  // measure 58
0010
0000
0000
0000
0001
0000
0010
0000
0000
0000
1000
0000
0100
0000
0000
0000
1000
0000
0001
0000
0100
0000
0000
0000
0010
1000
0010
1000
0001
0100
0001
0100
,  // measure 59
0020
0000
0030
0000
;
