#VERSION:0.83;
#TITLE:太陽SUNSUNボンジュールアバンチュール;
#SUBTITLE:;
#ARTIST:Project B-;
#TITLETRANSLIT:Taiyou SUNSUN bonjour aventure;
#SUBTITLETRANSLIT:;
#ARTISTTRANSLIT:;
#GENRE:;
#ORIGIN:;
#CREDIT:;
#BANNER:Taiyou SUNSUN bonjour aventure.png;
#BACKGROUND:;
#PREVIEWVID:;
#JACKET:Taiyou SUNSUN bonjour aventure-jacket.png;
#CDIMAGE:;
#DISCIMAGE:;
#LYRICSPATH:;
#CDTITLE:;
#MUSIC:Taiyou SUNSUN bonjour aventure.ogg;
#OFFSET:0.699000;
#SAMPLESTART:78.199997;
#SAMPLELENGTH:15.857140;
#SELECTABLE:YES;
#DISPLAYBPM:70.000000:140.000000;
#BPMS:0.000=140.000,
71.000=210.000,
72.000=140.000,
103.000=210.000,
104.000=140.000,
111.000=210.000,
112.000=140.000,
253.000=70.000,
257.000=140.000,
260.000=17.500;
#STOPS:71.000=0.143,
103.000=0.143,
111.000=0.143,
158.000=0.214,
158.500=0.214,
251.000=0.143,
251.333=0.143,
251.667=0.143,
252.000=0.429,
257.000=0.429,
257.333=0.429,
257.667=0.429,
258.000=0.643,
258.500=0.643,
259.000=0.429,
259.333=0.429,
259.667=0.429;
#DELAYS:;
#WARPS:;
#TIMESIGNATURES:0.000=4=4;
#TICKCOUNTS:0.000=4;
#COMBOS:0.000=1;
#SPEEDS:0.000=1.000=0.000=0;
#SCROLLS:0.000=1.000;
#FAKES:;
#LABELS:0.000=Song Start,
183.000=Stream part 1,
215.000=Stream part 2;
#LASTSECONDHINT:117.593323;
#BGCHANGES:-0.300=Taiyou SUNSUN bonjour aventure.mp4=1.000=0=0=0=StretchNoLoop====,
999.000=Taiyou SUNSUN bonjour aventure-bg.png=1.000=0=0=1=====,
99999=-nosongbg-=1.000=0=0=0 // don't automatically add -songbackground-
;
#KEYSOUNDS:;
#ATTACKS:
;

//---------------dance-single - ----------------
#NOTEDATA:;
#CHARTNAME:C3 (20+) C4 (13) C5 (8+) S2 S6 S8;
#STEPSTYPE:dance-single;
#DESCRIPTION:;
#CHARTSTYLE:;
#DIFFICULTY:Hard;
#METER:17;
#RADARVALUES:0.840028,0.856184,0.422291,0.597581,1.115485,738.000000,685.000000,53.000000,75.000000,8.000000,0.000000,0.000000,0.000000,0.000000,0.840028,0.856184,0.422291,0.597581,1.115485,738.000000,685.000000,53.000000,75.000000,8.000000,0.000000,0.000000,0.000000,0.000000;
#CREDIT:nobarben;
#DISPLAYBPM:70.000000:140.000000;
#NOTES:
0000
0000
0000
0000
,
0000
0000
0000
0000
,
0000
0000
0000
0000
,
0000
0000
0000
0000
,
0000
0000
0000
0000
,
0000
0000
0000
0000
1001
0110
1001
0000
,
1000
0000
0001
0100
0001
0000
0100
0000
0010
0000
1000
0001
1000
0000
0100
0000
,
0010
0000
0001
0100
0010
0000
0100
0000
0001
0000
1000
0100
0010
0000
0100
0000
,
1000
0000
0010
0100
0001
0000
0010
0000
0001
0000
0100
0010
1000
0000
0100
0000
,
1000
0000
0000
0000
0000
0000
0100
0000
0000
0010
0000
0000
0001
0000
0000
0000
0000
0000
1000
0000
0000
0000
0000
0000
0010
0000
0000
0000
0100
0000
0000
0000
0010
0000
0000
0000
0110
0000
0000
0000
0000
0000
0000
0000
0000
0000
0000
0000
,
1000
0100
0000
1000
0010
0000
0100
0000
0001
0000
0001
0010
0100
0000
0000
0000
,
1000
0100
0010
0000
0001
0100
0010
1000
0001
0000
0001
1000
0001
0000
0000
0000
,
0001
0100
0000
0001
0010
0000
0100
0000
1000
0000
1000
0010
0100
0000
0000
0000
,
0001
0100
0010
0000
1000
0100
0010
0001
1000
0000
1000
0001
1000
0000
0000
0000
,
1000
0100
0000
1000
0010
0000
0100
0000
0001
0000
0001
0010
0100
0000
1000
0100
,
0010
0001
1000
0000
0001
0100
0010
1000
0001
0000
1000
0010
0100
0010
1000
0001
,
1000
0000
0001
0010
0100
0000
1000
0010
0000
0100
0010
0001
0000
0010
0100
0000
,
0010
1000
0100
0000
0010
0001
0000
1000
0110
0000
0110
0000
1001
0000
0000
0000
,
0002
0100
0000
1003
0010
0000
1000
0000
0001
0000
0001
0010
0100
0000
0010
0000
,
1000
0100
0010
0000
0001
0100
0010
1000
0100
0000
0100
0010
0100
0000
0010
0000
,
2000
0100
0000
3001
0010
0000
0001
0000
1000
0000
1000
0010
0100
0000
0010
0000
,
0001
0100
0010
0000
1000
0100
0010
0001
0100
0000
0100
0010
0100
0000
0010
0000
,
0002
0010
0000
1003
0100
0000
1000
0000
0001
0000
0001
0100
0010
0000
1000
0010
,
0100
0001
1000
0000
0001
0010
0100
1000
0001
0000
1000
0010
0100
0010
1000
0001
,
1000
0100
0010
0100
1000
0001
0010
0001
0100
0010
0100
0001
1000
0010
1000
0100
,
0010
0000
0000
0001
0000
0000
0010
0000
0000
0100
0000
0000
1000
0000
0000
0010
0000
0000
0100
0000
0000
1000
0000
0000
0100
0000
0000
0000
0010
0000
0000
0000
0100
0000
0000
0000
0110
0000
0000
0000
0000
0000
0000
0000
0000
0000
0000
0000
,
1000
0000
0000
1010
0000
0000
0010
0100
0010
0100
0010
0100
0001
0000
0000
0011
0000
0000
0010
0100
0010
0100
0010
0100
,
1000
0000
1100
0000
1000
0010
0000
0001
0100
0000
1100
0000
1001
0000
0000
0000
,
0002
0000
0000
0103
0010
0100
0001
0100
0010
0000
0010
1000
0010
0000
0000
0000
,
2000
0000
0000
3100
0010
0100
1000
0100
0010
0000
0010
0001
0010
0000
0000
0000
,
0002
0000
0000
0103
0010
0100
0001
0100
0010
0000
0010
1000
0010
0000
0000
0000
,
0120
0000
0000
0000
0001
0000
0000
0000
2030
0000
0000
0000
0000
3100
0010
0001
,
2000
0000
0000
3100
0010
0100
0001
0100
1000
0000
1000
0001
1000
0000
0010
0000
,
0002
0000
0000
0103
0010
0100
1000
0100
0001
0000
0001
1000
0001
0000
0010
0000
,
2000
0000
0000
3010
0100
0010
0001
0010
1000
0000
1000
0001
1000
0000
0100
0000
,
0120
0000
0000
0000
0000
0000
1000
0000
0000
0000
0000
0000
0032
0000
0000
0000
0000
0000
1003
0100
1000
0001
0100
0001
,
2000
0000
0000
3001
0000
1000
0100
0000
0201
0000
0000
1300
0000
0000
0001
0000
,
1000
0000
0010
0000
0001
0000
1000
0000
0100
0000
0001
0000
0011
0000
0000
1000
0001
1000
0001
0100
0001
1000
0100
1000
,
0002
0000
0000
1003
0000
0001
0100
0000
1200
0000
0000
0301
0000
0000
1000
0000
,
0001
0000
0000
0000
0010
0000
0000
0000
1000
0000
0000
0000
0001
0000
0000
0000
0100
0000
0000
0000
1000
0000
0000
0000
1010
0000
0000
0000
0000
0000
MMMM
0000
0000
0000
0000
0000
0012
0000
0000
0000
0000
0000
0000
0000
0000
0100
0000
0000
,
0000
0000
1003
0000
2010
0000
0000
0100
0000
0000
3001
0000
0201
0000
0000
0010
,
0000
0000
1300
0000
1200
0000
0000
0010
0000
0000
0301
0000
0201
0000
0310
0000
,
1200
0000
0310
0000
0201
0000
0310
0000
1200
0000
0310
0000
0001
0010
0001
1000
,
0100
0000
0000
1000
0000
0000
0001
0000
0000
0100
0000
0000
0001
0000
0000
1000
0000
0000
0010
0000
0000
1000
0000
0000
0001
0000
0100
0000
0001
0000
1000
0000
0100
0000
1000
0000
0002
0000
0000
0000
0000
0000
0000
0000
0000
0000
0000
0000
,
0000
0000
1003
0010
0001
0000
0010
0000
0100
0000
0001
0000
0011
0000
0100
1000
,
1010
0000
0100
0001
0011
0000
0011
0000
1100
0000
1100
0000
0100
0020
0130
1000
,
0001
0000
0100
0010
0100
0001
0020
0130
1000
0000
0001
0010
0001
1000
0100
0020
,
0031
0000
1000
0001
0100
0010
1000
0100
0020
0030
0100
1000
0010
0100
1000
0100
,
0000
0020
1030
0000
0100
1000
0001
0010
0100
1000
0020
0130
0010
1000
0010
0001
,
0010
0100
0001
0020
0130
0010
1000
0010
0100
1000
0001
1000
0020
0130
1000
0100
,
0001
1000
0100
0000
1000
0020
0130
0010
0001
1000
0100
0001
0200
0000
0320
1030
,
0100
1000
0001
0010
0100
1000
0000
0020
0130
0010
1000
0100
0010
0001
0100
0000
,
0020
0030
0100
0001
0010
0100
1000
0100
0000
0020
1030
0000
0010
0001
0100
0010
,
1000
0000
0000
0100
0000
0000
0020
0000
0000
0130
0000
0000
0010
0000
0000
0000
0010
0000
0000
0000
0010
0000
0000
0000
0110
0000
0000
0000
0000
0000
0000
0000
0000
0000
0000
0000
1000
0000
0000
0002
0000
0000
1003
0000
0000
0010
0000
0000
,
0100
0010
1000
0100
0010
0100
0002
0103
0010
0001
1000
0010
0100
1000
0100
0002
,
1003
0100
0010
0100
1000
0010
0100
0010
0002
0013
1000
0001
0010
0100
1000
0010
,
0100
0002
0103
0010
0001
0010
1000
0001
1000
0100
0002
0103
0010
0001
1000
0001
,
0100
1000
0100
0002
0013
0100
1000
0001
1000
0010
0100
0010
0002
1003
0100
0010
,
1000
0100
0010
1000
0010
0002
1003
0010
0100
1000
0100
0010
1000
0100
0002
0103
,
0010
0001
1000
0001
0100
1000
0100
0002
0013
0100
0010
1000
0001
0100
1000
0010
,
0002
0013
0100
0001
0010
1000
0001
0100
0010
0002
1003
0010
0100
1000
0001
0010
,
0100
0000
0000
0010
0000
0000
0002
0000
0000
0013
0000
0000
1000
0000
0000
0000
1000
0000
0000
0000
1000
0000
0000
0000
1001
0000
0000
0000
0000
0000
0000
0000
0000
0000
0000
0000
2010
0000
0000
0000
0000
0000
0001
0000
0000
0000
0000
0000
,
3100
0000
0000
0000
0000
0000
0110
0000
0000
0000
0000
0000
0012
0000
0000
0000
0000
0000
1000
0000
0000
0000
0000
0000
0103
0000
0000
0010
0000
0000
1000
0000
0000
0001
0000
0000
1001
0000
0000
0000
1100
0000
0000
0000
1100
0000
0000
0000
,
1001
0000
0102
1000
0013
0110
2100
0001
,
3010
0000
0000
0100
0000
0000
0001
0000
0000
1000
0000
0000
2002
0000
3003
0000
0022
0000
0033
0000
0022
0000
0033
0000
2002
0000
3003
0000
0000
0000
MMMM
0000
0000
0000
0000
0000
2002
0000
3003
0000
2200
0000
3300
0000
2200
0000
3300
0000
,
2002
3003
0000
0000
0000
0000
0000
0000
;

//---------------dance-single - ----------------
#NOTEDATA:;
#CHARTNAME:C3 (27) C4 (13) C5 (4) S2 S6 S8;
#STEPSTYPE:dance-single;
#DESCRIPTION:;
#CHARTSTYLE:;
#DIFFICULTY:Medium;
#METER:14;
#RADARVALUES:0.603272,0.726459,0.239032,0.446194,0.482049,530.000000,500.000000,30.000000,56.000000,0.000000,0.000000,0.000000,0.000000,0.000000,0.603272,0.726459,0.239032,0.446194,0.482049,530.000000,500.000000,30.000000,56.000000,0.000000,0.000000,0.000000,0.000000,0.000000;
#CREDIT:nobarben;
#DISPLAYBPM:70.000000:140.000000;
#NOTES:
0000
0000
0000
0000
,
0000
0000
0000
0000
,
0000
0000
0000
0000
,
0000
0000
0000
0000
,
0000
0000
0000
0000
,
0000
0000
0000
0000
,
1000
0100
1000
0010
1000
0100
1000
0010
,
0001
0100
0001
0010
0001
0100
0001
0010
,
1000
0100
1000
0010
0001
0100
0001
0010
,
1000
0000
0000
0000
0000
0000
0100
0000
0000
0010
0000
0000
0001
0000
0000
0000
0000
0000
1000
0000
0000
0000
0000
0000
0010
0000
0000
0000
0100
0000
0000
0000
0010
0000
0000
0000
0100
0000
0000
0000
0000
0000
0000
0000
0000
0000
0000
0000
,
0001
0100
0000
0001
0100
0000
0010
0000
1000
0000
1000
0000
0001
0000
0000
0000
,
1000
0100
0001
0100
1000
1000
1000
0000
,
1000
0010
0000
1000
0010
0000
0100
0000
0001
0000
0001
0000
1000
0000
0000
0000
,
0001
0010
1000
0010
0100
0100
0100
0000
,
1000
0100
0000
1000
0100
0000
0010
0000
0001
0000
0001
0000
0100
0000
1000
0000
,
1000
0100
0001
0001
0010
1000
0001
0100
,
1000
0000
0010
0000
0100
0000
0001
1000
0000
0100
0010
0001
0000
0100
0010
0000
,
1000
0001
1000
0000
0100
0010
0000
0001
1000
0000
0001
0000
1001
0000
0000
0000
,
1000
0100
0000
1000
0010
0000
0100
0000
0001
0000
0010
0000
0110
0000
0000
0000
,
1000
0100
1000
0000
0001
0100
0001
0000
1000
0000
0001
0000
1001
0000
0000
0000
,
0001
0100
0000
0001
0010
0000
0100
0000
1000
0000
0010
0000
0110
0000
0000
0000
,
0001
0010
0001
0000
1000
0010
1000
0000
0100
0000
0010
0000
0110
0000
0000
0000
,
1000
0010
0000
1000
0100
0000
0010
0000
0001
0000
0001
0010
0001
0000
1000
0010
,
1000
0000
0010
0000
0100
0001
0100
0000
0010
0000
1000
0001
0010
0000
0100
0000
,
1000
0100
0010
0000
0001
0000
1000
0000
0001
0100
0010
0000
1000
0000
0001
0000
,
1000
0000
0000
0000
0000
0000
0100
0000
0000
0010
0000
0000
0001
0000
0000
0000
0000
0000
1000
0000
0000
0000
0000
0000
0010
0000
0000
0000
0100
0000
0000
0000
0010
0000
0000
0000
0100
0000
0000
0000
0000
0000
0000
0000
0000
0000
0000
0000
,
0001
0100
0020
0000
1030
0100
0020
0000
,
0031
0000
1000
0000
0010
0100
0000
0100
0010
0000
1000
0000
0001
0000
0000
0000
,
2000
0000
0000
3100
0010
0000
0001
0000
0100
0000
0100
0000
0100
0000
0000
0000
,
0002
0000
0000
0103
0010
0000
1000
0000
0100
0000
0100
0000
0100
0000
0000
0000
,
2000
0000
0000
3010
0100
0000
0001
0000
0010
0000
0010
0000
0010
0000
0000
0000
,
0200
0000
0001
0000
2300
0000
0000
3001
,
0200
0000
0000
0310
1000
0010
1000
0000
0100
0000
0100
0000
0100
0000
0000
0000
,
0020
0000
0000
0031
0100
0001
0100
0000
0010
0000
0010
0000
0010
0000
0000
0000
,
2000
0000
0000
3010
0100
0010
0100
0000
0001
0000
0001
0000
0001
0000
0000
0000
,
0020
0000
1000
0000
0032
0000
0000
0003
,
1100
0000
0000
1000
0000
0000
0010
0000
0101
0000
0000
0001
0000
0000
0010
0000
,
0110
0000
0100
0000
0010
0000
1001
0000
0000
0110
0000
0000
,
0101
0000
0000
0001
0000
0000
0010
0000
1100
0000
0000
1000
0000
0000
0010
0000
,
0110
0000
0000
0000
0000
0000
0000
0000
0001
0000
0000
0000
0000
0000
0000
0000
1000
0000
0000
0000
0000
0000
0000
0000
0110
0000
0000
0000
0000
0000
0000
0000
0000
0000
0000
0000
0002
0000
0000
0000
0000
0000
0000
0000
0000
0010
0000
0000
,
0000
0000
0100
0000
2003
0000
0000
0100
0000
0000
0010
0000
3002
0000
0000
0100
,
0000
0000
0010
0000
2003
0000
0000
0010
0000
0000
0100
0000
3002
0000
0010
0000
,
2003
0000
0010
0000
3002
0000
0100
0000
2003
0000
0100
0000
3001
0010
0000
0100
,
1000
0000
0010
0100
0000
0001
1000
0000
0100
0010
0100
0010
0200
0000
0000
0000
,
0000
2300
0000
3020
,
0230
0000
0000
0000
0301
0000
0001
0000
1000
0000
1000
0000
0001
0200
0301
0000
,
0010
0000
0100
0000
1000
0010
2000
3000
0100
0000
0010
0000
0100
0000
0100
0002
,
0103
0000
1000
0000
0010
1000
0010
0000
0002
0003
0010
0000
0100
0000
0001
0010
,
0000
0200
1300
0000
0010
1000
0010
0000
0100
0000
0002
0003
1000
0100
1000
0000
,
0100
0000
0010
2000
3010
0000
0100
0000
0010
0000
0001
0000
2000
3001
1000
0000
,
0010
0000
0100
0000
0010
2000
3001
0000
0100
0000
0001
0000
0010
0100
0020
0030
,
0001
0000
1000
0000
0100
0000
1000
0002
0013
0000
0100
0000
0010
0000
0001
0100
,
0020
0030
1000
0000
0010
0000
0100
0000
0001
2000
3100
0000
1000
0000
0100
0000
,
0010
0000
0000
0001
0000
0000
2000
0000
0000
3000
0000
0000
0010
0000
0000
0000
0100
0000
0000
0000
0010
0000
0000
0000
0100
0000
0000
0000
0000
0000
0000
0000
0000
0000
0000
0000
0001
0000
0000
2000
0000
0000
3100
0000
0000
1000
0000
0000
,
0001
0000
0010
0000
0100
0000
2000
3001
0100
0000
0010
0000
0100
0000
0001
0020
,
0130
0000
1000
0000
0001
1000
0100
1000
0002
0003
0100
0000
0010
1000
0010
1000
,
0000
0002
1003
0000
0100
1000
0100
1000
0100
0010
0002
0003
1000
0010
0100
0000
,
0001
0000
0010
0002
0103
0000
0010
0000
0100
1000
0100
0000
0020
0130
0010
1000
,
0000
0001
1000
0000
0100
2000
3100
0010
0001
0000
1000
0000
0001
0000
0200
0310
,
1000
0000
0001
0000
1000
0000
0100
0002
0103
0000
1000
0000
0001
0010
0100
1000
,
0002
0003
1000
0000
0010
0100
0001
1000
0100
0020
0130
0000
1000
0010
0100
0001
,
0010
0000
0000
0100
0000
0000
2000
0000
0000
3001
0000
0000
0100
0000
0000
0000
0010
0000
0000
0000
0100
0000
0000
0000
0010
0000
0000
0000
0000
0000
0000
0000
0000
0000
0000
0000
0101
0000
0000
0000
0000
0000
0100
0000
0000
0000
0000
0000
,
0010
0000
0000
1000
0000
0000
1100
0000
0000
0100
0000
0000
0010
0000
0000
0001
0000
0000
1001
0000
0110
0000
0110
0000
,
1001
0000
1100
0100
0010
0001
0101
0100
,
0010
0000
0000
1000
0000
0000
1001
0000
0110
0000
0110
0000
2002
0000
0000
3003
0000
0000
1001
0000
0110
0000
0110
0000
,
2002
3003
0000
0000
0000
0000
0000
0000
;

//---------------dance-single - ----------------
#NOTEDATA:;
#CHARTNAME:;
#STEPSTYPE:dance-single;
#DESCRIPTION:;
#CHARTSTYLE:;
#DIFFICULTY:Easy;
#METER:9;
#RADARVALUES:0.346028,0.414323,0.294807,0.366516,0.015935,304.000000,267.000000,37.000000,46.000000,0.000000,0.000000,0.000000,0.000000,0.000000,0.346028,0.414323,0.294807,0.366516,0.015935,304.000000,267.000000,37.000000,46.000000,0.000000,0.000000,0.000000,0.000000,0.000000;
#CREDIT:;
#DISPLAYBPM:70.000000:140.000000;
#NOTES:
// measure 0
0000
0000
0000
0000
,  // measure 1
0000
0000
0000
0000
,  // measure 2
0000
0000
0000
0000
,  // measure 3
0000
0000
0000
0000
,  // measure 4
0000
0000
0000
0000
,  // measure 5
0000
0000
0000
0000
,  // measure 6
1000
0010
1000
1000
,  // measure 7
0001
0010
0001
0001
,  // measure 8
0100
0100
0010
0010
,  // measure 9
1000
0001
2002
3003
,  // measure 10
0001
0000
0100
0000
0010
0100
0010
0000
,  // measure 11
2000
0000
3002
0000
0013
0100
0010
0000
,  // measure 12
0100
0000
1000
0000
0010
0100
0010
0000
,  // measure 13
0200
0000
0302
0000
0013
0100
0010
0000
,  // measure 14
0001
0000
0100
0000
0010
0100
0010
0000
,  // measure 15
1000
0010
1000
0000
0001
0010
0001
0000
,  // measure 16
1000
1000
0001
0001
,  // measure 17
0010
0000
0100
0000
1000
1000
1000
0000
,  // measure 18
1000
0000
0010
0000
0100
0100
0100
0000
,  // measure 19
0002
0000
2003
0000
3100
0100
0100
0000
,  // measure 20
0010
0000
0001
0000
0100
0100
0100
0000
,  // measure 21
0020
0000
2030
0000
3100
0100
0100
0000
,  // measure 22
1000
0000
0010
0000
0100
0100
0100
0000
,  // measure 23
0001
0001
0001
0000
1000
1000
1000
0000
,  // measure 24
0011
0001
1100
1000
,  // measure 25
0100
0010
2002
3003
,  // measure 26
0001
0102
1003
2100
,  // measure 27
3001
1000
0001
0000
1000
0000
1001
0000
,  // measure 28
0002
0000
0103
0000
0010
0010
0010
0000
,  // measure 29
2000
0000
3100
0000
0010
0010
0010
0000
,  // measure 30
0002
0000
1003
0000
0010
0010
0010
0000
,  // measure 31
0200
0302
2003
0000
,  // measure 32
3200
0000
0320
0000
0031
0001
0001
0000
,  // measure 33
2000
0000
3020
0000
0130
0100
0100
0000
,  // measure 34
0002
0000
0023
0000
0130
0100
0100
0000
,  // measure 35
2000
3020
0200
0330
,  // measure 36
0101
0000
1100
0000
,  // measure 37
0001
0000
1000
0000
0001
0000
1000
0000
0000
0000
0000
0000
,  // measure 38
1010
0000
0011
0000
,  // measure 39
1000
0000
0001
0000
1000
0000
0001
0000
0000
1100
0000
0000
,  // measure 40
0000
0011
0000
0101
,  // measure 41
0000
1010
0000
0011
,  // measure 42
0011
1100
1100
1010
,  // measure 43
0000
0101
0000
0000
0110
0000
2002
0000
,  // measure 44
3003
0220
0330
1001
,  // measure 45
0110
0000
1000
0001
1000
0000
0001
0100
,  // measure 46
0010
0000
1000
0000
0001
0000
1000
0100
,  // measure 47
0010
0000
0001
1000
0001
0000
0100
0001
,  // measure 48
1000
0000
0001
1000
0001
0000
1000
0000
,  // measure 49
0100
0000
0010
0000
0001
0000
1000
0010
,  // measure 50
0100
0000
0001
1000
0100
0000
0010
0000
,  // measure 51
0001
0000
0100
0001
0100
0000
0010
1000
,  // measure 52
0001
0000
1000
0001
0010
0000
0100
0000
,  // measure 53
0010
0000
2002
0000
3003
0000
0001
0100
,  // measure 54
0001
0100
0001
0000
1000
0000
0100
0000
,  // measure 55
0010
0100
0010
0000
0001
0000
1000
0010
,  // measure 56
1000
0000
0001
0100
0001
0000
1000
0000
,  // measure 57
0001
0000
0010
0100
1000
0000
0001
0100
,  // measure 58
0001
0100
0010
0000
1000
0000
0001
0000
,  // measure 59
1000
0001
0010
0000
0100
0000
1200
0000
,  // measure 60
0310
0012
1003
2001
,  // measure 61
3010
0000
0220
0000
0330
0000
0001
0100
,  // measure 62
0010
0000
0000
0000
0000
0000
1000
0000
0000
0100
0000
0000
0010
0000
0000
0000
0000
0000
2002
0000
0000
0000
3003
0000
,  // measure 63
1001
0000
1000
0100
0010
0000
0001
0100
,  // measure 64
0010
0000
0000
2002
0000
3003
1001
0000
0000
2002
0000
3003
,  // measure 65
1001
0000
0000
0000
;
