#TITLE:Tablet;
#SUBTITLE:;
#ARTIST:TOOBOE;
#TITLETRANSLIT:;
#SUBTITLETRANSLIT:;
#ARTISTTRANSLIT:;
#GENRE:;
#CREDIT:NOWHERE Dance Club;
#MUSIC:Tablet.ogg;
#BANNER:Tablet-bn.png;
#BACKGROUND:Tablet-bg.png;
#LYRICSPATH:Tablet.lrc;
#CDTITLE:cdtitle.png;
#SAMPLESTART:59.140;
#SAMPLELENGTH:18.300;
#SELECTABLE:YES;
#OFFSET:0.260;
#BPMS:0.000=100.000;
#STOPS:;
#BGCHANGES:0.433=Tablet.avi=0.000=0=0=1,
99999.000=-nosongbg-=1.000=0=0=0=StretchNoLoop====
;
#FGCHANGES:;

//--------------- dance-single - NOWHERE Dance Club ----------------
#NOTES:
     dance-single:
     NOWHERE Dance Club:
     Beginner:
     4:
     0,0,0,0,0:
0000
0000
0000
0000
,
0000
1000
0100
1000
,
0010
0110
0100
0001
,
1000
1001
0001
0010
,
0100
0110
0010
0001
,
1000
0000
0020
0000
1030
0000
0100
0010
,
0010
0000
0100
0010
0100
0000
0010
0001
,
0010
0000
0001
0000
0100
0000
0010
0100
,
0010
0000
1000
0001
1000
0000
0100
1000
,
0100
0000
0010
0000
0010
0000
0001
0100
,
0010
2000
3010
1000
,
0001
0000
0010
0000
0010
0000
0000
0000
0100
0000
0000
0000
0020
0000
0000
0M00
,
0000
0M00
0000
0000
0M00
0000
0000
0000
0032
0000
0000
0000
0000
0000
0000
0000
0103
0000
0000
0000
0000
0000
0000
0000
0010
0000
0000
0000
0100
0000
0000
0000
,
0010
0000
1000
1000
0001
0000
0010
0100
,
1000
0000
0001
0000
0100
0000
0010
1000
,
0100
0000
1000
0000
0010
0000
1000
0001
,
1000
0100
0100
0010
,
0010
0000
0001
0010
0002
0203
0320
2030
,
3001
1000
1000
0001
,
0001
0000
0100
0000
0010
0000
0100
0010
,
1000
0000
0000
0000
0100
0000
0000
0000
0010
0000
0000
0100
0000
0010
0000
0000
,
0002
0100
1000
0103
,
1001
0000
0000
0000
1000
0000
0100
0000
0010
0000
0000
0010
0000
0001
0000
0000
,
1000
1000
0200
0000
0320
0000
0031
0100
,
0020
0000
2030
3010
0110
0000
1001
0000
,
0101
0000
0010
1000
0010
0000
1000
0100
,
0020
0000
0032
0203
0320
2030
3001
0000
,
0100
0000
0010
0100
0010
0000
1000
0010
,
1000
0010
2000
3020
0230
0302
1003
0000
,
0100
1000
1001
0001
,
0100
0000
0002
0023
0230
2300
3001
0000
,
0100
0001
0100
0000
0010
0000
0010
1000
,
0100
0000
0000
0000
0010
0000
0000
0000
0002
0000
0000
0000
00M0
0M00
00M0
0M00
00M0
0M00
00M0
0M00
00M0
0M00
00M0
0000
2003
0000
0000
0000
0000
0000
0000
0000
,
3020
0000
0000
0000
0000
1030
0000
0000
0000
1001
0000
0000
0002
0000
0000
0000
,
0203
0000
0000
0000
0000
0310
0000
0000
0000
1010
0000
0000
2000
0000
0000
0000
,
3200
0000
0000
0000
0000
0310
0000
0000
0000
0011
0000
0000
0002
0000
0000
0000
,
0203
0000
0000
0000
0000
0320
0000
0000
0000
0000
1030
0000
0000
0000
0000
0000
;

//--------------- dance-single - NOWHERE Dance Club ----------------
#NOTES:
     dance-single:
     NOWHERE Dance Club:
     Easy:
     7:
     0,0,0,0,0:
0000
0000
0000
0000
,
0000
0000
0000
0000
1000
0000
0000
0000
0010
0000
0000
0100
0000
0010
0000
0100
,
0000
0010
0000
0000
0100
0000
0000
0000
0010
0000
0000
1000
0000
0010
0000
1000
,
0000
0010
0000
0000
1000
0000
0000
0000
0100
0000
0000
0010
0000
0100
0000
0010
,
0000
0100
0000
0000
1000
0000
0000
0000
0001
0000
0000
0100
0000
0001
0000
0100
,
0000
0001
0000
0000
2000
0000
0000
0000
3020
0000
0000
0000
1030
0000
0100
0000
,
0010
0001
2000
0000
3200
0000
1300
0001
,
0010
0001
0200
0000
0320
0000
1030
0010
,
1000
0100
0020
0000
0031
0100
0001
1000
,
0002
0000
2003
0000
3020
0000
1030
0100
,
0010
0001
0002
0000
0023
0000
0031
0100
,
0010
1000
1010
0000
1001
0000
0101
0000
,
0002
0000
2003
0000
3020
0000
1030
0010
,
1000
0100
2000
0000
3020
0000
0130
0010
,
1000
0001
0002
0000
0023
0000
0031
0010
,
0001
0100
0002
0010
0023
0000
0130
1000
,
0001
0100
0220
0330
0010
1000
0002
0000
,
1003
0100
0100
1000
0020
0000
1030
0010
,
2000
3002
0023
0032
,
0203
0000
0310
0100
0010
1000
0100
0010
,
0001
0000
1000
0000
0100
0000
0000
0000
0010
0000
0000
0001
0000
0010
0000
0000
,
0001
0000
0100
0000
0020
0000
0000
0000
1030
0000
0000
0002
0000
0000
0000
0000
,
0023
0000
0000
0000
0032
0000
0000
0000
0103
0000
0000
0010
0000
2000
0000
0000
,
3001
1000
0002
1000
1003
0100
0010
0010
,
0001
0001
1000
1000
0001
0000
1000
0100
,
0001
0000
0100
0000
1000
0000
0001
1000
0000
0000
0001
0000
0100
0000
0010
0000
,
1000
0010
0001
0010
2000
0000
3001
0010
,
0100
1000
0100
0001
0100
1000
0100
0010
,
0001
1000
0001
0100
1000
0100
0002
0000
,
1003
1000
0020
0000
0130
0100
0010
1000
,
0001
0010
0001
0010
0100
1000
0002
0000
,
0103
0100
0010
1000
0010
1000
0100
0010
,
0001
0000
0000
0000
0010
0000
0000
0000
0001
0000
0000
0000
20M0
0M00
00M0
0M00
00M0
0M00
00M0
0M00
00M0
0M00
00M0
0000
3001
0000
0000
0000
0000
0000
0000
0000
,
0010
0000
0000
0000
0000
0100
0000
0000
1000
0010
0000
0000
1000
0000
0000
0000
,
0100
0000
0000
0000
0000
0010
0000
0000
0001
1000
0000
0000
0001
0000
0000
0000
,
0010
0000
0000
0000
0100
0000
0000
0000
0010
0001
0000
0000
1000
0000
0000
0000
,
0100
0000
0000
0000
0000
0002
0000
0000
0000
0000
1003
0000
0000
0000
0000
0000
;

//--------------- dance-single - NOWHERE Dance Club ----------------
#NOTES:
     dance-single:
     NOWHERE Dance Club:
     Medium:
     10:
     0,0,0,0,0:
0000
0000
0000
0000
0000
0000
0000
0000
0000
0000
0000
0000
0000
0000
0000
0000
0000
0000
0000
0000
0000
0000
0000
0000
0000
0000
0000
0000
0000
0000
0000
0000
0000
0000
0000
0000
0000
0000
0000
0000
0000
0000
0000
0000
0000
0000
0000
0000
0M00
0000
0000
0000
0000
0000
00M0
0000
0000
0000
0000
0000
0M00
0000
0000
0000
0000
0000
00M0
0000
0000
0000
0000
0000
0M00
0000
0000
0000
0000
0000
00M0
0000
0000
0000
0000
0000
0M00
0000
0000
0000
0000
0000
00M0
0000
0000
0000
0000
0000
0M00
0000
0000
00M0
0000
0000
0M00
0000
0000
00M0
0000
0000
0M00
0000
0000
00M0
0000
0000
0M00
0000
0000
00M0
0000
0000
0M00
0000
0000
00M0
0000
0000
0M00
0000
0000
00M0
0000
0000
0M00
0000
0000
00M0
0000
0000
0M00
0000
0000
00M0
0000
0000
0M00
0000
00M0
0000
0M00
0000
00M0
0000
0M00
0000
00M0
0000
0M00
0000
00M0
0000
0M00
0000
00M0
0000
0M00
0000
00M0
0000
0M00
0000
00M0
0000
0M00
0000
00M0
0000
0M00
0000
00M0
0000
0M00
0000
00M0
0000
0M00
0000
00M0
0000
0M00
0000
00M0
0000
,
0M00
00M0
0M00
00M0
0M00
00M0
0M00
00M0
0M00
0000
00M0
0000
0M00
0000
0000
00M0
0000
0000
0000
0000
0000
0000
0000
0000
0001
0000
0000
0000
0000
0000
0000
0000
0000
0000
0000
0000
0100
0000
0000
0000
0000
0000
0000
0000
0000
0000
0000
0000
0010
0000
0000
0000
0000
0000
1000
0000
0000
0000
0000
0000
0000
0000
0000
0000
0000
0000
0010
0000
0000
0000
0000
0000
0000
0000
0000
0000
0000
0000
0100
0000
0000
0000
0000
0000
0000
0000
0000
0000
0000
0000
0001
0000
0000
0000
0000
0000
,
0000
2000
0000
0000
3001
0000
0100
0000
0010
1000
0000
0100
0000
0010
0000
0001
,
0000
0020
0000
0000
0031
0000
0100
0000
0010
1000
0000
0001
0000
1000
0000
0100
,
0000
0020
0000
0000
0031
0000
0100
0000
0010
1000
0000
0100
0000
0010
0000
0100
,
0000
2000
0000
0000
3002
0000
0000
0000
1003
0000
1000
0010
0000
1000
0000
0100
,
0000
0010
0000
0002
0000
0000
0103
0000
0010
0000
1000
0000
0010
1000
0000
2000
,
0000
0000
0000
0000
3002
0000
0000
0000
0103
0000
0001
0010
0000
0001
0000
0100
,
0000
0200
0000
0310
0000
0100
0020
0000
2030
0000
3001
1000
0010
1000
0000
2000
,
0000
0000
0000
0001
3001
0000
0100
0000
0010
0000
1000
0000
0100
0000
1000
0000
,
0001
0000
0010
0100
1000
0000
0001
0000
0100
0000
0010
0000
1000
0000
0100
0000
,
1000
0000
0001
0000
1001
0000
1000
0100
0000
0000
0010
0002
0000
0000
0000
0000
,
1003
0000
0000
0000
0012
0000
0000
0000
0013
0000
0001
0100
0000
0001
0000
0010
,
0000
0020
0000
0130
0000
0010
0001
0000
1000
0001
0100
0000
0020
0000
1030
0020
,
0000
0000
0000
0000
2030
0000
0000
0000
3001
0000
0001
0010
0000
0001
0000
0100
,
0000
0010
0000
2000
0000
0000
3100
0000
0010
0000
0001
0000
0010
0001
0010
0002
,
0000
0000
0000
1000
1003
0000
0100
0000
0010
0000
0001
0000
0100
0000
0001
0000
,
0010
0000
0001
0100
0010
0000
1000
2000
0000
0000
3200
0000
0302
0000
0203
0000
,
1300
0000
0010
2000
0000
0000
3010
0200
0000
0000
0301
2000
0000
0000
3100
0020
,
0000
0000
0031
2000
0000
3002
0000
0023
0000
0032
0000
0203
0000
0302
0000
2003
,
0000
3020
0000
0130
0001
0000
0010
0000
0001
0000
0100
0010
0000
0200
0000
0000
,
0302
0000
2003
0000
3020
0000
0032
0000
0013
2000
0000
3001
0000
0010
0000
0100
,
0000
1000
0010
0000
1000
0000
0100
0000
0010
0000
0001
0100
0000
0001
0000
0102
,
0000
0103
0010
1000
0010
1000
1100
0110
,
0011
0001
0000
0001
0100
0010
2000
0000
3001
0000
0000
0000
1001
0000
0001
1000
,
0001
0000
1000
0000
0100
0000
0010
0001
0000
0001
0100
0000
0010
0000
1000
0000
,
0100
0010
0001
0000
1000
0000
0001
0000
2000
0000
0001
0000
3001
0000
0100
0000
,
0110
0000
0010
0000
1000
0010
1000
0020
0000
2030
0000
0000
3100
0000
0010
0000
,
0001
1000
0002
0000
2003
0000
3200
0000
0302
0000
0203
0000
2300
0000
0000
0000
,
3100
0010
0001
0001
1000
1000
0010
0100
,
0010
2000
3020
0032
0023
1030
1002
0000
,
1003
0100
0010
0100
0010
0001
0100
0010
,
1000
0000
0000
0000
0001
0000
0000
0000
1000
0000
0000
0000
20M1
0M00
00M0
0M00
00M0
0M00
00M0
0M00
00M0
0M00
00M0
0000
3001
0000
0000
0100
0000
0000
0001
0000
,
0000
1000
0000
0000
0100
0000
0000
1000
0000
0000
0001
0000
0000
0010
0000
0000
0001
0000
0020
0000
0000
0000
0000
0000
0031
0000
0000
0100
0000
0000
0001
0000
,
0000
0010
0000
0000
0001
0000
0000
0100
0000
0000
0010
0000
0000
1000
0000
0000
0001
0000
2000
0000
0000
0000
0000
0000
3001
0000
0000
0100
0000
0000
0010
0000
,
0000
1000
0000
0000
0001
0000
0000
1000
0000
0000
0100
0000
0000
0010
0000
0000
0001
0000
0200
0000
0000
0000
0000
0000
0301
0000
0000
0100
0000
0000
0001
0000
,
0000
1000
0000
0000
0100
0000
0000
0010
0000
0000
0001
0000
0000
0001
0000
0000
1000
0000
0000
2001
0000
0000
0000
0000
0000
0000
0000
0000
0000
0000
0000
0000
,
3000
0000
0000
0000
;

//--------------- dance-single - NOWHERE Dance Club ----------------
#NOTES:
     dance-single:
     NOWHERE Dance Club:
     Hard:
     13:
     0,0,0,0,0:
0000
0000
0000
0000
0000
0000
0000
0000
0000
0000
0000
0000
0000
0000
0000
0000
0000
0000
0000
0000
0000
0000
0000
0000
0000
0000
0000
0000
0000
0000
0000
0000
0000
0000
0000
0000
0000
0000
0000
0000
0000
0000
0000
0000
0000
0000
0000
0000
0M00
0000
0000
0000
0000
0000
00M0
0000
0000
0000
0000
0000
0M00
0000
0000
0000
0000
0000
00M0
0000
0000
0000
0000
0000
0M00
0000
0000
0000
0000
0000
00M0
0000
0000
0000
0000
0000
0M00
0000
0000
0000
0000
0000
00M0
0000
0000
0000
0000
0000
0M00
0000
0000
00M0
0000
0000
0M00
0000
0000
00M0
0000
0000
0M00
0000
0000
00M0
0000
0000
0M00
0000
0000
00M0
0000
0000
0M00
0000
0000
00M0
0000
0000
0M00
0000
0000
00M0
0000
0000
0M00
0000
0000
00M0
0000
0000
0M00
0000
0000
00M0
0000
0000
0M00
0000
00M0
0000
0M00
0000
00M0
0000
0M00
0000
00M0
0000
0M00
0000
00M0
0000
0M00
0000
00M0
0000
0M00
0000
00M0
0000
0M00
0000
00M0
0000
0M00
0000
00M0
0000
0M00
0000
00M0
0000
0M00
0000
00M0
0000
0M00
0000
00M0
0000
0M00
0000
00M0
0000
,
0M00
00M0
0M00
00M0
0M00
00M0
0M00
00M0
0M00
0000
00M0
0000
0M00
0000
0000
00M0
0000
0000
0000
0000
0000
0000
0000
0000
1000
0000
0000
0000
0000
0000
0000
0000
0000
0000
0000
0000
0010
0000
0000
0000
0000
0000
0100
0000
0000
0000
0000
0000
0010
0000
0000
0100
0000
0000
0010
0000
0000
0000
0000
0000
0000
0000
0000
0000
0000
0000
2000
0000
0000
0000
0000
0000
0000
0000
0000
0000
0000
0000
3200
0000
0000
0000
0000
0000
0000
0000
0000
0000
0000
0000
0320
0000
0000
0000
0000
0000
,
0000
0000
0032
0000
0000
0000
0000
0000
0013
0000
0000
0000
0001
0000
1000
0000
0001
1000
0001
0000
0000
0000
2000
0000
0000
0000
3020
0000
0000
0000
0230
0000
,
0000
0000
0302
0000
0000
0000
0000
0000
0013
0000
0000
0000
0100
0000
1000
0000
0100
1000
0100
0000
0000
0000
2000
0000
0000
0000
3020
0000
0000
0000
0230
0000
,
0000
0000
0302
0000
0000
0000
0000
0000
0103
0000
0000
0000
0001
0000
0010
0000
0001
0010
0001
0000
0000
0000
2000
0000
0000
0000
3200
0000
0000
0000
0320
0000
,
0000
0032
0000
0000
0203
0000
0000
0000
0310
0000
0100
0010
0000
1000
0100
0010
,
0000
0000
0001
0000
0100
0000
0001
0100
0001
0000
0100
0000
0010
0000
1000
0000
0100
0000
1000
0000
0100
0000
0010
0000
0100
0000
0010
0000
0000
0000
0002
0000
,
0000
0000
0000
0000
0103
0000
0010
0100
0020
0000
0000
0000
0000
0000
0000
0000
0130
0000
0000
0000
0010
0000
1000
0000
0000
0000
0100
0000
0010
0000
0100
0000
,
0000
0000
1000
0000
0100
0000
1000
0100
1000
0000
0100
0000
0010
0000
0001
0000
0100
0000
0001
0000
0010
0000
0100
0000
1000
0000
0010
0000
0000
0000
1000
0000
,
0000
0000
0010
0000
1000
0000
0100
0010
0002
0000
0000
0000
0103
0000
0100
0000
0010
0000
0200
0000
0000
0000
0320
0000
0000
0000
2030
0000
0000
0000
3020
0000
,
0000
0000
2030
0000
0000
0000
3001
1000
0001
0000
0000
0000
1000
0000
0200
0000
0000
0000
0000
0000
1300
0000
0100
0000
0010
0000
0001
0000
0100
0000
0010
0000
,
1000
0010
1000
0200
0000
0000
0310
0002
0000
0000
1003
0020
0000
0000
0000
0M00
,
0000
0M00
0000
0000
0M00
0000
0000
0000
2030
0000
0000
0000
0000
0000
0000
0000
3100
0000
0000
0000
0010
0000
0100
0000
0000
0000
1000
0000
0010
0000
0100
0000
,
0000
0000
0001
0000
0010
0000
0001
0010
0001
0000
0010
0000
0100
0000
1000
0000
0100
0000
1000
0000
0010
0000
0100
0000
0002
0000
0000
0000
0103
0000
0020
0000
,
0000
1000
1030
0000
1002
0000
0000
0000
0103
0000
0010
0200
0000
0301
0010
0100
,
0000
0000
1000
0000
0010
0000
1000
0010
1000
0000
0010
0000
0100
0000
0001
0000
0010
0000
0001
0000
0100
0000
0010
0000
1000
0000
0200
0000
0000
0000
1300
0000
,
0000
0000
0100
0000
1000
0000
0001
1000
0001
0000
0000
0000
0010
0000
0001
0000
0200
0000
0000
0000
0310
0000
2000
0000
0000
0000
0000
0000
3100
0000
0100
0000
,
0010
0000
0100
0010
0002
0000
1003
0002
0000
1003
0010
0001
0010
1000
0100
0010
,
0001
0100
0010
2000
0000
0000
3100
0020
0000
0000
1030
0020
0000
0000
0031
2000
,
0000
0000
3001
0020
0000
0032
0000
1003
0000
0002
0000
0103
0000
0020
0000
1030
,
0000
0020
0000
0130
0010
0000
1000
0100
0010
0000
0001
0010
0000
0002
0000
0000
,
1003
0010
0001
0020
0000
0000
1030
0100
0001
0200
0000
2300
0000
0000
0010
0000
,
0000
0001
3001
0000
1001
0000
0001
0100
0010
0000
0100
0020
0000
2030
0000
3010
,
0000
1000
0100
0000
0110
0000
0010
0000
0011
0000
0001
0000
0101
0000
1001
0000
,
1100
1000
0000
0001
0100
0010
2000
0000
3001
0000
0000
0000
1010
0000
0010
1000
,
0100
0000
0010
0001
0010
0010
0001
0100
0000
0001
0100
0010
1000
1000
0100
0010
,
0001
0001
0010
0001
0100
0010
0100
0100
0020
0000
2030
0000
3100
0000
0010
0000
,
0011
0000
0001
0100
0020
0000
1030
0020
0000
0130
0000
0010
1000
0100
0010
0100
,
2000
0001
3002
0000
1003
0010
0001
0010
1000
0100
0001
0100
1000
0000
1100
0000
,
0100
0010
0001
0100
0000
0101
0000
1001
0000
1000
0010
0000
0110
0000
0010
0000
,
1010
0000
1000
0000
0001
0010
1000
0010
0001
0100
1000
0100
0001
0000
0010
0000
,
0001
0100
0010
0200
0000
0301
0000
0100
0000
0001
0010
0000
0200
0000
0310
0000
,
0002
0000
0000
0000
1003
0000
0000
0000
0001
0000
0000
0000
20M1
0M00
00M0
0M00
00M0
0M00
00M0
0M00
00M0
0M00
00M0
0000
3001
0000
0000
0100
0000
0000
0010
0000
,
0000
1000
0000
0000
0100
0000
0000
0010
0000
0000
0001
0000
0000
1000
0000
0000
0001
0000
0021
0000
0000
0000
0000
0000
0031
0000
0000
0010
0000
0000
0100
0000
,
0000
0010
0000
0000
0001
0000
0000
0100
0000
0000
0010
0000
0000
1000
0000
0000
0001
0000
2001
0000
0000
0000
0000
0000
3001
0000
0000
0100
0000
0000
0010
0000
,
0000
1000
0000
0000
0100
0000
0000
1000
0000
0000
0100
0000
0000
0010
0000
0000
0001
0000
0201
0000
0000
0000
0000
0000
0301
0000
0000
0100
0000
0000
0001
0000
,
0000
1000
0000
0000
0100
0000
0000
0010
0000
0000
0011
0000
0000
0001
0000
0000
1000
0000
0000
2002
0000
0000
0000
0000
0000
0000
0000
0000
0000
0000
0000
0000
,
3003
0000
0000
0000
;
