#TITLE:TWINKLE MAGIC;
#SUBTITLE:;
#ARTIST:P*Light;
#TITLETRANSLIT:;
#SUBTITLETRANSLIT:;
#ARTISTTRANSLIT:;
#GENRE:;
#CREDIT:;
#MUSIC:TWINKLE MAGIC.ogg;
#BANNER:Twinkle Magic-bn.png;
#BACKGROUND:Twinkle Magic-bg.png;
#CDTITLE:;
#SAMPLESTART:33.333;
#SAMPLELENGTH:10.667;
#SELECTABLE:YES;
#OFFSET:0.000;
#BPMS:0.000=180.000;
#STOPS:;
#JACKET:Twinkle Magic-jacket.png;
#BGCHANGES:;
#FGCHANGES:;

//--------------- dance-single - ----------------
#NOTES:
     dance-single:
     :
     Beginner:
     3:
     0,0,0,0,0:
0000
0000
0000
0000
,
0001
0000
0000
0000
,
1000
0000
0000
0000
,
0010
0000
0000
0000
,
0100
0000
0000
0000
,
0010
0000
0000
0000
,
0100
0000
0000
0000
,
0001
0000
0000
0000
,
1000
0000
0000
0000
,
0100
0000
0100
0000
,
0010
0000
0000
0000
,
0010
0000
0010
0000
,
0001
0000
0000
0000
,
1000
0000
0000
0000
,
0010
0000
0000
0000
,
0100
0000
0000
0000
,
0010
0010
0010
0000
,
0100
0000
0001
0000
,
1000
0000
0100
0000
,
0010
0000
0100
0000
,
1000
0000
1001
0000
,
0001
0000
0100
0000
,
0010
0000
0100
0000
,
0001
0000
0010
0000
,
0100
0100
0100
0100
,
0100
0000
1000
0000
,
0001
0000
0000
0000
,
1000
0000
0010
0000
,
0100
0000
0000
0000
,
0010
0000
0000
0000
,
0100
0000
0000
0000
,
0001
0000
0000
0000
,
1000
0000
0000
0000
,
0001
0000
0001
0000
,
1000
0000
1000
0000
,
0010
0000
0010
0010
,
0010
0000
0000
0000
,
0100
0000
0100
0000
,
0010
0000
0010
0000
,
0100
0000
0100
0000
,
0001
0001
0001
0000
,
1001
0000
0000
0000
,
1001
0000
0000
0000
,
0110
0000
0110
0000
,
1001
0000
0000
0000
,
1000
0000
1000
0000
,
0100
0000
0000
0000
,
0010
0000
0000
0000
,
0100
0000
0000
0000
,
1000
0000
1000
0000
,
0001
0000
0001
0000
,
0100
0100
0100
0100
,
0100
0000
0000
0000
,
0010
0000
0000
0000
,
1000
0000
0000
0000
,
0001
0000
0000
0000
,
0010
0000
0000
0000
,
0100
0000
0000
0000
,
0010
0000
0000
0000
,
0001
0000
0000
0000
,
1000
0000
0000
0000
,
0010
0000
0010
0000
,
0100
0000
0100
0000
,
0001
0000
0001
0000
,
1000
0000
1000
0000
,
0100
0000
0100
0000
,
0010
0000
0010
0000
,
0100
0000
0100
0000
,
1000
0000
1000
0000
,
0001
0000
0001
0000
,
1000
0000
1000
0000
,
0010
0000
0010
0000
,
0100
0000
0100
0000
,
0010
0010
0010
0000
,
0100
0100
0100
0000
,
0001
0000
0000
0000
,
1000
0000
0001
0000
,
1000
1000
1000
0000
,
0100
0000
0000
0000
,
0010
0000
0010
0000
,
0001
0000
0000
0000
,
1000
0000
0000
0000
,
0010
0000
0000
0000
,
0100
0000
0010
0000
,
0100
0100
0100
0100
,
0001
0001
0001
0001
,
0001
0000
0000
0000
,
1000
1000
1000
1000
,
1000
0000
0000
0000
,
0100
0000
0000
0000
,
0100
0000
0000
0000
,
0010
0000
0001
0000
,
2000
0000
0000
3010
;

//--------------- dance-single - ----------------
#NOTES:
     dance-single:
     :
     Easy:
     7:
     0,0,0,0,0:
0000
0000
0000
0000
,
1001
0000
0000
0000
0000
0110
0000
0000
,
1002
0000
0000
2000
0000
0000
3003
0000
,
1001
1000
1000
0010
,
0200
0000
0000
0002
0303
0000
1000
0000
,
0200
0000
0000
0320
0000
0002
0033
0000
,
2000
0000
0000
3020
0000
0200
0330
0000
,
0020
0000
0000
0230
0000
0000
0301
0000
,
1000
0100
0010
0001
,
1000
1000
0020
0230
,
0302
0000
0000
0023
0000
0000
0130
0000
,
0010
0001
0001
1000
,
0020
0000
0000
0200
0330
0000
0001
0000
,
2000
0000
0000
3100
0000
0000
1001
0000
,
0002
0000
0000
0103
0000
0000
1001
0000
,
1000
0100
1000
0010
,
0100
0100
0100
0020
,
0130
0001
0010
1000
,
0010
0100
0100
1000
,
0001
0100
1000
0100
,
0001
0010
1001
0001
,
1000
1000
0100
0000
,
0010
0010
0001
0000
,
1000
0010
0100
0010
,
1000
1000
1000
1100
,
0100
0010
0001
1000
,
0020
0000
0000
0130
0000
0000
1001
0000
,
0001
0010
0100
0100
,
0010
0000
0000
0001
0000
0000
1000
0000
,
0010
0000
0000
0010
0000
0000
0100
0000
,
0001
0000
0000
0001
0000
0000
1000
0000
,
0200
0000
0310
0001
,
2000
0000
0000
0000
0000
3000
0000
0000
,
0001
0100
0010
0000
,
0100
0001
0010
0000
,
0100
1000
0001
0100
,
0010
0010
0010
0000
,
0101
1000
1000
0100
,
0010
0000
0010
0000
0002
0003
000M
000M
,
0001
0001
1000
0010
,
0100
1000
0100
0001
,
1001
1000
0010
0100
,
0101
0001
0010
0100
,
1100
1000
1010
0010
,
0012
2003
3020
0130
,
1002
0000
0000
1000
0000
1003
0000
0000
,
0001
0100
1000
0100
,
0102
0000
0000
0013
0000
0000
0100
0000
,
1000
0010
0001
0010
,
1010
1010
2000
3100
,
0011
0021
0130
1000
,
1010
0011
1010
0011
,
2000
0000
0000
0000
0000
3000
0000
0000
,
0002
0000
0000
0000
,
0203
0000
0000
0000
,
0320
0000
0000
0000
,
2030
0000
0000
0000
,
3002
0000
0010
0000
,
2003
0000
0100
0000
,
3002
0000
1000
0000
,
0203
0000
0001
0000
,
0310
0000
1000
0000
0001
0000
0000
0010
,
0000
0100
0010
0001
,
1000
0000
0010
0000
0100
0000
0000
0010
,
0000
0100
0001
1000
,
0100
0000
0000
0010
0000
0000
0100
0000
,
1000
0001
0100
0200
,
0000
0000
0000
0300
,
2002
0000
0000
3003
,
1200
0010
1000
0310
,
0201
0010
0001
0310
,
0012
1000
0010
1003
,
2010
0001
0010
3001
,
1000
1000
0001
0001
,
0100
0100
0010
0010
,
2000
0000
0000
0000
,
3002
0003
0100
0100
,
1002
0010
0100
0010
,
1003
0000
0000
1000
0000
0000
0001
0000
,
0100
0010
0100
0001
,
1000
0000
0000
1000
0000
0000
0100
0000
,
0010
0000
0000
0010
0000
0000
0100
0000
,
1000
0000
0000
1000
0000
0000
0001
0000
,
0100
0000
0010
0000
,
1000
1000
1000
0101
,
0001
0001
0001
0001
,
0001
0000
0000
1000
0000
0100
0000
0000
,
0010
0010
0010
0010
,
0010
0000
0000
0100
0000
1000
0000
0000
,
0001
0000
0000
0100
0000
0000
0010
0000
,
0100
0000
0000
0010
0000
0000
1000
0000
,
0200
0000
0010
0000
,
2300
0000
0000
3001
;

//--------------- dance-single - Highflyer ----------------
#NOTES:
     dance-single:
     Highflyer:
     Medium:
     12:
     0,0,0,0,0:
0000
0000
0000
0000
,
1001
0000
0000
0000
0000
0101
0000
0000
,
1100
0000
0000
0110
0000
0000
MMMM
0000
,
1001
0000
0001
1000
0001
0000
0100
0000
,
0110
0000
0000
2002
3000
0000
1003
0000
,
1020
0000
0000
0130
0000
0001
0010
0000
,
0210
0000
0000
1300
0000
0001
0100
0000
,
0102
0000
0000
0023
0000
0000
0130
1000
,
0200
0000
0320
0000
0031
1000
0001
1000
,
0002
0203
2300
3200
,
0301
1000
0000
0100
0000
0010
0100
0000
,
2000
3200
0302
0203
,
1300
0010
0000
0100
0020
0000
1030
0000
,
0001
0000
0000
1000
0000
0000
0001
0000
1000
0000
0000
0010
0000
0000
0100
0000
,
0010
0000
0000
0100
0000
0000
0001
0000
0010
0000
0000
0001
0000
0000
0010
0000
,
0100
1000
0001
0100
0010
1000
0001
0010
,
0100
0000
0100
0000
0100
0000
0010
0001
,
0100
0000
0010
1000
0010
0000
0100
0001
,
0000
0000
1000
0000
0100
0000
0000
0010
0000
0000
0010
0000
0002
0000
0000
0000
,
1003
0000
0010
0100
0001
1000
0001
0010
,
0000
0100
1000
0100
0002
0000
0103
0010
,
0001
1000
0001
0200
0000
0310
2000
0000
,
3001
1000
0010
0200
0000
0301
0010
0000
,
0200
0000
1300
0001
0200
0000
0310
1000
,
0001
0010
0001
0010
0001
0000
0100
0100
,
0020
0000
1030
0001
1000
0000
0100
0000
,
0010
0100
0000
0010
0000
0001
0100
0000
,
0010
0000
1000
0001
1000
0000
0010
0000
,
0100
0001
0000
0010
0200
0000
1300
0000
,
0001
0000
0000
1000
0000
0000
0001
0000
0100
0000
0010
0000
0100
0000
0000
0000
,
0001
0000
0000
0010
0000
0000
0001
0000
1000
0000
0100
0000
1000
0000
0000
0000
,
0001
0000
0100
0010
0100
0000
0001
1000
,
0002
0000
0000
0000
0000
0003
0000
0000
,
1000
0100
0010
0000
0100
1000
0001
0100
,
0010
1000
0100
0000
1000
0001
0100
0001
,
1000
0100
1000
0001
1000
0010
0100
0001
,
0010
0010
0100
1001
,
1000
0100
0001
0000
0100
0000
1000
0000
,
0001
0100
1000
0100
0001
0000
1000
1000
,
0100
0000
0000
0010
0000
0000
0001
0000
0100
0000
0000
0010
0000
0000
0100
0000
,
0001
0010
1000
0010
0001
0000
1000
0000
,
1001
0000
0000
0000
0001
0000
0100
0000
0001
0000
0000
1000
0000
0000
0001
0000
,
0010
0000
0000
0000
0100
0000
1000
0000
0100
0000
0000
0010
0000
0000
0001
0000
,
0100
0000
0010
0100
0001
0000
1000
0100
,
0010
0000
0100
0010
0100
0010
0001
0000
,
1010
0000
0000
0011
0000
0001
0000
0000
,
1000
0000
0001
0100
1000
0100
0001
0000
,
0012
0000
0000
1003
0100
1000
0100
0000
,
0010
0000
0100
1000
0010
1000
0100
0000
,
0011
0000
1001
0000
0001
0100
0001
0000
,
1001
0000
1100
0000
1000
0010
1000
0000
,
0010
0100
0010
0100
0001
1000
0001
1000
,
0100
0000
0000
0000
,
0020
0000
0000
0000
,
0032
0000
0000
0000
,
2003
0000
0000
0000
,
3020
0000
0000
0000
,
0230
0000
0000
0001
0000
0000
0001
0000
,
0320
0000
0000
1000
0000
0000
1000
0000
,
2030
0000
0000
0100
0000
0000
0100
0000
,
3200
0000
0000
0010
0000
0000
0010
0000
,
2300
0000
3002
0000
0103
0010
0100
0010
,
0000
0000
1000
0000
0002
0000
0003
0020
0000
0030
0200
0000
0300
0000
0000
0000
,
0010
0000
0001
0000
1000
0010
1000
0001
,
0000
1000
0020
0000
0230
0000
0302
0000
,
1003
0100
1000
0002
0000
0103
0010
0100
,
0000
0001
0010
0100
2000
0000
0002
3003
,
2000
0000
3020
0000
0130
0001
1000
0100
,
0020
0000
0000
0130
,
0011
0101
0011
0101
,
1100
0101
1100
0101
,
1010
1100
1010
1100
,
0011
1010
0011
1010
,
1000
0100
1000
0000
0001
0100
0001
0000
,
1000
0010
1000
0000
0001
0010
0001
0000
,
2000
0000
0000
0000
,
3001
0000
0000
0000
0000
1000
0001
1000
,
0020
0230
0302
0023
,
0130
2000
0000
0002
0000
3003
0000
0000
,
1000
0000
0010
0100
0010
0000
1000
0000
,
0001
0010
0000
0100
2000
0000
3001
0100
,
0001
0000
0000
1000
0000
0000
0100
0000
0010
0000
0001
0000
0200
0000
0000
0000
,
0310
0000
0000
1000
0000
0000
0001
0000
0100
0000
0001
0000
0010
0000
0100
0000
,
0020
0000
0031
1000
0001
0000
1000
0010
,
1000
0010
1000
0010
1000
0000
0100
0000
,
1100
0101
1100
0101
,
1100
0000
0001
0100
1000
0100
0001
0000
,
0011
1010
0011
1010
,
0011
0000
1000
0010
0001
0010
1000
0001
,
0010
0000
0000
0100
0000
0000
0010
0000
0001
0000
1000
0000
0010
0000
0000
0000
,
0100
0000
0000
0010
0000
0000
0100
0000
0001
0000
1000
0000
0100
0000
0010
0000
,
0001
1000
0001
1000
0010
0100
0010
0100
,
0002
0000
0010
2000
,
3003
0000
0000
0000
;

//--------------- dance-single - Highflyer ----------------
#NOTES:
     dance-single:
     Highflyer:
     Hard:
     15:
     0,0,0,0,0:
0000
0000
0000
0000
,
1001
0000
0000
0000
0000
1010
0000
0000
,
0101
0000
0000
1100
0000
0000
MMMM
0000
,
1001
0000
1000
1000
1000
0010
0000
0000
,
0110
0000
0000
1001
0100
0000
1001
0000
,
0002
0000
0000
0203
0000
0000
0310
0000
0000
0000
0100
0000
1000
0000
0000
0000
,
0200
0000
0000
0301
0000
0000
0010
0000
0000
0000
0100
0000
0001
0000
0100
0000
,
2000
0000
3010
0100
0010
0000
0100
0001
,
1000
0100
0010
0001
1000
1000
0001
0001
,
0100
0010
1000
0001
0100
0010
0100
0001
,
0010
0001
0100
0010
1000
0100
0002
0000
,
0103
0010
0001
0001
1000
0010
1000
0001
,
0010
0100
0010
0001
0200
0010
0301
0000
,
1000
0000
0000
0001
0010
0000
0100
0000
1000
0000
0000
0010
0100
0000
0001
0000
,
1000
0000
0000
0100
0010
0000
0100
0000
1000
0000
0000
0010
0100
0000
0001
0000
,
1000
0100
0001
0100
1000
0010
0001
0010
,
1000
0000
0000
0000
1000
0000
0000
0000
1000
0000
0000
0000
0001
0010
0001
0010
,
0100
1000
0001
0100
0010
1000
0100
0001
,
0000
0000
0100
0000
1000
0000
0010
0100
0000
0000
0001
0000
2000
0000
0100
0000
,
3100
0010
0001
1000
0010
0100
0001
0100
,
0000
0000
0010
0000
0001
0000
0010
1000
0002
0000
0000
0000
0013
0000
0100
0000
,
0010
0001
0100
2000
0000
3001
0010
1000
,
0001
0010
1000
0002
0000
0103
1000
1000
,
0001
1000
0010
0010
0100
0001
1000
0001
,
0100
0010
0100
0010
0100
0000
1001
0000
,
1000
0100
0010
0100
1000
0010
0100
0000
,
0001
0010
0100
0001
0100
1000
0010
0010
,
1000
0001
0100
0010
1000
0100
0010
0000
,
0001
0100
0010
0001
0020
0000
0130
0100
,
0001
0000
0000
0010
0100
0000
1000
0000
0001
0000
0001
0000
0001
0000
0000
0000
,
1000
0000
0000
0010
0100
0000
0010
0000
1000
0000
1000
0000
1000
0000
0001
0010
,
0001
1000
0010
0100
0010
1000
0100
0010
,
0002
0000
0000
0000
0003
M00M
0MM0
0000
,
0001
0000
0100
0000
0010
0000
0000
0000
0100
0000
0001
0010
0000
0001
0010
0000
,
0100
0000
1000
0000
0001
0000
0000
0000
0100
0000
0010
1000
0000
0010
1000
0000
,
0001
0000
0010
0000
0100
0000
1000
0000
0001
0100
0001
0000
1000
0100
1000
0000
,
0010
0010
0010
0010
2000
0000
3001
0000
,
1000
0010
1000
0010
0100
0000
0001
0010
0001
0000
1000
0100
1000
0100
0010
0000
,
0100
1000
0100
1000
0001
0000
0100
0010
0200
0000
0000
0000
0301
1000
0001
1000
,
0100
0010
0100
0010
0001
0000
1000
0010
0100
0000
0010
1000
0001
0010
0001
0000
,
1000
0100
1000
0100
0010
0001
0010
0001
0100
0000
0010
0000
0110
0000
0000
0000
,
1001
0000
0000
0000
0001
0100
0001
0000
0010
0000
0000
0010
0000
0000
0010
0000
,
0100
0000
0000
0000
1000
0001
1000
0000
0010
0000
0000
0010
0100
0000
0010
0000
,
1001
0000
0000
0001
0010
0000
0100
0000
1100
0000
0000
1000
0001
0000
0100
0000
,
0010
0000
1000
0001
1000
0100
0010
0000
,
0011
0000
1000
1010
0000
0001
0100
0000
,
0010
0000
1000
0100
0001
0100
1000
0000
,
0200
0000
1300
0010
0000
1000
0100
0000
,
0010
0000
0001
0100
1000
0100
0001
0000
,
1000
0000
1000
0000
0001
0100
0001
0000
,
0010
0000
0000
0000
0010
0000
0100
1000
0100
0000
0010
0000
0001
0000
0000
0000
,
1000
0010
1000
0010
0100
0001
0100
0001
,
0020
0000
0000
0000
0030
0100
0100
0000
,
0020
0000
0000
0000
,
0032
0000
0000
0000
,
2003
0000
0000
0000
,
3020
0000
0000
0000
,
0230
0000
0000
0001
0000
0000
0010
0000
0000
0001
0000
0000
0010
0000
0000
0000
,
0302
0000
0000
1000
0000
0000
0010
0000
0000
1000
0000
0000
0010
0000
0000
0000
,
2003
0000
0000
0010
0000
0000
0001
0000
0000
0010
0000
0000
0001
0000
0000
0000
,
3020
0000
0000
0100
0000
0000
1000
0000
0000
0100
0000
0000
1000
0000
0000
0000
,
0230
0000
0302
0000
1003
0100
0010
0001
,
0000
0100
0010
0001
0000
0010
1000
0000
,
0020
0000
0230
0000
0301
1000
0001
0100
,
0000
0010
1000
0100
0001
0100
2000
0000
,
3020
0230
0302
0023
0030
0100
1000
0001
,
0000
0010
0100
0002
0000
0103
0010
0000
,
0200
0000
2300
0000
3010
0100
0010
0100
,
2002
0000
0000
3003
,
1100
0000
0000
0000
0101
0000
0000
0000
1100
0000
0000
0001
0100
0000
0000
0000
,
1010
0000
0000
0000
0011
0000
1000
0000
0001
0000
0000
0010
0001
0000
0000
0000
,
0101
0000
0000
0000
0011
0000
0000
0000
0101
0000
0000
0010
0001
0000
0000
0000
,
1010
0000
0000
0000
1100
0000
0001
0000
1000
0000
0000
0010
1000
0000
0000
0000
,
0001
0100
0001
0100
0010
1000
0010
1000
,
0001
0010
0001
0010
0100
1000
0100
1000
,
0002
0000
0000
0000
0000
0000
0000
0000
0000
0000
0000
0000
1003
0100
1000
0100
,
0010
0010
0001
0001
0100
0010
0010
0010
,
1000
0001
1000
0100
1000
0010
1000
0100
,
1100
1001
0000
0101
0000
0110
1000
0000
,
0001
0010
0100
0100
1000
0010
1000
0001
,
0010
0100
1000
0010
0200
0000
0301
0001
,
1000
0010
0100
1000
0100
0001
0010
0000
,
0001
1000
0100
0010
1000
0010
0001
1000
,
0020
0000
0130
0100
0002
0000
0013
0100
,
1000
0001
1000
0001
2000
0000
0100
0100
,
3001
0010
1000
0010
0001
0010
1000
0010
,
0001
0100
0010
1000
0100
1000
0010
0010
,
1000
0010
0001
0010
1000
0010
0001
0010
,
1000
0100
1000
0010
0100
0010
1000
0001
,
1001
0000
0000
1000
0000
0000
0010
0000
1000
0000
0100
0000
0001
0000
0100
0000
,
0110
0000
0000
0010
0000
0000
0001
0000
1000
0000
0010
0000
0001
0000
0010
0000
,
0100
0001
0100
0000
0010
1000
0010
0000
0100
0000
0001
0000
1000
0000
0001
0000
,
0020
0000
0000
0000
0001
0000
0000
0000
0130
0000
1000
0000
0001
0100
0000
0000
,
0020
0000
0000
0030
;
