#TITLE:THE STAIR DIMENSION;
#SUBTITLE:;
#ARTIST:ayak;
#TITLETRANSLIT:;
#SUBTITLETRANSLIT:;
#ARTISTTRANSLIT:;
#GENRE:;
#CREDIT:;
#MUSIC:the stair dimension.mp3;
#BANNER:dimensionbn.png;
#BACKGROUND:dimensionbg.png;
#CDTITLE:;
#SAMPLESTART:95.385;
#SAMPLELENGTH:18.667;
#SELECTABLE:YES;
#OFFSET:-0.052;
#BPMS:0.000=90.000
,32.000=180.000
,119.750=60.000
,120.000=30.000
,120.042=60.000
,120.250=120.000
,152.500=180.000
,164.500=45.000
,165.500=90.000
,167.500=180.000
,171.500=360.000
,175.500=180.000
,176.500=90.000
,204.000=180.000
,294.000=90.000
;
#STOPS:119.750=0.083;
#BGCHANGES:;
#FGCHANGES:;

//--------------- dance-single - ayak ----------------
#NOTES:
     dance-single:
     ayak:
     Easy:
     10:
     0,0,0,0,0:
0000
0000
0000
0000
,
0000
0000
0000
0000
,
0000
0000
0000
0000
,
0000
0000
0000
0000
,
2000
0000
0000
3020
,
0230
0000
0302
0000
,
2003
0000
0000
3200
,
0320
0000
0032
0000
,
1003
0010
0100
0001
,
1000
0010
0100
0001
,
1000
0100
0010
0001
,
1000
0100
0010
0001
,
1000
0001
0100
0010
,
1000
0001
0100
0010
,
1000
0001
0010
0100
,
1000
0000
0001
0000
0000
0100
0100
0000
,
0010
1000
0001
0100
,
0010
1000
0001
0100
,
0100
0001
1000
0010
,
0100
0001
1000
0010
,
1000
0100
0010
0001
,
0001
0100
0010
1000
,
1000
0010
0100
0001
,
0001
0000
0100
0000
0000
0010
0010
0000
,
1000
0000
0000
1100
0000
0000
0001
0000
,
0000
0011
0000
0000
1000
0000
0000
1010
,
0000
0000
0001
0000
0000
0101
0000
0000
,
0100
0000
0000
1010
0000
0000
0010
0000
,
0000
0101
0000
0000
0100
0000
0000
1100
,
0000
0000
0010
0000
0000
0022
0000
0000
,
0033
0000
0000
1001
0000
1000
0010
0100
,
0000
0001
0000
0100
0000
0010
0000
1000
,
0000
0001
0000
1000
0000
0100
0010
0001
,
0000
0100
0000
0010
0000
1000
0001
1000
,
0000
2002
0000
0000
0000
0000
0000
0000
3003
0000
0000
0000
0000
0000
0000
0000
,
0000
1000
0000
1000
0000
0001
0010
0100
,
0000
0000
1001
0000
0000
0000
1000
0000
0000
0100
0000
0000
0010
0000
0000
0001
,
0000
0000
1000
0000
0000
0100
0000
0000
0010
0000
0000
0001
0000
0000
0110
0000
,
0000
0002
0000
0003
0020
0000
0030
0200
,
0000
0300
2000
0000
3000
0001
0100
0000
,
0010
0000
0000
1000
0100
0000
0010
0000
,
0000
2002
0000
0000
0000
0000
0000
0000
,
0000
0000
0000
0000
,
0000
0000
0000
0000
,
0000
3003
0002
0000
0000
0000
0203
0000
,
0000
0320
0000
2030
,
0000
0000
3200
0320
,
0000
0032
0000
2003
,
0000
3020
0000
0230
,
0000
0302
0000
0000
,
2003
3200
0000
0320
,
0032
0000
0000
0000
1003
0000
0000
0100
,
0000
0000
0010
0000
0000
0001
0000
0000
,
1000
0000
0001
0000
0000
0100
0000
0000
,
0010
0000
0000
1000
0000
0000
0001
0000
,
1000
0000
0000
0100
0000
0000
0010
0000
,
0000
0001
0000
0000
1000
0000
0001
0000
,
0000
0100
0000
0000
0010
0000
0000
1000
,
0000
0000
1001
0000
0001
0000
0000
0010
,
0000
0000
0100
0000
0000
1000
0000
0000
,
0001
0000
1000
0000
0000
0010
0000
0000
,
0100
0000
0000
0001
0000
0000
1000
0000
,
0001
0000
0000
0010
0000
0000
0100
0000
,
0000
1000
0000
0000
0001
0000
1000
0000
,
0000
0010
0000
0000
0100
0000
0000
0001
,
0000
0000
1000
0000
0001
0000
0000
0011
,
0000
0000
1000
0000
0000
1100
0000
0000
,
0001
0000
0000
0101
0000
0000
1000
0000
,
0000
1010
0000
0000
0001
0000
0001
0010
,
0000
0000
0100
0000
0100
1000
0000
0000
,
1000
0000
1000
0010
0000
0000
0100
0000
,
0100
0001
0000
0000
2002
0000
0000
0000
,
0000
0000
0000
0000
,
0000
0000
0000
0000
0000
0000
0000
0000
3003
0000
0000
0000
0001
0010
0000
0000
,
0000
0000
0000
0000
0100
1000
0000
0000
0000
0000
0000
0000
0000
0000
0000
0000
;

//--------------- dance-single - ayak ----------------
#NOTES:
     dance-single:
     ayak:
     Medium:
     13:
     0,0,0,0,0:
0000
0000
0000
0000
,
0000
0000
0000
0000
,
0000
0000
0000
0000
,
0000
0000
0000
0000
,
0002
0000
0000
0023
,
0230
0000
2300
0000
,
3002
0000
0000
0203
,
0320
0000
0000
0000
0000
0000
0000
0000
1030
0001
1000
0001
1000
0100
0010
0001
,
1000
0010
0100
0000
0001
0100
0010
0000
,
1000
0010
0100
0000
0001
0100
0010
0000
,
1000
0100
0010
0000
0001
0010
0100
0000
,
1000
0100
0010
0000
0001
0010
0100
0000
,
1000
0001
0100
0000
0010
1000
0001
0000
,
1000
0001
0100
0000
0010
1000
0001
0000
,
0001
1000
0100
0000
0010
0001
1000
0000
,
0001
1000
0100
0000
0010
0001
1000
0000
,
1000
0100
1000
0100
0010
0001
0100
0000
,
0001
0100
0001
0100
0010
1000
0100
0000
,
1000
0010
1000
0010
0100
0001
0010
0000
,
0001
0010
0001
0010
0100
1000
0010
0000
,
1000
0100
0010
0001
0100
0010
1000
0000
,
0001
0010
0100
1000
0010
0100
0001
0000
,
1000
0010
1000
0000
0001
0100
0001
0000
,
1000
0100
1000
0000
0001
0010
0001
0000
,
2000
3000
1000
0200
0300
0100
0020
0030
,
0010
0002
0003
0001
2000
3000
1000
0020
,
0030
0010
0200
0300
0100
0002
0003
0001
,
1000
0100
0010
0001
0100
0010
1000
0100
,
0010
0001
0100
0010
1000
0010
0100
0001
,
0010
0100
1000
0010
0100
0001
0010
0100
,
0000
0110
0000
1001
0000
1000
0001
0100
,
0000
1000
0100
0010
1000
0001
0020
0230
,
2300
0000
3002
0000
0003
0000
0100
0000
0001
0010
0000
0000
0100
0000
1000
0010
,
0000
0000
0100
0000
0001
0010
0000
0000
0100
0000
1000
0010
0000
0000
0100
0000
,
0010
0002
0000
0000
0013
0000
1000
0000
0000
0001
0000
0000
0010
0000
0100
0000
,
0100
0000
0000
0000
0000
0000
0001
0000
0000
0000
0000
0000
0100
0000
0000
0010
0000
0000
0000
0000
0000
0001
0000
0000
0000
0000
0000
0000
0000
0000
0000
0000
0000
0000
0000
0000
1000
0000
0000
0000
0000
0000
0001
0000
0000
0000
1000
0000
,
0000
0000
0010
0000
0000
0000
0100
0000
0000
0000
0000
0000
0000
0000
0000
0000
0000
0000
1000
0000
0000
0000
0000
0000
0100
0000
0000
0010
0000
0000
0000
0000
0000
0000
0000
0000
1000
0000
0000
0000
0000
0000
0100
0000
0000
0010
0000
0000
,
0000
0000
0000
0000
0000
0000
0000
0000
0000
0000
0000
0000
0100
0000
0000
0000
0000
0000
0000
0000
0000
0010
0000
0000
0000
0000
0000
0000
0000
0000
0001
0000
0000
0000
0000
0000
0000
0000
0000
0000
0000
0000
0000
0000
0000
0000
0000
0000
0001
0000
0000
0000
0000
0000
0000
0000
0000
1000
0000
0000
0000
0000
0000
0000
0000
0000
0010
0000
0000
0000
0000
0000
0000
0000
0000
0000
0000
0000
0000
0000
0000
0000
0000
0000
0010
0000
0000
0000
0000
0000
0000
0000
1000
0000
0000
0000
,
0010
0000
0100
0002
0000
0000
0003
0000
0000
0001
0000
0000
0020
0000
0000
0030
0000
0000
0010
0000
0000
0200
0000
0000
,
0300
0100
2000
3000
1000
0001
0010
0100
,
1000
0010
0100
0001
0010
0100
1000
0010
,
0100
2002
0000
0000
0000
0000
0000
0000
,
0000
0000
0000
0000
,
0000
0000
0000
0000
,
3003
0000
0000
0000
0001
0010
0100
0000
0000
0000
1000
0100
0010
0000
0000
0000
,
0001
0010
0100
0000
0000
0000
1000
0100
0010
0000
0000
0000
0001
1000
0010
0000
,
1000
0100
0010
0000
0000
0000
0001
0010
0100
0000
0000
0000
1000
0100
0010
0000
,
0000
0000
0001
0010
0100
0000
0000
0000
1000
0001
0100
0010
1000
0100
0010
0001
,
0000
0000
1000
0100
0010
0001
0000
0000
1000
0100
0010
0001
0000
0000
1000
0100
,
0010
0001
0000
0000
0001
1000
0001
1000
0001
0100
0010
1000
0000
0000
0001
0100
,
0010
1000
0000
0000
0001
0100
0010
1000
0000
0000
0001
0100
0010
1000
0000
0000
,
0001
0000
1000
0000
0001
0000
1000
0000
0001
0000
0010
0100
0000
0000
1000
0000
,
0001
0000
0000
0000
0001
0000
0010
0100
0000
0000
1000
0000
0001
0000
0000
0000
,
1000
0000
0001
0000
1000
0000
0100
0010
0000
0000
0001
0000
1000
0000
0000
0000
,
1000
0000
0100
0010
0000
0000
0001
0000
1000
0000
0000
0000
0010
0000
1000
0000
,
0010
0000
0100
0001
0000
0000
0100
0000
0010
0000
0000
0000
0100
0000
0010
1000
,
0000
0000
0010
0000
0100
0000
0000
0000
0001
0000
0100
0000
0010
0000
1000
0001
,
0000
1000
0100
0000
0011
0000
0000
1100
,
0000
0000
1000
0001
0010
0100
1000
0100
,
0010
0001
0010
0100
1000
0100
0010
0000
,
0001
1000
0010
0100
0001
0100
0010
1000
,
0010
0100
0001
0100
0010
0000
1000
0001
,
0010
0100
1000
0100
0010
0001
0010
0100
,
1000
0100
0010
0000
0001
1000
0010
0100
,
0001
0100
0010
0000
0110
0000
0000
1001
,
0000
0000
1000
0100
0011
0000
0000
1100
,
0000
0000
1010
0000
0000
0101
0000
0000
,
1001
0000
0000
0110
0000
0000
1100
0000
,
0000
0011
0000
0000
1000
0010
0100
0001
,
0010
0100
1000
0010
0100
0001
0010
0100
,
1000
0000
0001
1000
0001
0000
0100
0000
0010
0000
1000
0000
0001
0000
0010
0100
,
0010
0100
1000
0001
0010
0010
0100
0001
,
0100
1000
0001
0100
0010
1000
0001
0010
,
0100
0000
0000
0000
1000
0000
0000
0000
0000
0000
0000
0000
1001
0000
0000
0000
0000
0000
0000
0000
0000
0000
0000
0000
1000
0100
0010
0001
0000
0000
0000
0000
,
0000
0000
0000
0000
0000
0000
0000
0000
0001
0010
0100
1000
0000
0000
0000
0000
0000
0000
0000
0000
0000
0000
0000
0000
0000
0000
0000
0000
0000
0000
0000
0000
;

//--------------- dance-single - ayak ----------------
#NOTES:
     dance-single:
     ayak:
     Hard:
     15:
     0,0,0,0,0:
0000
0000
0000
0000
,
0000
0000
0000
0000
,
0000
0000
0000
0000
,
0000
0000
0000
0000
,
2001
0000
0000
3200
,
0320
0000
0032
0000
,
2003
0000
0000
3020
,
0230
0000
0000
0000
0000
0000
0000
0000
0000
0000
0000
0000
0000
0000
0000
0000
0301
0000
1000
0000
0001
0000
1000
0000
0010
0100
0010
0100
0010
0100
0010
0100
,
0001
0000
0000
0000
1000
0000
0000
0000
0100
0010
0001
0000
1000
0000
0000
0000
,
0100
0010
0001
0000
1000
0000
0000
0000
0100
0010
0001
0000
1000
0000
0000
0000
,
0001
0100
0010
0000
1000
0000
0000
0000
0001
0100
0010
0000
1000
0000
0000
0000
,
0001
0100
0010
0000
1000
0000
0000
0000
0001
0100
0010
0000
1000
0000
0000
0000
,
0001
0010
0100
0000
1000
0000
0000
0000
0001
0010
0100
0000
1000
0000
0000
0000
,
0001
0010
0100
0000
1000
0000
0000
0000
0001
0010
0100
0000
1000
0000
0000
0000
,
0010
0100
0001
0000
1000
0000
0000
0000
0010
0100
0001
0000
1000
0000
0000
0000
,
0010
0100
0001
0000
1000
0000
0000
0000
0010
0100
0001
0000
1000
0000
0000
0000
,
1000
0100
1000
0000
0100
0000
0010
0000
0001
0010
0001
0000
0010
0000
0100
0000
,
1000
0100
1000
0000
0100
0000
0010
0000
0001
0010
0001
0000
1000
0000
0000
0000
,
0001
0100
0001
0000
0100
0000
0010
0000
1000
0010
1000
0000
0010
0000
0100
0000
,
0001
0100
0001
0000
0100
0000
0010
0000
1000
0010
1000
0000
0001
0000
0000
0000
,
0010
0001
0010
0000
0100
0000
1000
0000
0010
1000
0010
0000
0100
0000
0001
0000
,
0010
0001
0010
0000
0100
0000
1000
0000
0010
1000
0010
0000
0100
0000
0000
0000
,
0001
0010
0100
0000
1000
0000
0001
0000
1000
0100
0010
0000
0001
0000
1000
0000
,
0001
0010
0100
0000
1000
0000
0001
0000
1000
0100
0010
0000
0001
0000
0000
0000
,
1000
0010
1000
0001
0100
0001
1000
0100
,
1000
0001
0010
0001
1000
0010
0100
0001
,
0010
0100
1000
0010
0100
0001
0100
0010
,
1000
0000
0100
1000
0100
0000
0010
0000
0010
0000
0001
0000
1000
0000
0010
1000
,
0010
0000
0100
0000
0100
0000
0001
0000
0010
0000
0001
1000
0001
0000
0100
0000
,
0010
1000
0010
0000
0100
0000
0001
1000
0001
0000
1000
0000
0001
0010
0100
1000
,
0000
0000
0000
0000
0000
0000
0000
0000
0000
0001
0000
1000
0000
0000
0000
0000
0010
0000
0100
0000
0000
0000
0000
0000
0001
0000
0000
0100
0000
0000
0000
0000
0000
0010
0000
0000
0000
0000
0000
1000
0000
0000
0000
0000
0000
0100
0000
0000
,
0000
0000
0000
0000
0000
0000
0020
0230
,
2300
0000
0000
3002
0000
0000
0003
0000
0000
1000
0100
0000
0010
0001
0000
0000
0000
0000
1000
0100
0000
0010
0001
0000
,
0000
0000
0000
1000
0010
0000
0100
0001
0000
0000
0000
0000
1000
0010
0000
0100
0001
0000
0000
0000
0000
1000
0100
0000
,
0010
0000
0000
0002
0000
0000
0000
0000
0000
0000
0000
0000
1000
0000
0000
0000
0000
0000
1000
0000
0000
0000
0000
0000
0000
0000
0000
0103
0000
0000
0000
0000
0000
0100
0000
0010
0000
0000
0000
0000
1000
0000
0001
0000
0000
0000
0000
0000
,
1000
0000
0000
0000
0000
0000
0100
0000
0000
0000
0000
0000
0001
0000
0000
0100
0000
0000
0000
0000
0000
1000
0000
0000
0000
0000
0000
0000
0000
0000
0000
0000
0000
0001
0000
0000
0000
0000
0000
0010
0000
0000
0100
0000
0000
0000
1000
0000
,
0000
0000
0010
0000
0000
0000
0100
0000
0000
0000
0000
0000
0000
0000
0000
0000
0000
0000
1000
0000
0000
0000
0000
0000
0100
0000
0000
0010
0000
0000
0000
0000
0000
1000
0000
0000
0001
0000
0000
0000
0000
0000
0010
0000
0000
0100
0000
0000
,
0000
0000
0000
0000
0000
0000
0001
0000
0000
0000
0000
0000
1000
0000
0000
0000
0000
0000
0000
0000
0000
0010
0000
0000
0000
0000
0000
0000
0000
0000
0100
0000
0000
0000
0000
0000
0000
0000
0000
1000
0000
0000
0000
0000
0000
0000
0000
0000
0001
0000
0000
0000
0000
0000
0000
0000
0000
0100
0000
0000
0000
0000
0000
0000
0000
0000
0010
0000
0000
0000
0000
0000
0000
0000
0000
0001
0000
0000
0000
0000
0000
0000
0000
0000
0010
0000
0000
0000
0000
0000
0000
0000
1000
0000
0000
0000
,
0001
1000
0001
2000
3000
0000
0100
0000
0000
1000
0000
0000
0010
0000
0000
0100
0000
0000
0001
0000
0000
1000
0000
0000
,
0100
0010
0001
0100
0010
1000
0001
1000
,
0010
0000
0100
0000
0010
0000
1000
0000
0100
0000
0010
0000
0001
0000
1000
0001
,
1000
2002
0000
0000
0000
0000
0000
0000
,
0000
0000
0000
0000
,
0000
0000
0000
0000
,
0000
0000
3003
0000
0001
0010
0100
1000
0000
0000
0001
0010
0100
1000
0000
0000
,
0001
0100
0010
1000
0000
0000
0001
0100
0010
1000
0000
0000
1000
0100
0010
0001
,
1000
0010
0100
0001
0000
0000
1000
0010
0100
0001
0000
0000
1000
0100
0010
0001
,
0000
0000
1000
0100
0010
0001
0000
0000
1000
0001
0100
0010
1000
0100
0010
0011
,
0000
0000
1000
0010
0100
0101
0000
0000
1000
0100
0010
0011
0000
0000
1000
0010
,
0100
0101
0000
0000
0011
0010
0100
1000
0001
0100
0110
1000
0000
0000
0001
0010
,
0110
1000
0000
0000
0001
0100
0110
1000
0000
0000
0001
0010
0110
1000
0000
0000
,
0001
0000
1000
0000
0001
0000
1000
0000
0001
0010
0100
0000
0000
0000
1000
0100
,
0010
0000
0000
0000
0001
0010
0100
0000
0000
0000
1000
0100
0010
0000
0000
0000
,
0001
0000
1000
0000
0010
0100
0001
0000
0000
0000
0100
0010
1000
0000
0000
0000
,
0010
0100
0001
0000
0000
0000
0100
0010
1000
0000
0000
0000
0001
0000
1000
0000
,
0001
0100
0010
0000
0000
0000
1000
0010
0100
0000
0000
0000
0001
0100
0010
0000
,
0000
0000
1000
0010
0100
0000
0000
0000
0001
0000
1000
0000
0100
0010
0001
0000
,
0000
0000
0010
0100
1000
0000
0000
0000
1100
0000
0000
0000
0000
0000
0011
0000
,
0000
0000
0000
0000
1000
0000
0001
0000
1000
0100
1000
0100
0000
0000
0010
0001
,
0010
0001
0000
0000
1000
0100
1000
0100
0000
0000
0010
0001
0010
0001
0000
0000
,
1000
0000
0001
0000
1000
0010
1000
0010
0000
0000
0100
0001
0100
0001
0000
0000
,
1000
0010
1000
0010
0000
0000
0100
0001
0100
0001
0000
0000
1000
0000
0001
0000
,
0010
0100
0010
0100
0000
0000
1000
0001
1000
0001
0000
0000
0010
0100
0010
0100
,
0000
0000
1000
0001
1000
0001
0000
0000
0100
0000
0010
0000
1000
0001
0100
0010
,
0000
0000
0010
0100
0001
1000
0000
0000
1001
0000
0000
0000
0000
0000
0110
0000
,
0000
0000
0000
0000
1000
0000
0001
0000
1000
0100
0010
0001
0000
0000
0001
0010
,
0100
1000
0000
0000
1000
0100
0010
0001
0000
0000
0001
0010
0100
1000
0000
0000
,
1000
0010
0100
0001
0000
0000
0001
0100
0010
1000
0000
0000
1000
0010
0100
0001
,
0000
0000
0001
0100
0010
1000
0000
0000
0001
0010
0100
1000
0100
0010
0001
0000
,
0100
0000
0010
0000
1000
0100
0010
0001
0010
0100
1000
0000
0010
0000
0100
0000
,
0001
0010
0100
1000
0100
0010
0001
0000
0100
0000
0010
0000
1000
0100
0010
0001
,
0010
0100
1000
0000
0010
0000
0100
0000
2002
0000
0000
0000
0000
0000
0000
0000
,
0000
0000
0000
0000
,
0000
0000
0000
0000
0000
0000
0000
0000
0000
0000
0000
0000
0000
0000
0000
0000
3003
0000
0000
0000
0000
0000
0000
0000
0001
0010
0100
1000
0000
0000
0000
0000
,
0000
0000
0000
0000
0000
0000
0000
0000
1000
0100
0010
0001
0000
0000
0000
0000
0000
0000
0000
0000
0000
0000
0000
0000
0000
0000
0000
0000
0000
0000
0000
0000
;

//--------------- dance-single - ayak ----------------
#NOTES:
     dance-single:
     ayak:
     Challenge:
     18:
     0.880145,1.057879,0.415349,0.215366,1.196053,801,747,54,28,49,0,0.880145,1.057879,0.415349,0.215366,1.196053,801,747,54,28,49,0:
0000
0000
0000
0000
,
0000
0000
0000
0000
,
0000
0000
0000
0000
,
0000
0000
0000
0000
,
1000
0100
0010
0001
1000
0100
0010
0001
1000
0100
0010
0001
1000
0100
0010
0001
,
1000
0010
0100
0001
1000
0010
0100
0001
1000
0010
0100
0001
1000
0010
0100
0001
,
1000
0001
0010
0100
1000
0001
0010
0100
1000
0001
0010
0100
1000
0001
0010
0100
,
1000
0000
0001
0000
0100
0000
0010
0000
1000
0000
0001
0000
0100
0000
0010
0000
1000
0000
1000
0000
0001
0000
0001
0000
0010
0100
0010
0100
0010
0100
0010
0100
,
2000
0000
0000
0000
3100
0000
0010
0000
0001
0010
0001
0000
0010
0000
0100
0000
,
1000
0100
1000
0000
0100
0000
0010
0000
0001
0010
0001
0000
0010
0000
0100
0000
,
1000
0010
1000
0000
0010
0000
0100
0000
0001
0100
0001
0000
0100
0000
0010
0000
,
1000
0010
1000
0000
0010
0000
0100
0000
0001
0100
0001
0000
0100
0000
0010
0000
,
1000
0001
1000
0000
0100
0000
0010
0000
0001
1000
0001
0000
0100
0000
0010
0000
,
1000
0001
1000
0000
0100
0000
0010
0000
0001
1000
0001
0000
0100
0000
0010
0000
,
1000
0001
1000
0000
0010
0000
0100
0000
0001
1000
0001
0000
0010
0000
0100
0000
,
1000
0001
1000
0000
0010
0000
0100
0000
0001
1000
0001
0000
0010
0000
0100
0000
,
1000
0100
1000
0100
0010
0000
0001
0000
1000
0010
1000
0010
0100
0000
0001
0000
,
1000
0100
1000
0100
0010
0000
0001
0000
1000
0010
1000
0010
0100
0000
0100
0000
,
0001
0010
0001
0010
0100
0000
1000
0000
0001
0100
0001
0100
0010
0000
1000
0000
,
0001
0010
0001
0010
0100
0000
1000
0000
0001
0100
0001
0100
0010
0000
0010
0000
,
1000
0001
1000
0001
0010
0000
0100
0000
1000
0001
1000
0001
0100
0000
0010
0000
,
1000
0001
1000
0001
0010
0000
0100
0000
1000
0001
1000
0001
0100
0000
0100
0000
,
0010
0100
0010
0100
0001
0000
1000
0000
0100
0010
0100
0010
0001
0000
1000
0000
,
0010
0100
0010
0100
0001
0000
1000
0000
0100
0010
0100
0010
0001
0000
0001
0000
,
2000
3100
1100
0200
0310
0011
0020
0031
,
1001
0002
0103
0110
2000
3010
1010
0020
,
0130
0101
0200
0301
1001
0001
0010
0110
,
1000
0000
0001
1000
0100
0000
0110
0000
0011
0000
1000
0000
0001
0000
1000
0001
,
0100
0000
0110
0000
1010
0000
0001
0000
1100
0000
0100
0010
0001
0000
1001
0000
,
0110
0000
1000
0000
0011
0000
0010
0100
1000
0000
1001
0000
0001
0010
0100
1000
,
0000
0000
0000
0000
0000
0000
0000
0000
0000
0010
0000
0100
0000
0000
0000
0000
0001
0000
1000
0000
0000
0000
0000
0000
0100
0000
0000
0010
0000
0000
0000
0000
0000
1000
0000
0000
0000
0000
0000
0010
0000
0000
0000
0000
0000
0001
0000
0000
,
0000
0000
0000
0000
0000
0000
0002
0023
,
0230
0000
0000
2300
0000
0000
3000
0000
0000
0010
1000
0000
0001
0100
0000
0000
0000
0000
0010
1000
0000
0001
0100
0000
,
0000
0000
0000
0100
0001
0000
1000
0010
0000
0000
0000
0000
0100
0001
0000
1000
0010
0000
0000
0000
0000
1000
0100
0000
,
0010
0000
0000
0002
0000
0000
0000
0000
0000
0000
0000
0000
1000
0000
0000
0000
0000
0000
1000
0000
0000
0000
0000
0000
0103
0000
0000
0000
0000
0000
0000
0000
0000
0100
0000
0010
0000
0000
0000
0000
1000
0000
0001
0000
0000
0000
0000
0000
,
0010
0000
0000
0000
0000
0000
0100
0000
0000
0000
0000
0000
0001
0000
0000
0100
0000
0000
0000
0000
0000
1000
0000
0000
0000
0000
0000
0000
0000
0000
0000
0000
0000
0010
0000
0000
0000
0000
0000
1000
0000
0000
0001
0000
0000
0000
1000
0000
,
0000
0000
0010
0000
0000
0000
0100
0000
0000
0000
0000
0000
0000
0000
0000
0000
0000
0000
0001
0000
0000
0000
0000
0000
0010
0000
0000
0100
0000
0000
0000
0000
0000
1000
0000
0000
0001
0000
0000
0000
0000
0000
0010
0000
0000
0100
0000
0000
,
0000
0000
0000
1000
0000
0000
0001
0000
0000
0000
0010
0000
0000
0000
0000
0100
0000
0000
0000
1000
0000
0000
0000
0000
0001
0000
0000
0000
0010
0000
0000
0000
0000
0100
0000
0000
0000
1000
0000
0000
0001
0000
1000
0000
0010
0000
0100
0000
,
0001
0010
0001
2000
0000
0000
3010
0000
0000
0110
0000
0000
0020
0000
0000
0130
0000
0000
0101
0000
0000
0200
0000
0000
,
0301
1001
0002
0013
0110
2000
3100
0110
,
0200
0000
0310
0000
0011
0000
0020
0000
0031
0000
1001
0000
0001
0000
0100
0010
,
0100
0000
0000
0000
0000
0000
1001
0000
0000
M000
0000
0000
0M00
0000
0000
00M0
0000
0000
000M
0000
0000
0000
00M0
0000
0000
0000
0M00
0000
0000
0000
M000
0000
0000
0M00
0000
0000
00M0
0000
0000
000M
0000
0000
00M0
0000
0000
0000
0M00
0000
,
0000
0000
M000
0000
0000
0000
0M00
0000
0000
0000
00M0
0000
0000
0000
000M
0000
0000
0000
00M0
0000
0000
0M00
0000
0000
M000
0000
0000
0M00
0000
0000
00M0
0000
0000
000M
0000
0000
00M0
0000
0000
0M00
0000
0000
M000
0000
0000
0000
0M00
0000
,
0000
0000
0000
0000
00M0
0000
0000
0000
0000
0000
0000
0000
000M
0000
0000
0000
0000
0000
0000
0000
00M0
0000
0000
0000
0000
0000
0000
0000
0M00
0000
0000
0000
0000
0000
0000
0000
M000
0000
0000
0000
0000
0000
0000
0000
0M00
0000
0000
0000
0000
0000
0000
0000
00M0
0000
0000
0000
0000
0000
0000
0000
000M
0000
0000
0000
0000
0000
0000
0000
00M0
0000
0000
0000
0000
0000
0000
0000
0M00
0000
0000
0000
0000
0000
0000
0000
M000
0000
0000
0M00
0000
0000
00M0
0000
0000
000M
0000
0000
,
00M0
0000
0M00
0000
M000
0000
0M00
0000
00M0
000M
00M0
0M00
M000
0000
0000
0000
0001
0000
0000
0000
0010
0000
0000
0000
0100
0000
0000
0000
1000
0000
0000
0000
0000
0000
0000
0000
0000
0000
0000
0000
0001
0000
0000
0000
0100
0000
0000
0000
0010
0000
0000
0000
1000
0000
0000
0000
0000
0000
0000
0000
0000
0000
0000
0000
,
0010
0100
1000
0001
0000
0000
0010
0100
0001
1000
0000
0000
1000
0001
0100
0010
,
1000
0100
0010
0001
0000
0000
1000
0010
0100
0001
0000
0000
0100
0010
0001
1000
,
0000
0000
0000
0000
0000
0000
0100
0000
0000
0010
0000
0000
1000
0000
0000
0001
0000
0000
0000
0000
0000
0000
0000
0000
0001
0000
0000
1000
0000
0000
0100
0000
0000
0010
0000
0000
0002
0000
0000
0010
0003
0000
0100
0000
0000
2000
0000
0000
,
3000
0000
0002
0013
0100
2000
3000
0000
0002
0013
0100
2000
3000
0000
0002
0013
,
0100
2000
3000
0000
0002
0103
0010
2000
3010
0100
0002
1003
0000
2000
3010
0100
,
0002
1003
0000
2000
3010
0100
0002
1003
0000
2000
3010
0100
0002
1003
0000
2000
,
3001
0000
1000
0000
0100
0000
0010
0000
0001
1000
0001
0000
0010
0000
0100
1000
,
0100
0000
0010
0000
0001
1000
0001
0000
0010
0000
0100
1000
0100
0000
0010
0000
,
0001
1000
0001
0100
0001
1000
0001
0000
0100
0000
0010
1000
0010
0000
0100
0000
,
0001
1000
0001
0000
0100
0000
0010
1000
0010
0000
0100
0000
0001
1000
0001
1000
,
0100
1000
0100
0000
0010
0000
0001
0010
0001
0000
0010
0000
0100
1000
0100
0000
,
0010
0000
0001
0010
0001
0000
0010
0000
0100
1000
0001
0100
0010
1000
0010
0000
,
0100
0000
0001
0100
0001
0000
0100
0000
0010
1000
0001
0010
0100
0000
0010
0001
,
1000
0010
0100
0000
0001
1000
0001
1000
0001
0010
0100
1000
0000
0000
0001
0100
,
0010
1000
0000
0000
0010
0100
1000
0001
0000
0000
0010
0100
0001
1000
0000
0000
,
1000
0001
0100
0010
1000
0100
0010
0001
0000
0000
1000
0010
0100
0001
0000
0000
,
0100
0010
0001
1000
0000
0000
0100
0010
1000
0001
0000
0000
0001
1000
0100
0010
,
0001
0010
0100
1000
0000
0000
0001
0100
0010
1000
0000
0000
0010
0100
1000
0001
,
0000
0000
0010
0100
0001
1000
0000
0000
1000
0001
0100
0010
1000
0100
0010
0001
,
0000
0000
1000
0010
0100
0001
0000
0000
1000
0001
1000
0001
0000
0000
0100
0010
,
0100
0010
0000
0000
1000
0001
1000
0001
1000
0100
0010
0001
0100
0000
0001
0010
,
0100
1000
0010
0000
1000
0100
0010
0001
0100
0000
0001
0010
0100
1000
0010
0000
,
1000
0010
0100
0001
0010
0000
0001
0100
0010
1000
0100
0000
1000
0010
0100
0001
,
0010
0000
0001
0100
0010
1000
0100
0000
2002
3003
1000
0100
0010
0000
2002
3003
,
0001
0100
0010
0000
2002
3003
1000
0010
0100
0000
2002
3003
0001
0010
0100
1000
,
0100
0010
0001
0010
0100
1000
0100
0010
0001
0100
0010
1000
0010
0100
0001
0100
,
0010
1000
0010
0100
0001
0010
0100
1000
0100
0000
0100
0000
0100
0000
1001
0000
,
0100
0000
0011
0000
1000
0001
0010
0000
1000
0010
0000
0001
0100
0000
0010
1000
,
0001
0000
0100
0000
0010
0000
0000
0000
0000
0000
0000
0000
0110
0000
0000
0000
1001
0000
0000
0000
0000
0000
0000
0000
0001
0010
0100
1000
0000
0000
0000
0000
,
0000
0000
0000
0000
0000
0000
0000
0000
1000
0100
0010
0001
0000
0000
0000
0000
0000
0000
0000
0000
0000
0000
0000
0000
0000
0000
0000
0000
0000
0000
0000
0000
;
