#TITLE:TENGU;
#SUBTITLE:;
#ARTIST:Jimmy Weckl;
#TITLETRANSLIT:;
#SUBTITLETRANSLIT:;
#ARTISTTRANSLIT:;
#GENRE:;
#CREDIT:;
#MUSIC:TENGU.ogg;
#BANNER:TENGU.png;
#BACKGROUND:TENGU-bg.png;
#CDTITLE:;
#SAMPLESTART:67.559;
#SAMPLELENGTH:15.000;
#SELECTABLE:YES;
#OFFSET:1.924;
#BPMS:0.000=155.000;
#STOPS:;
#BGCHANGES:;
#FGCHANGES:;

//--------------- dance-single - chrononical ----------------
#NOTES:
     dance-single:
     chrononical:
     Beginner:
     4:
     0,0,0,0,0:
0000
0000
0000
0000
,
0000
0000
0000
0000
,
0000
0000
0000
0000
,
0000
0000
0000
0000
,
0000
0000
0000
0000
,
0000
0000
0000
0000
,
0001
0000
0000
0000
0000
0000
0000
0020
0000
0000
0000
0000
0000
0000
0000
0000
,
0030
0100
0000
0000
0000
0000
0000
0000
,
1000
0000
0000
0000
0000
0000
0000
0020
0000
0000
0000
0000
0000
0000
0000
0000
,
0030
0100
0000
0000
0000
0000
0000
0000
,
0001
0000
0000
0000
1000
0000
0000
1000
0000
0000
0000
0000
0001
0000
0000
0000
,
0010
0000
0000
0020
0000
0000
0000
0000
0000
0000
0000
0000
0030
0000
0000
0000
,
0001
1000
0010
0100
,
0001
0000
0000
1000
0000
0000
0000
0100
,
0000
0000
0000
0010
0000
0000
0000
0000
,
0000
1001
0000
0000
0000
1001
0000
0000
,
1000
0001
0010
0100
,
1000
0000
0000
0001
0000
0000
0000
0100
,
0000
0000
0000
0020
0000
0000
0030
0000
,
0000
1001
0000
0000
0000
1001
0000
0000
,
1000
0000
0000
0010
0000
0100
0000
0001
,
0000
0000
0000
1000
0000
0100
0000
0010
,
0000
0000
0000
0001
0000
0000
0000
0000
,
0100
0000
0000
0001
0000
0000
0000
0000
,
0001
0000
0000
0100
0000
0010
0000
1000
,
0000
0000
0000
0001
0000
0010
0000
0100
,
0000
0000
0000
1000
0000
0000
0000
0000
,
0001
0000
0100
0000
,
0020
0000
0000
0030
,
1000
0000
0000
0001
0000
0010
0000
0100
,
0000
0000
0000
1000
0000
0000
0000
0010
,
0000
0100
0000
0000
,
0001
0000
1000
0000
0000
0001
0000
1000
,
0000
0000
0000
0001
0000
0100
0000
0010
,
0000
0000
0000
1000
0000
0000
0000
0100
,
0000
0010
0000
0000
,
0001
0100
0010
1000
,
0001
0000
0000
1000
0000
0100
0000
0010
,
0000
0000
0000
0001
0000
0000
0000
0100
,
0000
0010
0000
2000
,
3000
0000
0000
0000
0000
1000
0000
0001
,
0000
0000
0000
1000
0000
0010
0000
0100
,
0000
0000
0000
0001
0000
0000
0000
0010
,
0000
0200
0000
0000
,
0000
0000
0000
0000
0300
0000
0000
0110
,
0000
0000
0000
0000
0000
0000
0000
1001
0000
0000
0000
0000
0000
0000
0000
1001
,
0000
0000
0000
0000
0000
0000
0000
1001
0000
0000
0000
0000
0000
0000
0000
0110
,
0000
0000
0000
0000
0000
0000
0000
1001
0000
0000
0000
0000
0000
0000
0000
1001
,
0000
0000
0000
0000
0000
0000
0000
1001
0000
0000
0000
0000
0000
0000
0000
0110
,
0000
0000
0000
0000
0000
0000
0000
0100
0000
0000
0000
0000
0000
0000
0000
1001
,
0000
0000
0000
0000
0000
0000
0000
1001
0000
0000
0000
0000
0000
0000
0000
0110
,
0000
0000
0000
0000
0000
0000
0000
1001
0000
0000
0000
0000
0000
0000
0000
1001
,
0000
0000
0000
0000
0000
0000
0000
1001
0000
0000
0000
0000
0000
0000
0000
0000
,
0001
0000
0000
0000
0010
0000
0000
0100
,
0000
0010
0000
0001
0000
0000
0200
0000
,
0000
0000
0000
0000
,
0300
0001
0000
0000
0000
0000
0020
0000
,
0000
0000
0030
0100
0000
1000
0000
0001
,
0000
1000
0000
0010
0000
0000
0200
0000
,
0000
0000
0300
0001
0000
0000
0000
1000
,
0000
0000
0000
0100
0000
0010
0000
0000
,
0001
0000
0000
0100
0000
0000
0000
0010
,
0000
0100
0000
0001
0000
0000
0020
0000
,
0000
0000
0000
0000
,
0030
0001
0000
0000
0000
0000
0200
0000
,
0000
0000
0300
0010
0000
1000
0000
0001
,
0000
1000
0000
0100
0000
0000
0020
0000
,
0000
0000
0030
0001
0000
0000
0000
1000
,
0000
0000
0000
0010
0000
0010
0000
0110
,
0000
0000
0000
0000
0000
0000
0000
1001
0000
0000
0000
0000
0000
0000
0000
0110
,
0000
0000
0000
0000
0000
0000
0000
1001
0000
0000
0000
0000
0000
0000
0000
0110
,
0000
0000
0000
0000
0000
0000
0000
1001
0000
0000
0000
0000
0000
0000
0000
0110
,
0000
0000
0000
0000
0000
0000
0000
1001
0000
0000
0000
0000
0000
0000
0000
0110
,
0000
0100
0000
0001
,
0000
1000
0100
0010
,
0001
0000
1000
0000
,
0010
0010
0010
0000
,
1000
0000
0000
0000
0001
0000
0000
0001
0000
0000
0000
0000
1000
0000
0000
0000
,
0100
0000
0000
0200
0000
0000
0000
0000
0000
0000
0000
0000
0000
0000
0000
0000
,
0300
0000
0000
0000
;

//--------------- dance-single - chrononical ----------------
#NOTES:
     dance-single:
     chrononical:
     Easy:
     8:
     0,0,0,0,0:
0000
0000
0000
0000
,
0000
0000
0000
0000
,
0000
0000
0000
0000
,
0000
0000
0000
0000
,
0000
0000
0000
0000
,
0000
0000
0000
0000
,
2000
0000
0000
0000
3010
0000
0000
0200
0000
0000
0000
0000
0000
0000
0310
0000
,
0100
0002
0000
0000
0000
1003
0010
1000
,
0002
0000
0000
0000
0013
0000
0000
0200
0000
0000
0000
0000
0000
0000
0310
0000
,
0100
2000
0000
0000
0000
3001
0010
0001
,
1000
0000
1000
0000
0010
0000
0000
0100
0000
0000
0100
0000
0001
0000
0000
0000
,
1000
0000
0000
2002
0000
0000
0000
0000
0000
0000
0000
0000
0000
0000
3003
0000
,
0001
0020
0230
2300
,
3002
0000
0103
0020
0000
0130
0010
2000
,
0000
0000
0000
3200
0000
0000
0000
0000
,
0300
0110
0000
0000
0000
1001
0000
0000
,
1000
0020
0230
0302
,
2003
0000
3100
0020
0000
0130
0010
0002
,
0000
0000
0000
0203
0000
0000
0000
0000
,
0300
0110
0000
0000
0000
1001
0000
0000
,
0001
0000
0010
0100
0000
1000
0000
0010
,
0000
0100
0000
0001
0000
2000
0000
0100
,
0000
0000
0000
3010
0000
0100
0002
0000
,
0100
0000
0000
0013
0000
0100
1000
0000
,
0001
0000
0100
0010
0000
1000
0000
0100
,
0000
0010
0000
0001
0000
2000
0000
0010
,
0000
0000
0000
3100
0000
0010
0001
0000
,
0001
0000
0001
0000
0001
0000
1000
0000
1000
0000
1000
0000
,
0001
0000
0000
0000
0010
0000
0000
0010
0000
0010
0000
0000
0200
0000
0000
0000
,
1300
0000
0000
0001
0100
0010
0000
2000
,
0000
0000
0000
3200
0000
0000
0000
2300
,
0000
3020
0000
0000
,
0130
0010
0100
0010
0000
0110
0000
1001
,
0000
0000
0000
1000
0100
0010
0000
0002
,
0000
0000
0000
0203
0000
0000
0000
0302
,
0000
0023
0000
0000
,
0130
0010
0001
0000
1000
0001
1000
0000
,
0001
0000
0000
1000
0010
0100
0000
0002
,
0000
0000
0000
0023
0000
0000
0000
0032
,
0000
0203
0000
0320
,
0030
0000
0100
0000
0000
0000
0010
0000
0000
0000
0100
0000
0000
0000
0000
0110
0000
0000
0000
0000
0000
1001
0000
0000
,
0000
0000
0000
0001
0010
0100
0000
2000
,
0000
0000
0000
3020
0000
0000
0000
2030
,
0000
3200
0000
0000
,
0000
0310
0000
0010
0000
0010
0000
0001
0000
0000
1000
0000
0000
0000
1020
0000
,
0000
0000
0130
0000
0100
0000
0000
0001
0000
0000
0100
0000
0100
0000
0000
0001
,
0000
0000
0100
0000
0100
0000
0000
0001
0000
0000
0010
0000
0100
0000
0000
1200
,
0000
0000
0310
0000
0010
0000
0000
0001
0000
0000
0010
0000
0010
0000
0000
0001
,
0000
0000
0010
0000
0010
0000
0000
0001
0000
0000
0100
0000
0001
0000
0000
0201
,
0000
0000
0310
0000
0010
0000
0000
0100
0000
0000
0010
0000
0010
0000
0000
1000
,
0000
0000
0010
0000
0010
0000
0000
1000
0000
0000
0100
0000
0010
0000
0000
0021
,
0000
0000
0130
0000
0100
0000
0000
1000
0000
0000
0100
0000
0100
0000
0000
1000
,
0000
0000
0100
0000
0100
0000
0000
1000
0000
0000
0010
0000
1000
0000
0000
0000
,
0001
0000
0100
0000
0010
0000
0000
1000
,
0000
0001
0000
1000
0000
0000
0200
0000
,
0000
0000
0001
0000
0000
0310
0000
0010
,
0000
0000
0000
0001
0000
0000
0200
0000
,
0000
0000
1000
0000
0000
0310
0000
0100
,
0000
0001
0000
1000
0000
0000
0020
0000
,
0000
0000
0000
0130
0000
0000
0100
0010
,
0000
0000
0000
1000
0000
0001
0000
0000
,
1000
0000
0010
0000
0100
0000
0000
0001
,
0000
1000
0000
0001
0000
0000
0020
0000
,
0000
0000
1000
0000
0000
0130
0000
0100
,
0000
0000
0000
1000
0000
0000
0020
0000
,
0000
0000
0001
0000
0000
0130
0000
0010
,
0000
1000
0000
0001
0000
0000
0200
0000
,
0000
0000
0000
0310
0000
0000
0000
0110
,
0000
0000
0000
0110
0000
0110
0000
2001
,
0000
0000
3100
0000
0020
0000
0000
0001
0000
0000
0130
0000
0020
0000
0000
0001
,
0000
0000
0130
0000
0020
0000
0000
0001
0000
0000
0130
0000
1000
0000
0000
0010
,
0000
0000
0100
0000
0020
0000
0000
1000
0000
0000
0130
0000
0020
0000
0000
1000
,
0000
0000
0130
0000
0020
0000
0000
1000
0000
0000
0130
0000
0001
0000
0000
0010
,
0000
0100
1000
0000
0001
1000
0001
0000
,
0100
0010
0100
0000
0001
1000
0001
0000
,
0010
0000
0100
0000
1000
0001
1000
0000
,
0010
0100
0001
1000
,
0001
0000
0001
0000
0010
0000
0000
0100
0000
0000
0100
0000
1000
0000
0000
0000
,
0001
0000
0000
2002
0000
0000
0000
0000
0000
0000
0000
0000
0000
0000
3003
0000
;

//--------------- dance-single - chrononical ----------------
#NOTES:
     dance-single:
     chrononical:
     Medium:
     12:
     0,0,0,0,0:
0000
0000
0000
0000
,
0000
0000
0000
0000
,
0000
0000
0000
0000
,
0000
0000
0000
0000
,
0000
0000
0000
0000
,
0000
0000
0000
0000
,
0002
0000
0000
0000
0203
0000
0000
1000
0000
0000
0000
0000
0000
0000
0310
0000
,
1000
0000
0100
0000
0000
0000
0100
0000
0000
0010
0100
0000
1000
0000
0001
0000
,
2000
0000
0000
0000
3020
0000
0000
0001
0000
0000
0000
0000
0000
0000
0130
0000
,
0001
0000
0010
0000
0000
0000
0010
0000
0000
0100
0010
0000
0001
0000
1000
0000
,
0001
0000
0100
0000
0010
0000
0000
2000
0000
0000
3100
0000
0010
0000
0100
0000
,
1000
0000
0000
1020
0000
0000
0000
0000
0000
0100
0000
0000
0130
0000
0000
0000
,
0002
0000
0013
0000
0100
0000
2000
0000
0000
3001
0000
0000
0100
0000
0001
0000
,
2000
0000
3010
0000
0100
0000
0002
0000
0000
1003
0000
0000
0100
0000
1000
0000
,
0002
0000
0013
0000
0100
0000
2000
0000
3001
0100
0000
0100
0010
0000
1000
0000
,
0001
0000
0201
0000
0000
0310
0000
0000
1000
0000
1200
0000
0000
0310
0000
0000
,
0200
0000
1300
0000
0001
0000
0200
0000
0000
0310
0000
0000
1000
0000
0100
0000
,
0020
0000
0031
0000
1000
0000
0020
0000
0000
0130
0000
0000
0001
0000
0010
0000
,
0200
0000
1300
0000
0001
0000
0200
0000
0000
0310
0000
0000
1000
0000
0100
0000
,
0010
0000
1002
0000
0000
0103
0000
0000
0010
0000
2001
0000
0000
0100
0000
0000
,
3020
0000
0130
0001
1000
0200
0000
0320
,
0000
1030
0010
0002
0000
1003
0010
0002
,
0000
0000
0013
0200
0000
0301
0010
0000
,
2000
0000
3010
0200
0000
1300
0001
0001
,
0200
0000
0310
1000
0001
0020
0000
0230
,
0000
0301
0100
2000
0000
3001
0100
2000
,
0000
0000
3100
0020
0000
1030
0100
0000
,
0010
0000
0100
0000
1000
0000
0010
0000
0100
0000
0001
0000
,
1000
0001
0000
0010
0001
0000
0100
0001
0000
0001
1000
0000
0020
0000
0000
0000
,
1030
0000
0000
0001
0000
0000
0010
0000
0100
0000
1000
0000
0001
0000
0200
0000
,
0000
0310
1000
0200
0000
0310
0001
0200
,
0000
0000
0310
0000
0002
0000
0000
0000
0013
0100
0000
0100
0001
0000
0010
0100
,
1000
0000
0001
0000
0100
0000
0010
1000
0000
0000
1010
0000
0000
0000
2001
0000
,
0000
3010
0000
0100
0010
1000
0001
0020
,
0000
0130
1000
0020
0000
0130
0001
0020
,
0000
0130
0002
0000
0000
0103
0010
0001
,
1000
0010
0001
1000
0100
0001
1000
1000
,
0001
0000
0000
1000
0000
0000
0010
0000
0100
0000
0001
0000
1000
0000
0200
0000
,
0000
0310
0001
0200
0000
0310
1000
0200
,
0000
0000
0310
0000
2000
0000
0000
0000
0000
3010
0000
0000
0010
0000
0001
0000
,
1000
0000
0010
0000
1000
0000
0010
0000
1000
0000
0100
0000
0010
0000
0000
0011
0000
0000
0000
0000
0000
1002
0000
0000
,
0000
0013
0000
0100
0010
0001
1000
0020
,
0000
0130
0001
0020
0000
0130
1000
0020
,
0000
0000
0130
0000
2000
0000
0100
0000
0000
3100
0000
0000
0001
0000
1000
0000
,
0001
0010
0000
0010
0000
0010
0000
0100
1000
0000
0010
0000
0100
0000
0002
0000
,
0000
0000
1003
0000
0002
0000
0000
0010
0000
0000
1003
0000
0002
0000
0000
0010
,
0000
0000
1003
0000
0002
0000
0000
0010
0000
0000
1003
0000
0001
1000
0000
2000
,
0000
0000
3001
0000
2000
0000
0000
0010
0000
0000
3001
0000
2000
0000
0000
0010
,
0000
0000
3001
0000
2000
0000
0000
0010
0000
0000
3001
0000
1000
0001
0000
0002
,
0000
0000
1003
0000
0002
0000
0000
1000
0000
0000
1003
0000
0002
0000
0000
0100
,
0000
0000
1003
0000
0002
0000
0000
0100
0000
0000
1003
0000
0001
1000
0000
2000
,
0000
0000
3001
0000
2000
0000
0000
0100
0000
0000
3001
0000
2000
0000
0000
0100
,
0000
0000
3001
0000
2000
0000
0000
0100
0000
0000
3001
0000
1000
0001
0000
0000
,
1000
0001
0010
0100
1000
0010
0000
0100
,
0000
0001
0000
0100
0000
1000
0002
0000
,
0010
0000
1003
0001
0010
0100
0000
0100
,
0000
0001
0010
0100
0000
0100
0002
0000
,
0100
0000
1003
0001
0100
0010
0000
0010
,
0000
0001
0000
0100
0000
0100
0020
0000
,
0200
0000
0330
0110
0000
0100
0001
0010
,
0000
0010
0001
0100
0010
1000
0000
0000
,
0001
0100
0001
0010
0000
0100
0000
0100
,
0000
1000
0000
0100
0000
0001
2000
0000
,
0010
0000
3001
1000
0010
0100
0000
0100
,
0000
1000
0010
0100
0000
0100
2000
0000
,
0100
0000
3001
1000
0100
0010
0000
0010
,
0000
1000
0000
0100
0000
0100
0020
0000
,
0100
0000
2030
0000
3010
0001
1000
0010
,
0000
0100
0001
0101
0000
1010
0000
2000
,
0000
0000
3010
0000
2000
0000
0000
0100
0000
0000
3010
0000
2000
0000
0000
0100
,
0000
0000
3010
0000
2000
0000
0000
0100
0000
0000
3010
0000
0100
0001
0000
0002
,
0000
0000
0013
0000
0002
0000
0000
0100
0000
0000
0013
0000
0002
0000
0000
0100
,
0000
0000
0013
0000
0002
0000
0000
0100
0000
0000
0013
0000
0100
1000
0000
2000
,
0000
0000
3010
0000
0100
0000
0001
1000
0001
0000
0010
0000
0100
0000
1000
0001
,
1000
0000
0010
0000
0100
0000
0010
0100
0010
0000
1000
0000
0001
0010
0000
0200
,
0000
0000
1300
0000
0100
0010
0000
0010
0000
0010
0000
0000
0010
0000
0000
0010
,
0000
0000
0001
1000
0001
0000
0100
0010
0100
0000
0001
0000
1000
0001
0000
0000
,
1000
0000
0010
0000
0100
0000
0000
0002
0000
0000
0013
0000
0100
0000
0010
0000
,
0001
0000
0000
0202
0000
0000
0000
0000
0000
0000
0000
0000
0000
0000
0000
0000
,
0303
0000
0000
0000
;

//--------------- dance-single - chrononical ----------------
#NOTES:
     dance-single:
     chrononical:
     Hard:
     15:
     0,0,0,0,0:
0000
0000
0000
0000
,
0000
0000
0000
0000
,
0000
0000
0000
0000
,
0000
0000
0000
0000
,
0000
0000
0000
0000
,
0000
0000
0000
0000
,
2000
0000
0000
0000
3200
0010
0000
0302
0000
0000
0000
0000
0000
0000
0103
0000
,
0010
0000
0001
0100
0000
0000
0010
0000
0000
1000
0010
0100
0001
1000
0100
0010
,
0002
0000
0000
0000
0203
0010
0000
2300
0000
0000
0000
0000
0000
0000
3100
0000
,
0010
0000
1000
0100
0000
0000
0010
0000
0001
1000
0010
0100
0001
1000
0100
0010
,
0100
0000
0010
0000
2100
0000
3001
0200
0000
0000
0310
0000
0102
0000
1003
0100
,
0010
0100
1000
0020
0000
0000
0000
0000
0130
0001
1000
0000
0100
0010
0001
0000
,
2000
0000
3100
0010
0001
1000
0002
0000
0000
0103
0010
0100
0001
0000
0100
0001
,
2000
0000
3010
0100
0001
1000
0002
0000
0000
0013
0100
0010
0001
0000
0010
0001
,
2000
0000
3100
0010
0001
1000
0002
0000
0103
0010
1000
0001
0010
0000
0100
0010
,
0001
0000
2100
0000
0000
3010
0100
0000
0001
0000
2010
0000
0000
3100
0010
0000
,
0002
0000
0103
0010
1000
0001
2000
0000
0000
3100
0010
0100
1000
0000
0100
1000
,
0002
0000
0013
0100
1000
0001
2000
0000
0000
3010
0100
0010
1000
0000
0010
1000
,
0002
0000
0103
0010
1000
0001
2000
0000
0000
3100
0000
0000
0110
0000
0100
0000
,
1000
0000
0012
0000
0000
0103
0010
0000
1000
0000
0102
0000
0000
0010
0000
0000
,
2003
0000
3100
0010
0010
0100
1000
0020
,
0000
0000
1030
0000
0010
0000
1000
0100
0000
0100
0010
0000
0001
0000
0100
0000
,
0010
0100
1000
0200
0000
1300
0100
0001
,
0100
0000
0001
0010
0000
0010
0100
0000
0010
0001
0100
0000
0010
0100
0010
1000
,
0002
0000
0000
1003
0010
0000
0100
0000
0100
0000
0010
0000
1000
0000
0200
0000
,
0000
0310
0001
0200
0000
0301
0100
0210
,
0000
0310
0001
0020
0000
0031
0010
0100
,
0110
0000
1010
0000
1100
0000
0110
0000
0011
0000
0101
0000
,
0100
0010
1000
0001
0010
0100
1000
0001
1000
0010
0100
0000
0002
0000
0000
0000
,
1003
0000
0000
0010
0000
0000
0001
0000
0010
0000
1000
0000
0001
0000
0010
0000
,
0000
2001
3100
0010
0000
2001
3010
0200
,
0000
0000
0301
0000
0020
0000
0000
0000
0031
0010
0000
0010
0100
0000
0010
0001
,
0100
0000
0001
0000
0010
0000
0100
1000
0000
0000
1100
0000
0000
0000
2010
0000
,
0000
3001
0100
1000
0100
0001
1000
0100
,
0000
1002
0013
0100
0000
1002
0103
0020
,
0000
0000
1030
0000
0200
0000
0000
0000
1300
0100
0000
0100
0010
0000
0001
0000
,
1000
0010
0100
0001
1000
0100
0010
0100
1000
0001
0100
0010
0100
0000
1000
0000
,
0100
0000
0000
0010
0000
0000
0001
0000
0010
0000
1000
0000
0001
0000
0010
0000
,
0000
2100
3001
0100
0000
2010
3001
0020
,
0000
0000
0031
0000
0200
0000
0000
0000
0301
0100
0000
0010
0002
0000
0000
0000
,
0013
0000
0100
0000
0010
0000
0100
0000
0001
0000
0010
0000
0100
0000
0000
0110
0000
0000
0000
0000
0000
2001
0000
0000
,
0000
3001
0100
1000
0100
0001
1000
0100
,
0000
0012
1003
0010
0000
0102
1003
0200
,
0000
0000
1300
0000
0020
0000
0000
0000
1030
0010
0000
0100
0010
0000
0100
0000
,
1000
0100
0000
0110
0000
1001
0000
1000
0001
1000
0100
0000
0010
0001
2000
0000
,
0000
0000
3010
0000
0100
0010
2000
0100
0000
0000
3001
0000
0100
0010
2000
0100
,
0000
0000
3001
0000
0100
0010
2000
0100
0000
0000
3001
0000
0100
0001
0000
0002
,
0000
0000
0013
0000
0100
0010
0002
0100
0000
0000
1003
0000
0100
0010
0002
0100
,
0000
0000
1003
0000
0100
0010
0002
0100
0000
0000
1003
0000
0100
1000
0000
0002
,
0000
0000
1003
0000
0010
0100
0002
0100
0000
0000
1003
0000
0010
0100
0002
0010
,
0000
0000
1003
0000
0010
0100
0002
0010
0000
0000
1003
0000
0010
1000
0000
2000
,
0000
0000
3100
0000
0010
0100
2000
0010
0000
0000
3001
0000
0010
0100
2000
0010
,
0000
0000
3001
0000
0010
0100
2000
0010
0000
0000
3001
0000
0001
0100
0000
0000
,
0100
0010
0001
0010
0100
0010
1000
0001
,
0010
1000
0001
0100
0010
0001
0201
0000
,
0010
0000
1300
0100
0001
0101
0000
1002
,
0000
1003
0100
0210
0000
0310
0021
0000
,
0100
0000
1030
0010
0001
0011
0000
0101
,
0000
0110
0000
1001
0000
1020
0230
0000
,
0020
0000
0000
0000
0330
0000
2001
0000
0000
0000
3100
0010
0001
0000
0200
0000
,
0000
0000
0301
0000
0100
0000
0001
0100
0001
0000
0020
0000
0000
0000
0000
0000
,
0130
0001
0100
1000
0010
0100
0010
1000
,
0010
0001
1000
0100
0010
1000
1200
0000
,
0010
0000
0301
0100
1000
1100
0000
2001
,
0000
3001
0100
0210
0000
0310
1020
0000
,
0100
0000
0031
0010
1000
1010
0000
1100
,
0000
0110
0000
1001
0000
0201
0320
0000
,
0100
0000
0001
0000
0130
0001
1000
0101
,
0000
1000
0001
1100
0000
1010
0000
0201
,
0000
0000
0310
0000
0100
0010
0200
1000
0000
0000
0310
0000
0100
0010
0200
1000
,
0000
0000
0310
0000
0100
0010
0200
1000
0000
0000
0310
0000
0100
0010
0000
0120
,
0000
0000
1030
0000
0100
0010
0200
0001
0000
0000
0310
0000
0100
0010
0200
0001
,
0000
0000
0310
0000
0100
0010
0200
0001
0000
0000
0310
0000
0100
0010
0000
0120
,
0000
0000
0031
0000
1000
0000
0010
0100
0001
0000
1000
0000
0001
0000
0010
0100
,
1000
0000
0001
0000
1000
0000
0010
0100
0001
0000
1000
0000
0001
0100
0000
0120
,
0000
0000
1030
0000
0001
0010
0000
0010
0000
0010
0100
0000
0010
0000
0000
0010
,
0000
0000
0001
1000
0010
0100
0001
1000
0001
0010
0100
0000
0100
0010
0000
0000
,
0010
0000
0100
0000
0012
0000
1003
0020
0000
0000
0130
0000
2010
0000
3001
0010
,
0100
0010
0001
0200
0000
0000
0000
0000
0000
0000
0000
0000
0000
0000
0000
0000
,
0300
0000
0000
0000
;
