#TITLE:TAK it;
#SUBTITLE:;
#ARTIST:TAK;
#TITLETRANSLIT:;
#SUBTITLETRANSLIT:;
#ARTISTTRANSLIT:;
#GENRE:;
#CREDIT:;
#MUSIC:TAK it.ogg;
#BANNER:TAK it-bn.png;
#BACKGROUND:TAK it-bg.png;
#JACKET:TAK it-jacket.png;
#CDTITLE:;
#SAMPLESTART:16.929;
#SAMPLELENGTH:13.521;
#SELECTABLE:YES;
#OFFSET:-0.028;
#BPMS:0.000=142.000;
#STOPS:;
#BGCHANGES:;
#FGCHANGES:;

//--------------- dance-single - Highflyer ----------------
#NOTES:
     dance-single:
     Highflyer:
     Beginner:
     2:
     0,0,0,0,0:
0000
0000
0000
0000
,
0000
0000
0000
0000
,
0001
0000
0000
0000
,
1000
0000
0000
0000
,
0010
0000
0000
0000
,
0000
0000
0000
0000
,
0100
0000
0000
0000
,
0010
0000
0000
0000
,
1000
0000
0000
0000
,
0100
0000
0000
0000
,
0010
0010
0010
0000
,
0100
0100
0100
0000
,
1000
1000
1000
0000
,
0001
0000
0000
0000
,
0001
0001
0000
1001
,
1000
1000
0000
1001
,
0100
0100
0000
0110
,
0010
0000
0100
0100
,
0010
0000
0100
0000
,
0010
0000
1000
0000
,
0001
0000
0010
0000
,
0100
0000
0020
0030
,
0001
0000
1000
0000
,
0010
0000
0100
0000
,
0010
0000
0100
0000
,
0001
0000
1000
0000
,
0100
0100
0100
0000
,
0010
0010
0010
0000
,
0001
0001
0001
0000
,
1000
1000
1000
0000
,
0010
0000
0010
0000
,
0100
0000
0100
0000
,
0001
0001
0001
0001
,
0001
0000
1000
0000
,
0020
0000
0230
0000
,
0302
0000
0023
0000
,
0230
0000
0320
0000
,
0000
0000
0032
0000
,
1003
0000
0020
0000
,
0230
0000
0302
0000
,
2003
0000
3200
0000
,
0310
0000
0010
0010
,
0100
0100
0100
0000
,
1000
1000
1000
0000
,
0001
0001
0001
0000
,
0100
0100
0100
0000
,
0010
0010
0010
0000
,
0100
0100
0100
0000
,
0001
0001
0001
0000
,
1000
1000
1000
1000
,
1000
0000
0001
0000
,
0010
0000
0001
0000
,
1000
0000
0010
0000
,
0100
0000
0010
0000
,
1000
1000
1000
0000
,
0001
0001
0001
0000
,
0010
0010
0010
0000
,
0100
0000
0100
0100
,
0100
0000
1000
0000
,
0001
0000
0100
0000
,
0010
0000
0100
0000
,
0010
0000
0000
0000
,
1000
1000
1000
0000
,
0001
0001
0001
0000
,
0010
0010
0010
0010
,
0010
0000
0000
0010
,
0010
0000
0100
0000
,
0010
0000
0001
0000
,
1000
0000
0010
0000
,
0200
0000
0300
0000
,
0020
0000
0130
0100
,
0001
0000
1000
0000
,
0100
0000
0010
0010
,
0001
0000
0000
0100
,
0020
0030
0100
0100
,
0001
0000
1000
0000
,
0100
0000
0010
0010
,
0100
0000
0000
1000
,
2000
0000
0000
3000
0001
0000
0001
0000
,
1000
1000
0010
0010
,
0100
0100
0001
0002
,
0000
0000
0000
0003
;

//--------------- dance-single - Highflyer ----------------
#NOTES:
     dance-single:
     Highflyer:
     Easy:
     6:
     0,0,0,0,0:
0000
0000
0000
0000
,
0000
0000
0000
0000
,
2000
0000
0000
3000
0000
0000
0000
0000
0001
0000
0000
0000
0100
0000
0000
0000
,
0100
0010
2000
0000
,
3200
0000
0000
0300
0000
0000
0000
0000
0010
0000
0000
0000
0100
0000
0000
0100
,
0000
0010
0001
1000
,
0020
0000
0000
0030
0000
0000
0000
0000
0100
0000
0000
0000
0100
0000
0000
0000
,
0010
1000
0200
0320
,
0032
0000
0000
0003
0000
0000
0000
0000
1000
0000
0000
0000
0010
0000
0000
0010
,
0000
0100
0001
0010
,
0011
0011
1001
1001
,
1010
0000
1010
0000
0110
0000
0220
0330
,
0101
0101
1001
1001
,
2000
3000
0000
0000
,
0100
0100
0000
0110
,
0010
0010
0000
0011
,
0001
0001
0000
1001
,
1000
0000
0010
0000
0100
0000
0010
0100
,
0020
0030
0000
0010
0000
0010
0000
2000
,
3000
0002
0003
0020
0000
0030
0200
0300
,
0000
1001
0000
1001
0000
0101
0000
1001
,
0000
1001
0000
1001
0000
0000
1000
0001
,
2000
3000
0000
0020
0030
1000
0000
0002
,
0003
0020
0030
0200
0000
0300
2000
3000
,
0001
0000
0000
0100
0000
0000
0010
0000
,
0000
2000
0000
0000
3001
0000
0001
0000
,
1000
1000
0001
1000
,
1000
0000
0010
0000
0010
0000
0200
0300
,
0020
0030
0020
0030
0200
0000
0320
0030
,
0200
0300
0200
0000
0320
0000
1030
0001
,
1000
0100
0001
0100
,
1000
0001
0100
1000
,
0100
0100
0010
0010
,
0200
0300
0200
0300
0020
0030
2000
0000
,
3002
0000
0023
0000
,
0230
0000
2300
3020
,
0130
0000
0002
0000
,
0000
0000
2003
3200
,
0310
0010
0200
0000
,
2300
0000
3002
0203
,
0310
0000
0200
0000
,
0302
0000
2003
3200
,
0310
0010
0001
0001
,
1000
1000
0010
0010
,
0100
0100
0010
0010
,
1000
1000
0001
0001
,
1000
1000
0010
0010
,
0100
0100
0001
0001
,
1000
1000
0100
0100
,
0010
0010
0010
0010
,
0001
0001
0001
0000
,
1000
1000
1000
0000
,
0010
0010
0010
0000
,
0100
0100
0100
0000
,
0020
2030
3001
0010
,
0010
0100
0020
0000
,
0031
1000
0020
0000
,
0130
0000
0100
0010
0200
0000
0301
0000
,
1010
1010
1001
1001
,
0011
0000
0011
0000
0110
0000
0220
0330
,
1100
1100
1001
1001
,
0002
0003
0000
0000
,
0100
0200
0300
0200
,
0300
0200
0300
0200
,
0310
1000
0002
0013
,
0100
0000
1000
0000
0010
0000
0100
0010
,
0200
0000
0000
0000
,
0000
0000
0000
0000
,
0000
0000
0000
0000
0000
0000
0000
0300
,
2002
3003
0000
0000
,
2000
0000
3001
0001
,
0010
0100
0010
0010
,
0100
1000
0010
0010
,
0100
0000
0000
0100
0000
0000
0100
0000
0000
0000
0000
0000
0000
0000
0000
0000
,
0020
0000
0000
0030
1000
0000
1000
0000
,
0100
0010
0100
0100
,
1000
0010
0100
0001
,
1000
0000
0000
1000
0000
0000
1000
0000
0000
0000
0000
0000
0000
0000
0000
0000
,
0002
0000
0000
0003
0010
0000
0010
0000
,
0100
0100
1000
0001
,
1000
1000
0010
0200
,
0000
0000
0000
0300
;

//--------------- dance-single - XO ----------------
#NOTES:
     dance-single:
     XO:
     Medium:
     12:
     0,0,0,0,0:
0000
0000
0000
0000
,
1000
0000
0001
0001
0200
0000
0310
0000
,
1000
0000
0000
1000
0000
0000
0001
0000
0000
0000
0001
0000
0010
0000
0000
0000
,
0010
0000
0000
0100
0000
0000
0010
0000
0000
0000
0001
0000
0000
0000
1000
0000
,
0010
0000
0000
0010
0000
0000
0100
0000
0001
0000
1000
0000
0100
0000
0000
0100
,
0000
0010
0100
1000
0010
0100
0010
0100
,
0001
0000
0000
0001
0000
0000
1000
0000
0100
0000
0010
0000
0100
0000
1000
0000
,
0001
0000
0000
0100
0000
0000
0010
0000
1000
0000
0100
0000
0001
0000
0100
0000
,
1000
0000
0000
1000
0000
0000
0010
0000
0100
0000
0001
0000
1000
0000
0000
0010
,
0000
0100
0001
1000
0001
0010
0100
0100
,
1000
0000
0010
0000
0200
0000
0000
0000
0310
0000
0000
1000
0000
0000
0001
0000
,
0010
0000
0100
0000
2000
0000
0000
0000
3001
0000
0000
0200
0000
0000
0000
0000
,
0310
0000
1000
0000
0002
0000
0000
0000
0013
0000
0000
0100
0000
0000
0010
0000
,
0001
0000
0100
0000
0000
0010
0000
1000
0000
0010
0000
1000
0000
0001
0000
1000
,
0100
0010
0001
1000
0000
0001
0002
0000
,
1003
0010
1000
0100
0000
0010
0020
0000
,
0130
1000
0001
0100
0000
0010
0020
0000
,
1030
0001
0100
1000
0100
0002
0010
1003
,
0001
0000
0100
0010
0000
0000
0100
0001
0000
0000
2000
0000
3000
0000
0100
0010
,
0000
0000
0100
0010
0000
0000
0100
1000
0002
0000
0000
0000
1003
0000
1000
0000
,
0100
0001
0100
0001
0100
1000
0100
0001
,
0100
0001
0100
0001
0100
2000
0010
3001
,
1000
0000
0100
0010
0000
0000
0100
1000
0000
0000
0002
0000
0003
0000
0100
0010
,
0000
0000
0100
0010
0000
0000
0100
0001
2000
0000
0000
0000
3001
0000
0001
0000
,
0010
0000
0000
0100
0000
0000
0010
0000
0100
0000
0100
0000
1000
0000
0010
0000
,
0000
0000
0000
0100
0000
0000
0001
0000
1000
0000
0001
0000
1000
0000
0000
0100
0000
0000
0010
0000
0000
0000
0000
0000
,
0001
0100
1000
0100
0010
0100
1000
0100
,
0010
0100
0001
0010
1000
0010
0100
0100
,
1000
0100
0001
0100
0010
0100
0001
0100
,
1000
0010
0001
0010
1000
2000
0100
3001
,
2000
0000
3010
0100
0010
0000
0100
0001
,
0100
0000
0010
1000
0010
1000
0001
0001
,
0010
0010
0100
0100
1000
0010
0100
0000
,
0020
0000
0000
0030
0000
0000
0020
0000
0000
0030
0000
0000
0010
0000
0000
1000
0000
0000
0001
0000
0010
0000
0001
0000
,
0020
0000
0230
0000
,
2300
0000
3002
0203
,
0310
1000
0001
0010
0200
0000
0000
0000
,
0000
0000
0320
0032
,
1003
0010
0010
0010
0200
0302
0203
0302
,
2003
3200
2300
3200
0320
0000
0032
0000
,
1003
0010
1000
0001
0020
0230
2300
3002
,
0103
0000
0000
0100
0000
0000
0100
0000
0020
0000
0000
0000
2030
0000
0000
0000
,
3001
0010
0001
0000
1000
0010
1000
0000
,
0010
0100
0001
1000
0100
0010
0100
0000
,
0010
0010
0100
0100
,
1000
0001
1000
0010
0100
0001
0001
0000
,
1000
0100
1000
0000
0001
0100
0001
0000
,
1000
0100
1000
0001
0100
0010
0100
0000
,
0010
0010
0100
0100
,
0101
0101
1100
1100
,
0001
0000
0001
0000
1000
0100
0010
0000
,
0100
0000
0000
0010
0000
0000
0001
0000
1000
0000
0000
0010
0000
0000
0100
0000
,
0100
0000
0000
0000
0010
0000
0100
0000
0001
0000
1000
0000
0100
0000
0000
0010
,
0000
0100
0010
0001
1000
0010
0100
0010
,
1010
0000
1001
0000
0011
0010
0100
1000
,
0010
0000
0000
1000
0000
0000
0001
0000
0010
0000
0100
0000
0001
0000
0100
0000
,
1000
0000
0000
0000
1000
0000
0001
0000
0100
0000
0010
0000
0100
0000
0000
0001
,
1000
0200
0010
1300
0002
0000
0203
0000
,
0301
0000
0010
0000
0200
0000
0000
0000
0310
0000
0000
0001
0000
0000
1000
0000
,
0010
0000
0100
0000
0002
0000
0000
0000
1003
0000
0000
0200
0000
0000
0000
0000
,
0310
0000
0001
0000
2000
0000
0000
0000
3010
0000
0000
0100
0000
0000
0010
0000
,
1000
0000
0100
0000
0000
0010
0000
0001
0000
0010
0000
0001
0000
1000
0000
0001
,
0010
0001
0100
1000
0100
0001
0010
1000
,
0010
0001
0100
1000
0100
0001
0010
1000
,
0010
0000
0010
0000
0001
0000
0001
0000
1000
0010
1000
0000
0010
0000
0010
0000
,
0100
0001
1000
0100
0010
0020
0100
0031
,
1000
0010
0100
0001
1000
0100
1000
0001
,
0100
0100
0010
0010
1000
0100
0010
0001
,
1000
0001
0001
0100
0010
1000
0100
0000
,
2002
3003
0000
0000
,
2000
0000
0000
3010
0200
0000
0302
0000
,
1003
0100
0001
0100
1000
0001
0001
1000
,
0001
0100
2000
0000
3100
0100
0020
0000
,
1030
0000
0000
0001
0000
0000
1000
0000
0100
0000
0020
0000
0100
0000
0031
0000
,
0200
0000
0000
0310
2000
0000
3002
0000
,
1003
0010
0001
0010
1000
0001
0001
1000
,
0001
0010
1000
0000
0010
0100
0100
0000
,
1000
0000
0000
0001
0000
0000
1000
0000
0001
0000
0200
0000
0010
0000
0301
0000
,
2000
0000
0000
3100
0010
0000
0010
0000
,
0001
0100
1000
0001
0010
1000
1000
0001
,
1000
0100
0001
0000
0100
0010
0020
0000
,
0000
0000
0000
0030
;

//--------------- dance-single - DT DS XO ----------------
#NOTES:
     dance-single:
     DT DS XO:
     Hard:
     14:
     0,0,0,0,0:
0000
0000
0000
0000
,
1001
0000
0000
1000
0100
0000
0010
0000
0001
0100
0001
0000
2000
0000
0000
0000
,
3100
0000
0000
0100
0000
0000
0010
0000
0100
0000
1000
0000
0010
0000
0100
0000
,
0001
0000
0010
0100
0000
0100
0010
0000
0001
0000
1000
0010
0000
1000
0010
0000
,
0100
0000
0000
0100
0000
0000
0001
1000
0001
0000
0010
0000
0100
0000
0000
0010
,
0000
0000
0001
0000
0100
0010
0100
0010
1000
0000
0100
0000
0001
0000
0100
0000
,
1000
0000
0000
1000
0000
0010
0000
0100
0001
0000
0010
0100
0010
0000
0001
0000
,
1000
0000
0001
0100
0000
0100
0001
0000
1000
0100
1000
0000
0001
0100
0001
0000
,
1000
0000
0000
1000
0000
0000
0100
0010
0001
0000
0100
0000
1000
0000
0000
0100
,
0001
0000
0010
0000
0100
1000
0100
1000
0001
0000
0010
0000
1000
0000
0010
0000
,
0002
0000
1003
0010
0000
1000
0010
0000
0100
0001
0000
0100
0000
0010
0100
0000
,
0001
0000
1000
0100
0000
1000
0100
0000
0010
0001
0000
2000
0020
0000
3000
0000
,
1030
0000
0001
0010
0000
0001
0010
0000
0100
1000
0000
0001
0000
0000
0100
0010
,
1000
0000
0001
0000
0000
0010
0100
1000
0000
0001
0000
1000
0000
0010
0100
0010
,
1000
0001
1000
0000
0100
0000
1000
0000
0020
0000
0001
0000
1030
0000
0001
0000
,
0010
0100
0010
0000
0001
0000
1000
0000
0200
0000
0001
0000
1300
0000
0001
0000
,
1000
0100
1000
0000
0001
0100
0001
0000
0200
0000
1000
0000
0301
0000
0010
0100
,
0010
0100
1000
0001
0100
0020
0001
1030
,
0001
0010
0001
1000
0000
0001
0100
0001
0000
1000
0200
0000
0300
0010
0002
0000
,
0003
0010
0100
0010
0000
0001
1000
0010
0200
0000
0000
0000
0310
1000
0001
0000
,
0010
0001
0010
0000
0010
0001
0010
0000
0010
0001
1000
0000
1000
0001
0100
0000
,
0100
0001
0100
0000
0100
0001
0100
0000
0010
1000
0020
0000
0001
0000
1030
0000
,
0001
0000
0010
0100
0000
1000
0010
0100
0000
0001
0200
0000
0300
0010
2000
0000
,
3000
0100
0010
0100
0000
1000
0010
1000
0002
0000
0003
0010
0100
1000
0100
0000
,
0010
0000
0000
0001
0100
0000
0010
0000
1000
0100
1000
0000
0001
0000
0100
0000
,
0000
0000
0000
0020
0000
0000
0130
0000
0001
0000
1000
0000
0100
0000
0000
0010
0000
0000
0100
0000
0000
0000
0000
0000
,
0010
0000
0001
1000
0010
0000
1000
0100
1000
0000
0010
0000
0010
0000
0100
0001
,
0100
0000
0020
0000
1030
0100
1000
0000
0010
0000
0100
0001
1000
0100
1000
0000
,
0100
0000
0010
0001
1000
0000
0010
1000
0001
0000
0100
0000
0100
0000
0010
1000
,
0001
0000
0010
0000
0100
1000
0001
0000
1000
0010
0200
0000
1000
0000
0301
0000
,
0100
0000
0000
0010
1000
0000
0100
0000
0010
0000
0001
0000
0010
0000
0100
0000
,
1000
0000
0001
0000
0100
0000
0010
0000
0100
0000
0001
0000
1000
0100
1000
0000
,
0010
0100
0010
0000
1000
0100
1000
0000
0001
0100
0001
0000
1000
0000
0100
0000
,
0010
0000
0000
0100
0000
0000
0010
0000
0000
0000
0000
0000
0001
0000
0000
1000
0000
0000
0001
0000
0000
0000
0000
0000
1000
0000
0000
0000
0000
0000
0020
0000
0000
0000
0000
0000
0130
0000
0000
0000
0001
0000
0000
0000
1000
0000
0000
0000
,
0100
0000
0010
0001
0000
0010
0001
0000
0200
0000
0320
0000
0230
0000
0320
0000
,
2030
3200
2300
3200
0320
0032
0203
0320
,
1030
0000
0001
0010
0000
0001
1000
0000
0002
0000
0203
0000
0302
0000
2003
0000
,
3002
0023
0032
2003
3200
0320
0230
2300
,
3010
0000
0100
0001
0100
0001
0100
0000
0020
0000
2030
0000
3020
0000
2030
0000
,
3002
0023
0032
0023
0230
2300
3020
0230
,
0301
0000
1000
0100
0000
1000
0010
0000
0200
0000
0302
0000
0203
0000
0302
0000
,
1003
0000
0000
0100
0000
0000
0010
0000
0200
0000
0000
0000
2300
0000
0000
0000
,
3001
0000
0100
0010
0100
0000
0010
0000
1000
0100
1000
0000
0001
0000
0100
0000
,
0001
0010
1000
0010
0001
0100
1000
0100
,
0001
0010
0000
0001
1000
0000
0010
0000
0100
0001
0000
1000
0100
0000
0010
0000
,
0100
1000
0000
0001
0100
0001
0000
1000
0100
0000
0010
0100
0010
0000
0100
0000
,
1000
0000
0010
0100
0010
0000
1000
0000
0001
0010
0001
0000
1000
0000
0100
0000
,
1000
0010
0001
0010
1000
0100
0001
0100
,
1000
0001
0000
1000
0010
0000
0100
0000
0001
0010
0000
0001
1000
0000
0100
0000
,
0010
0100
0000
0010
0001
0000
1000
0000
0010
0100
0000
0010
1000
0000
0100
0000
,
0010
0000
0010
0000
0010
0100
1000
0001
,
1000
0000
0010
0100
0000
0010
0100
0000
0010
0000
0000
1000
0000
0000
0001
0000
,
0010
0000
0000
0000
0010
0000
0100
1000
0100
0000
1000
0000
0001
0000
0000
0100
,
0000
0000
0010
0000
0100
0001
0100
0001
1000
0000
0100
0000
0001
0000
0100
0000
,
1000
0000
0000
0000
1000
0000
0000
0000
1000
0000
0001
0100
0001
0000
0010
0000
,
0100
0000
1000
0010
0000
1000
0001
0000
0100
0000
0000
0010
0000
0000
0100
0000
,
0001
0000
0000
0000
0001
0000
1000
0100
1000
0000
0010
0000
0100
0000
0000
0010
,
1000
0000
0000
0000
0000
0000
0200
0000
0000
0000
0000
0000
0001
0000
0000
0000
0000
0000
1300
0000
0000
0000
0000
0000
1000
0000
0000
0000
0000
0000
0001
0000
0000
1000
0000
0000
0010
0000
0000
0000
0100
0000
0000
0000
0010
0000
0000
0000
,
2000
0000
3001
0010
0000
0001
0010
0000
0100
1000
0000
0100
0000
0010
0100
0000
,
1000
0000
0001
0100
0000
0001
0100
0000
0010
1000
0000
0002
0020
0000
0003
0000
,
0031
0000
1000
0010
0000
1000
0010
0000
0100
0001
0000
1000
0000
0000
0100
0010
,
0001
0000
1000
0000
0000
0010
0100
0001
0000
1000
0000
0001
0000
0010
0100
0010
,
0001
1000
0001
0000
0100
0000
0001
0010
0100
0000
1000
0000
0001
0000
1000
0010
,
0100
0000
0010
0000
1000
0000
0001
1000
0100
0000
1000
0000
0001
0000
1000
0010
,
0100
0000
0100
0000
0001
0000
0001
0000
0010
0100
1000
0001
0100
0000
0100
0000
,
0010
0100
0001
1000
0100
0020
1000
0031
,
1000
0010
0100
0100
0001
0010
1000
0010
,
0100
1000
0100
0000
1000
0001
1000
0000
0010
0000
0100
0000
1000
0000
0100
0000
,
0010
0000
0100
0001
0100
0000
0010
0000
1000
0000
1000
0000
1000
0000
0000
0000
,
2002
3003
0000
0000
,
0004
0000
0000
0000
0000
0000
0013
0000
0100
0000
0000
0010
0001
0000
1000
0000
,
0010
0000
0100
0000
1000
0000
0100
0000
0010
0000
1000
0001
1000
0000
0001
0000
,
0010
0000
0200
0000
0001
0000
0000
0000
1300
0000
0001
1000
0001
0000
0000
0000
,
0011
0000
0000
1001
0000
0000
1010
0000
1000
0000
0020
0000
0001
0000
1030
0000
,
0004
0000
0000
0000
0000
0000
0013
0000
0100
0000
0000
0100
1000
0000
0010
0000
,
0100
0000
0010
0000
0001
0000
0010
0000
0100
0000
0001
1000
0001
0000
1000
0000
,
0100
0000
0010
0000
1000
0000
0000
0000
0010
0000
0001
1000
0001
0000
0000
0000
,
1100
0000
0000
1001
0000
0000
0101
0000
0001
0000
0200
0000
1000
0000
0301
0000
,
4000
0000
0000
0000
0000
0000
3100
0000
0010
0000
0100
1000
0001
0000
1000
0000
,
0100
0000
0010
0000
0100
0000
0001
0000
0100
0000
1000
0001
1000
0000
0010
0000
,
0100
0000
1000
0000
0200
0000
0000
0000
0310
0000
0100
0001
2000
0000
0000
0000
,
0000
0000
0000
3000
;

//--------------- dance-single - DS+ FS BU- XO- FL- Rolls ----------------
#NOTES:
     dance-single:
     DS+ FS BU- XO- FL- Rolls:
     Challenge:
     17:
     0,0,0,0,0:
0000
0000
0000
0000
,
1001
0000
0000
0001
0100
0000
0100
0000
0010
1000
0010
0100
0001
0010
0100
1000
,
0001
0000
0000
0000
0000
0000
0000
0000
0000
0001
0000
0000
0000
0000
0000
0000
0000
0000
0100
0000
0000
0000
0000
0000
0010
0000
0000
0000
0000
0000
1000
0000
0001
0000
0000
0000
0010
0000
0000
0000
0000
0000
0100
0000
0000
0000
0000
0000
,
0010
0000
0001
0100
00M0
0100
1000
0000
0010
0000
1000
0100
0000
1000
0001
0100
,
0010
0000
0000
0010
0000
0000
0100
0001
0010
0000
0100
0000
1000
0000
0000
0001
,
0000
0000
0100
0000
0010
1000
0100
0010
0001
0000
0100
0000
1000
0000
0100
0010
,
1000
0000
0000
0000
0000
0000
0000
0000
0000
1000
0000
0000
0000
0000
0000
0001
0000
0000
0000
0000
0000
0010
0000
0000
0100
0000
0000
0000
0000
0000
0010
0000
0001
0000
0000
0000
1000
0000
0000
0000
0000
0000
0010
0000
0000
0000
0000
0000
,
0001
0000
0010
0100
M000
0100
1000
0000
0100
0010
0001
1000
0010
0100
0010
1000
,
0100
0000
0000
0100
0000
0010
0100
1000
0010
0000
0100
0000
1000
0000
0000
0100
,
0000
0000
0001
1000
0100
1000
0001
1000
0010
0000
0100
0000
0001
0000
0010
0000
,
1002
0000
1003
0001
0100
0100
1000
0000
0010
0100
0000
0010
1000
0001
0010
0010
,
1000
0100
0020
0000
0031
0100
0010
0000
0100
0001
0000
1000
0100
0100
0002
0000
,
0013
0100
0010
0001
1000
0010
0100
0000
0010
1000
0000
0001
0010
0100
1000
0010
,
0200
0000
1300
0000
0000
0100
0001
0010
0M00
0010
0000
0100
00M0
0100
1000
0001
,
0010
0001
1000
0001
0100
0010
0100
0001
1000
0100
0010
0100
1000
0001
0100
0010
,
1000
0001
1000
0010
0100
0001
1000
0001
0010
0100
1000
0100
0010
0001
1000
0010
,
0100
0000
0000
0010
0000
0000
1000
0000
0000
0001
0000
0000
0010
0000
0000
0100
0000
0000
0010
0000
0000
0001
0000
0000
1000
0000
0010
0000
1000
0000
0001
0000
0000
0100
0000
0000
0001
0000
0000
1000
0000
0000
0100
0000
0000
0010
0000
0000
,
0001
0100
0001
1000
0001
0020
1000
0031
,
0010
0100
0020
0001
0000
0130
2000
0001
0000
3010
0200
0000
0301
1000
0020
0100
,
0000
1030
0002
0010
0000
1003
0100
1000
0020
0000
0030
1000
0100
0100
0010
0000
,
1000
0001
0100
0000
1000
0001
0100
0000
1000
0001
0020
0000
0031
1000
0100
0000
,
0001
1000
0100
0000
0001
1000
0100
0000
1000
0001
0100
0100
1000
0000
0010
0000
,
0100
0001
0020
0100
0000
0031
2000
0010
0000
3001
0200
0000
0310
1000
0002
0010
,
0000
1003
0200
0010
0000
1300
0001
0100
0020
0000
0030
1000
0100
0100
0001
0000
,
1000
0000
0000
0100
0010
0000
0001
0000
1000
0010
1000
0000
0100
00M0
0100
0000
,
0001
0000
0000
1000
0100
1000
0100
0000
0010
0000
0001
0000
1000
0000
0000
0010
0000
0000
0200
0000
0000
0300
0000
0000
,
0010
0000
0100
0001
1000
0000
0100
0010
0100
0010
0001
0000
0100
0000
0010
1000
,
0010
1000
0001
0000
1000
0100
1000
0100
0010
0000
0001
1000
0100
0100
0001
0000
,
0100
0000
0010
1000
0001
0000
0010
0100
0010
0100
1000
0000
0010
0000
1000
0010
,
1000
0010
0100
0000
0001
0010
0001
0010
0100
0100
0001
0100
0010
0000
1000
0000
,
0001
0010
0001
1000
0010
0100
0001
1000
0001
0100
0010
1000
0001
0010
0100
0010
,
0001
1000
0100
0010
0001
0010
0100
1000
0001
0100
0001
1000
0100
0100
0001
1000
,
0100
0100
0001
1000
0010
0010
0001
1000
0100
0100
0001
0010
0100
0100
0001
0100
,
0010
0000
0000
0010
0000
0000
0100
0000
0000
1000
0000
0000
0100
0000
0000
0100
0000
0000
0100
0000
0000
0100
0000
0000
0001
0000
0000
0000
0000
0000
1000
0000
0010
0000
1000
0000
0001
0000
0000
0000
0010
0000
0000
0000
0100
0000
0000
0000
,
2000
0000
0000
0000
0000
0000
0000
0000
3004
0100
0000
1000
0000
0010
0000
1003
,
0400
1000
0000
0010
0000
1000
0000
0310
0004
0100
0000
1003
0040
0100
0000
1030
,
0002
0000
0000
0000
0000
0000
0000
0000
4003
0100
0000
0001
0000
0100
0000
0001
,
0000
0010
0000
0100
0000
0001
0000
3010
0400
0001
0000
0301
0040
0100
0000
0031
,
1000
0010
0100
0001
0100
0010
1000
0001
0040
0100
0000
0001
0000
0100
0000
0130
,
4000
0001
0000
0010
0000
0001
0000
3010
0400
0001
0000
0310
4000
0100
0000
3001
,
0200
0000
0000
0000
0000
0000
0000
0000
0340
1000
0000
0100
0000
1000
0000
2030
,
0100
0000
3002
0100
0000
2003
0100
0000
3020
0000
0000
0000
0230
0000
0000
0000
,
0310
0000
1000
0001
1000
0000
0100
0000
0010
0001
0010
0000
0001
0000
1000
0000
,
0020
0000
1030
0100
1000
0000
0001
0000
0100
0000
0000
0010
0000
0000
0100
0000
,
0001
0010
0000
0100
1000
0000
0010
0000
0100
0001
0000
1000
0010
0000
1000
0000
,
0001
0010
0000
0100
1000
0001
0000
1000
0010
0000
0100
0001
0100
0000
0010
0000
,
0100
0001
0100
0001
1000
0100
0000
0010
0100
1000
0001
0100
0000
0010
0100
0001
,
1000
0100
1000
0001
0100
0010
1000
0001
0010
0000
0100
0010
0000
0100
0010
0000
,
0001
0000
1000
0010
1000
0000
0001
0010
0001
0000
0001
0000
0001
0000
1000
0010
,
0100
0000
0010
1000
0100
0000
0010
0001
0100
0000
0010
1000
0001
0000
1000
0000
,
0100
0000
0000
0000
0000
0000
0010
0000
0000
0000
0000
0000
0100
0000
0000
1000
0001
0000
0100
0000
0000
0010
0000
0000
,
1000
0000
0001
0100
00M0
0100
1000
0000
0001
0000
0000
0001
0000
0000
0001
0010
,
0100
0000
0000
0000
0000
0000
0000
0000
0010
0000
0000
0000
0100
0000
1000
0000
0001
0000
0000
0000
0100
0000
0000
0000
0010
1000
0000
0000
0000
0000
0010
0000
,
0000
0000
1000
0000
0001
0010
0001
1000
0010
0000
0100
0000
1000
0000
0100
0000
,
0001
0000
0000
0000
0000
0000
0010
0000
0000
0000
0000
0000
0100
0000
0000
0010
0001
0000
1000
0000
0000
0010
0000
0000
,
0100
0000
0001
0010
0M00
0010
1000
0000
0100
0010
0001
1000
0010
1000
0001
0010
,
0100
0000
0000
0000
0010
0000
0001
1000
0010
0000
0100
0000
0001
0000
0000
0001
,
1000
0000
0000
0200
0000
0000
0001
0000
0000
1300
0000
0000
0010
0000
0000
0100
0001
0100
0001
0000
1000
0000
0100
0000
,
1000
0000
0001
1000
0100
0100
0001
0000
0010
0100
0000
0010
0001
1000
0010
0010
,
0001
0100
0020
0000
1030
0100
0010
0000
0100
1000
0000
0001
0100
0100
2000
0000
,
3010
0100
0010
1000
0001
0010
0100
0000
0010
0001
0000
1000
0010
0100
0001
0010
,
0200
0000
0301
0000
0000
0100
1000
0010
0M00
0010
0000
0100
00M0
0100
0001
1000
,
0010
1000
0010
0100
0001
1000
0400
00M0
0301
0010
0100
1000
0010
1000
0400
00M0
,
0301
1000
0100
1000
0001
1000
0040
0M00
0031
1000
0001
0100
0010
1000
0040
0M00
,
0031
0000
0000
1000
0000
0000
0100
0000
0000
1000
0000
0000
0001
0000
0000
0100
0000
0000
0001
0000
0000
1000
0000
0000
0100
0000
0010
0000
0001
0000
1000
0000
0000
0010
0000
0000
0100
0000
0000
0001
0000
0000
1000
0000
0000
0100
0000
0000
,
1000
0001
0010
0100
1000
0020
0001
1030
,
0010
0100
0001
0000
0010
0M00
0010
0000
1000
0000
0100
0000
0001
0000
0100
0000
,
1000
0001
1000
0000
0100
1000
0001
0100
0001
0000
0100
0000
1000
0000
0100
0000
,
0010
0000
1000
0100
1000
0001
0100
0000
0010
0000
1000
0000
0100
0000
0000
0000
,
1001
0000
0000
0000
,
4000
0000
0040
0000
0000
0000
0000
0000
0000
0000
0000
0000
0000
0000
0000
0000
3000
0000
0130
0000
0000
0000
0000
0000
0002
0000
0000
0000
0000
0000
0000
0000
0000
0013
0000
0000
0100
0000
0000
0000
0000
0000
1000
0000
0000
0000
0000
0000
,
0001
0000
0100
0000
1000
0000
0100
0000
0001
0000
0010
0100
1000
0000
0001
0000
,
0100
00M0
0100
0000
2000
0000
0000
0000
3001
0000
0100
0010
0200
0000
0000
0300
,
0101
0000
0000
1001
0000
0000
0011
0000
1000
0000
0200
0000
0001
0000
1300
0000
,
0004
0040
0000
0000
0000
0000
0000
0000
0003
0130
0000
0000
2000
0000
0000
0000
0000
0000
3002
0000
0000
0000
0000
0000
,
1003
0000
0010
0000
0001
0000
0010
0000
1000
0000
0001
0010
0100
0000
1000
0000
,
0010
0M00
0010
0000
0002
0000
0000
0000
1003
0000
0010
0100
0020
0000
0000
0030
,
1010
0000
0000
1001
0000
0000
1100
0000
0001
0000
0200
0000
1000
0000
0301
0000
,
4000
0000
0004
0000
0000
0000
0000
0000
0000
0000
0000
0000
0000
0000
0000
0000
3000
0000
0013
0000
0000
0000
0000
0000
0100
0000
0000
0000
0000
0000
1000
0000
0000
0001
0000
0000
0100
0000
0000
0010
0000
0000
1000
0000
0000
0000
0000
0000
,
0001
0000
0010
0100
0010
0001
0100
0000
0010
0000
1000
0001
0010
0000
0100
0000
,
1000
0000
0010
0100
0010
1000
0001
0000
0010
0000
0100
1000
0020
0000
0000
0000
,
0000
0000
0000
0000
0000
0000
0000
0000
0000
0000
1030
0001
2000
0000
3001
0000
;
