#VERSION:0.83;
#TITLE:Surveiller et punir;
#SUBTITLE:;
#ARTIST:cybermiso;
#TITLETRANSLIT:;
#SUBTITLETRANSLIT:;
#ARTISTTRANSLIT:;
#GENRE:;
#ORIGIN:;
#CREDIT:;
#BANNER:Surveiller et punir-bn.png;
#BACKGROUND:Surveiller et punir-bg.png;
#PREVIEWVID:;
#JACKET:Surveiller et punir-jk.png;
#CDIMAGE:;
#DISCIMAGE:;
#LYRICSPATH:;
#CDTITLE:;
#MUSIC:Surveiller et punir.ogg;
#OFFSET:0.000000;
#SAMPLESTART:11.569946;
#SAMPLELENGTH:16.551701;
#SELECTABLE:YES;
#BPMS:0.000=145.000;
#STOPS:;
#DELAYS:;
#WARPS:;
#TIMESIGNATURES:0.000=4=4;
#TICKCOUNTS:0.000=4;
#COMBOS:0.000=1;
#SPEEDS:0.000=1.000=0.000=0;
#SCROLLS:0.000=1.000;
#FAKES:;
#LABELS:0.000=Song Start;
#BGCHANGES:;
#KEYSOUNDS:;
#ATTACKS:
;

//---------------dance-single - ----------------
#NOTEDATA:;
#CHARTNAME:;
#STEPSTYPE:dance-single;
#DESCRIPTION:;
#CHARTSTYLE:;
#DIFFICULTY:Hard;
#METER:17;
#RADARVALUES:0.857159,1.073557,0.215430,0.398944,1.093105,752.000000,725.000000,27.000000,50.000000,8.000000,0.000000,0.000000,0.000000,0.000000,0.857159,1.073557,0.215430,0.398944,1.093105,752.000000,725.000000,27.000000,50.000000,8.000000,0.000000,0.000000,0.000000,0.000000;
#CREDIT:Embrace;
#NOTES:
// measure 0
0000
0000
0000
0000
,  // measure 1
0000
0000
0000
0000
,  // measure 2
0000
0000
0000
0000
,  // measure 3
0001
0001
1000
0001
0010
0100
0010
0001
,  // measure 4
1000
0000
0000
0010
0000
0000
1000
0000
0000
0010
0000
0000
0100
0000
0000
0001
0000
0000
0100
0000
0000
0001
0000
0000
1000
0000
0001
0000
1000
0000
0001
0000
0000
0100
0000
0000
0010
0000
0000
1000
0000
0000
0001
0000
0000
0000
0000
0000
,  // measure 5
0010
1000
0010
0001
0000
0000
0010
1000
0010
0001
0000
0000
0000
0000
0000
0000
,  // measure 6
1010
0000
0000
0110
0000
0000
0110
0000
0002
0000
0000
0000
0020
0000
0000
0033
,  // measure 7
0100
1000
0000
0010
1000
0000
0002
0000
0013
0000
0100
0000
0100
0000
0100
0000
,  // measure 8
1000
0000
0000
0000
0010
0000
1000
0010
1000
0000
0000
0000
0001
0000
0001
0000
,  // measure 9
0100
0000
0010
0000
1000
0000
1000
0100
1000
0000
0100
0000
0020
0000
0001
0000
,  // measure 10
0031
0000
1000
0000
0010
0000
0100
0010
2000
0000
0001
0000
0000
0100
0000
0000
,  // measure 11
3010
0000
0010
0000
0010
0100
0010
1000
0001
1000
0100
0000
0100
0000
0100
0000
,  // measure 12
0010
0000
0000
0000
0000
0000
0010
0000
0000
0000
0000
0000
0010
0000
0000
0001
0000
0000
0100
0000
0000
0001
0000
0000
1000
0000
0010
0000
1000
0000
0020
0000
0000
0000
0000
0000
0100
0000
0000
0000
0000
0000
0100
0000
0000
0000
0000
0000
,  // measure 13
0130
0001
1000
0100
1000
0001
0100
0010
0100
0001
0010
0100
0010
0001
1000
0010
,  // measure 14
0100
1000
0100
0001
0100
0000
1010
0000
0011
0000
0000
MMMM
0000
0000
0001
0010
,  // measure 15
1000
0000
0010
0001
0002
0100
1000
0100
,  // measure 16
1003
0000
1000
0010
0100
0000
0100
0001
0020
0000
0000
0000
0130
0000
0000
0000
,  // measure 17
2000
0000
0000
0010
0000
0000
3100
0000
0020
0000
0100
0000
0032
0000
0000
0000
,  // measure 18
1003
0000
0010
1000
0001
0000
0001
0000
0200
0000
0000
0000
0310
0000
0000
0000
,  // measure 19
2000
0000
3010
0001
0000
0001
0010
1000
,  // measure 20
0100
0000
0010
0100
0010
0000
0001
0000
0010
0001
1000
0000
0010
0100
0001
0000
,  // measure 21
2000
0000
0000
3001
0200
0000
0000
0000
0310
1000
0000
1000
0001
0000
0001
0000
,  // measure 22
0010
0000
0000
0001
0000
0000
0100
0000
0000
0000
0000
0000
0010
0000
0000
1000
0000
0000
0100
0000
0000
0000
0000
0000
1000
0000
0001
0000
1000
0000
0001
0000
1000
0000
0001
0000
1000
0000
0000
0000
0000
0000
0001
0000
0000
0000
0000
0000
,  // measure 23
0010
0000
0000
0000
0001
1000
0100
0000
0011
0000
0010
0100
1000
0000
0010
0000
,  // measure 24
1010
0000
0001
0000
1000
0100
0001
0000
0101
0000
0100
1000
0000
1000
0001
0000
,  // measure 25
0010
0000
0000
0000
0001
0100
0010
0000
0101
0000
1000
0010
0001
0000
0010
1000
,  // measure 26
0000
0000
1000
0000
0010
1000
0100
0000
0110
0000
0001
0100
0000
0000
0110
0000
,  // measure 27
1001
0000
0000
0000
0100
0001
0010
0000
1001
0000
0100
1000
0000
1000
0010
0000
,  // measure 28
0101
0000
1000
0000
0010
0100
0001
0000
0010
0000
0100
0001
0100
0000
1000
0000
,  // measure 29
1010
0000
0001
0000
0010
0001
0000
0001
0100
0000
0100
0010
1000
0000
1000
0100
,  // measure 30
0000
0000
0100
0000
0100
1000
0010
0100
0000
0100
0001
1000
0000
1000
0001
0000
,  // measure 31
2100
0000
0000
0000
0000
0000
0000
0000
3010
0100
0010
1000
0020
0000
0000
0000
,  // measure 32
0130
0001
0100
0001
0020
0000
0100
0000
0130
0010
0001
1000
0001
0000
0010
0100
,  // measure 33
1000
0001
1000
0001
0100
0000
0001
1000
0010
0000
0000
0000
1001
0000
0000
0000
,  // measure 34
0001
0010
0001
0010
0100
0000
0010
0001
1000
0100
0000
1000
0010
0000
0100
0000
,  // measure 35
1000
0000
0100
0000
0001
1000
0100
0000
0010
0000
0100
0010
1000
0000
0010
0001
,  // measure 36
1000
0000
0100
0000
1000
0010
0100
0000
1000
0000
0100
0001
0000
0000
0101
0000
,  // measure 37
1001
0000
0000
0000
1000
0000
0000
0000
0001
0000
1000
0000
0100
0000
0000
0000
0010
0001
0010
0000
0100
0000
1000
0000
0010
1000
0010
0000
0100
0000
0001
0000
,  // measure 38
0020
0000
0000
0000
0000
0000
0030
0001
,  // measure 39
2000
0000
0000
3010
0200
0000
0000
0301
,  // measure 40
2000
0000
0000
3100
0020
0000
0031
1000
,  // measure 41
0001
0100
0000
0010
0000
0100
0000
0001
1000
0100
0000
1000
0000
0100
0000
0010
,  // measure 42
0001
1000
0100
0000
0010
0000
0100
0000
2000
0000
0000
0000
3010
0000
1000
0000
,  // measure 43
0200
0000
0310
0001
2000
0000
3010
0100
,  // measure 44
2000
0000
0000
0000
3100
0000
0001
0000
2000
0000
0000
0000
3001
1000
0100
0000
,  // measure 45
0010
0000
0001
0000
0010
0000
0001
0000
0100
0000
0010
1000
0000
0001
0200
0000
,  // measure 46
0020
0000
0000
0330
0010
1000
0100
0000
0100
1000
0000
1000
0001
0000
0000
0000
,  // measure 47
1000
0100
0001
0100
0010
1000
0010
0001
0100
0000
0000
0110
0000
0000
0001
1000
,  // measure 48
0100
2000
0000
3001
0000
0000
1000
0010
0000
0010
1000
0000
0100
0000
0010
0000
,  // measure 49
0001
0100
1000
0100
0010
1000
0100
0001
0200
0000
0000
1300
0000
0000
1000
0000
,  // measure 50
0002
0000
0000
0100
0000
0000
0013
0000
0200
0000
0000
0001
0000
0000
1300
0000
,  // measure 51
1001
0000
0001
0100
0010
0000
0200
0000
1000
0000
0000
0000
0301
0000
0000
0000
,  // measure 52
0020
0000
0000
0130
2000
0000
3000
0000
0010
1000
0000
1000
0001
0000
0001
0000
,  // measure 53
1000
0000
0100
0010
0002
0000
2003
0000
3200
0000
0310
0002
0100
0000
0103
0000
,  // measure 54
0001
0000
0000
0000
0000
0000
0000
0000
0000
0000
0000
0000
0010
0000
0000
0000
0000
0000
0000
0000
0000
0000
0000
0000
0000
0000
0000
0000
0100
0000
0000
0000
0000
0000
0000
0000
0000
0000
0000
0000
0000
0000
1000
0000
0000
0000
0000
0000
0001
0000
0000
0000
0000
0000
0000
0000
0000
0000
0000
0000
0010
0000
0000
0000
0000
0000
0000
0000
0000
0000
0000
0000
0100
0000
0000
0000
0000
0000
0000
0000
0000
0000
0000
0000
0000
0000
0000
0000
0000
0000
0000
0000
0000
0000
0000
0000
2000
0000
0000
0000
0000
0000
0000
0000
0000
0000
0000
0000
0000
0000
0000
0000
0000
0000
0000
0000
0000
0000
0000
0000
0000
0000
0000
0000
0000
0000
0000
0000
0000
0000
0000
0000
0000
0000
0000
0000
0000
0000
0000
0000
0000
0000
0000
0000
0020
0000
0000
0000
0000
0000
0000
0000
0000
0000
0000
0000
0000
0000
0000
0000
0000
0000
0000
0000
0000
0000
0000
0000
3030
0000
0000
0000
0000
0000
0000
0000
0000
0000
0000
0000
0000
0000
0000
0000
0000
0000
0000
0000
0000
0000
0000
0000
,  // measure 55
1000
0001
0100
0001
0010
0100
1000
0001
0100
0010
0001
0010
1000
0001
1000
0010
,  // measure 56
0100
0001
1000
0100
0010
1000
0010
0001
0000
0001
0010
0001
0200
0000
0310
1000
,  // measure 57
0001
0010
0001
0000
1000
0010
1000
0000
0001
0010
0001
0000
1000
0010
0100
0001
,  // measure 58
1000
0001
0100
0001
0010
0000
0100
0000
,  // measure 59
0010
0001
0100
0001
1000
0100
0010
0001
1000
0100
1000
0001
0100
0001
1000
0010
,  // measure 60
0001
0010
1000
0001
0010
0100
0010
1000
0000
1000
0010
0001
1000
0000
0001
0000
,  // measure 61
1000
0010
0100
0001
0100
0010
1000
0000
0001
0010
0100
1000
0100
1000
0001
0100
,  // measure 62
0010
1000
0001
0010
0000
0010
0001
1000
0010
1000
0100
0010
0001
0100
0010
0100
,  // measure 63
0001
0000
1000
0000
0001
0000
1000
0000
0001
0000
1000
0000
0001
0000
0000
0010
0000
0000
0100
0000
0000
0000
0000
0000
1000
0000
0100
0000
1000
0000
0100
0000
1000
0000
0100
0000
1000
0000
0000
0001
0000
0000
0100
0000
0000
0000
0000
0000
,  // measure 64
0010
0000
1000
0000
0010
0000
1000
0000
0000
0001
0000
0000
1000
0000
0000
0100
0000
0000
0010
0000
0000
0000
0000
0000
0000
0000
0000
0110
0000
0000
0000
0000
0000
0100
0000
0000
1100
0000
0000
0000
0000
0000
0011
0000
0000
0000
0000
0000
,  // measure 65
MMMM
0000
1000
0000
2001
0000
3010
0000
0000
0000
0100
0000
2001
0000
3100
0010
,  // measure 66
0001
0000
0000
0000
0000
0000
1000
0000
0000
0100
0000
0000
0010
0000
0000
0000
0000
0000
0100
0000
1000
0000
0001
0000
0020
0000
0000
0000
0000
0000
0100
0000
0000
0000
0000
0000
0031
0000
0000
0000
0000
0000
1000
0000
0000
0000
0000
0000
,  // measure 67
0010
0000
0000
1000
0000
0000
0001
0000
0000
0100
0000
0000
0020
0000
0000
0000
0000
0000
1030
0000
0000
0000
0000
0000
0100
0000
0000
1000
0000
0000
0100
0000
1000
0000
0100
0000
1000
0000
0000
0000
0000
0000
0010
0000
0000
0000
0000
0000
,  // measure 68
0100
0000
0000
0001
0000
0000
1000
0000
0001
0000
1000
0000
0001
0000
0000
0000
0000
0000
0100
0000
0001
0000
0100
0000
0000
0000
0000
0010
0000
0000
0000
0000
0000
0000
0000
0000
1001
0000
0000
0000
0000
0000
0001
0000
0000
0000
0000
0000
,  // measure 69
0010
0001
0100
0001
1000
0100
0001
0100
1000
0010
0100
0001
0100
1000
0100
0001
,  // measure 70
1000
0000
0000
0010
0000
0000
1000
0000
0000
0010
0000
0000
1000
0000
0000
0100
0000
0000
1000
0000
0000
0100
0000
0000
0010
0000
0001
0000
0010
0000
0001
0000
0010
0000
0001
0000
2000
0000
0000
0000
0000
0000
3001
0000
0000
0000
0000
0000
,  // measure 71
0100
0001
0100
0001
0000
0000
1000
0000
0000
0000
1000
0000
0000
0000
1000
0000
0010
1000
0010
0000
0000
0000
1000
0000
0000
0000
1000
0000
0000
0000
1000
0000
,  // measure 72
0100
1000
0100
1000
0000
0000
0001
0000
0000
0000
0001
0000
0000
0000
0001
0000
0010
0100
0010
0000
0000
0000
0010
0000
0000
0000
0001
0000
0000
0000
0000
0000
,  // measure 73
1000
0000
0010
0000
0001
0000
0010
0000
1000
0000
0010
0000
0001
0000
0010
0000
1000
0000
0100
0000
1000
0000
0010
0000
0100
0001
0100
0000
0001
0010
0001
0000
,  // measure 74
2000
0000
0000
3000
;

//---------------dance-single - ----------------
#NOTEDATA:;
#CHARTNAME:;
#STEPSTYPE:dance-single;
#DESCRIPTION:;
#CHARTSTYLE:;
#DIFFICULTY:Medium;
#METER:14;
#RADARVALUES:0.672505,0.775347,0.215430,0.335113,0.502669,590.000000,563.000000,27.000000,42.000000,0.000000,0.000000,0.000000,0.000000,0.000000,0.672505,0.775347,0.215430,0.335113,0.502669,590.000000,563.000000,27.000000,42.000000,0.000000,0.000000,0.000000,0.000000,0.000000;
#CREDIT:Embrace;
#NOTES:
0000
0000
0000
0000
,
0000
0000
0000
0000
,
0000
0000
0000
0000
,
2000
3001
0020
0031
,
0100
0001
0100
0001
1000
1000
0010
0100
,
0001
1000
0001
1000
0000
0000
1000
0001
1000
0001
0000
0000
0000
0000
0000
0000
,
0101
0000
0000
1001
0000
0000
0011
0000
2000
0000
0000
0000
3100
0000
0000
0000
,
0010
0001
0000
0001
0010
0000
0000
0000
0100
0000
1000
0000
0010
0000
0100
0000
,
0001
0000
0000
0000
0001
0000
1000
0010
1000
0000
0000
0000
0001
0000
0000
0000
,
0010
0000
0010
0000
0001
0000
0100
0010
0100
0000
0010
0000
1000
0000
0001
0000
,
0100
0010
1000
0001
0010
0200
1000
1300
,
1001
0000
0001
0000
0100
0000
0100
0000
0010
1000
0001
0000
0010
0000
0010
0000
,
0100
0000
0100
0000
1000
0000
1000
0000
0100
1000
0010
0000
0100
0000
0100
0000
,
0010
1000
0100
0001
0100
1000
0010
0100
,
0001
1000
0001
1000
0001
0000
0100
0000
0110
0000
0000
1001
0000
0000
0100
1000
,
0001
0000
0010
0001
1000
0100
1000
0010
,
0100
0000
0001
1000
0001
0000
0010
0100
2000
0000
0000
0000
3010
0000
0000
0000
,
0200
0000
0000
0010
0000
0000
0301
0000
0002
0000
1000
0000
0013
0000
0000
0000
,
0100
0000
1000
0001
1000
0000
0001
0000
0200
0000
0000
0000
0310
0000
0000
0000
,
1001
0000
1000
0100
0000
0100
0010
0001
,
0100
0000
0010
1000
0001
0000
0010
0000
0100
0000
0000
0000
0010
0000
0001
0000
,
0100
0000
0000
0000
1001
0000
0000
0000
1000
0010
0000
0010
1000
0000
0001
0000
,
0010
0001
0010
0000
0100
1000
0100
0000
0010
0001
0010
0001
0100
0000
0000
0000
,
1001
0000
0000
0000
1000
0010
0100
0000
0010
0000
0100
0010
1000
0000
0001
0000
,
0010
0000
0100
0000
1000
0001
0010
0000
0100
0000
0000
0110
0000
0000
0011
0000
,
1000
0000
0000
0000
0001
0100
0010
0000
1000
0000
0010
0100
0001
0000
0100
0010
,
0000
0000
1000
0000
0001
0010
0100
0000
0010
0000
0000
1001
0000
0000
1010
0000
,
0001
0000
0000
0000
0010
0001
1000
0000
0010
0000
1000
0100
0000
0010
0001
0000
,
0100
0000
0001
0000
0010
0100
1000
0000
0001
0000
0000
0011
0000
0000
0101
0000
,
1000
0000
0001
0000
1000
0010
0000
0100
0010
0000
0100
0010
1000
0000
0001
0010
,
0000
0000
0100
0000
0010
0001
0100
0010
0000
0000
0010
1000
0000
1000
0010
0000
,
0200
0000
0000
0000
0000
0000
0000
0300
0001
0000
0001
0000
1000
0000
0100
0000
,
0010
0000
0010
0000
0020
0000
0030
0000
0001
0000
0010
0001
1000
0000
0010
1000
,
0001
0010
0001
0000
0100
0000
0010
0000
,
1000
0000
1000
0000
0001
0000
0001
0000
0100
0000
0010
1000
0100
0000
0000
0000
,
1000
0000
0001
0000
0100
0010
0100
0000
0001
0000
1000
0100
0010
0000
0100
1000
,
0001
0000
0100
0000
0001
0010
0001
0000
1100
0000
0000
1001
0000
0000
0101
0000
,
1000
0000
0100
0000
0010
0001
1000
0000
0010
0000
0100
0010
1000
0000
0001
0010
,
0200
0000
0000
0000
0000
0000
0300
1000
,
0002
0000
0000
0103
0020
0000
0000
1030
,
0200
0000
0000
0310
0001
0000
1000
1000
,
0002
0010
2003
0010
,
3001
0010
0100
0001
1000
0000
0010
0000
,
0002
0000
0100
1003
0002
0000
0100
1003
,
2000
0000
0000
0000
0100
0000
3001
0000
2000
0000
0000
0000
3010
0100
0010
0000
,
1000
1000
0001
0001
1000
1000
0001
0001
,
0020
0000
0000
0000
0130
0000
2000
0000
3010
0100
0000
0000
1001
0000
0000
0000
,
1000
0001
1000
0001
1000
0001
1000
0001
0010
0000
0000
0010
0000
0000
0001
1000
,
0200
0000
0000
0310
0000
0000
0010
0100
0000
0100
1000
0000
0001
0000
0000
0000
,
1000
0010
1000
0010
1000
0010
1000
0010
0200
0000
0000
0301
0000
0000
0001
0000
,
0020
0000
0000
0230
0000
0000
0320
0000
2030
0000
3000
0020
0000
0000
0032
0000
,
1003
0010
0100
0000
0002
0000
1003
0000
,
0200
0000
0000
0000
0310
0000
0000
0000
0001
1000
0000
1000
0001
0000
1000
0000
,
0100
0010
0001
0100
1000
0100
0001
1000
,
0020
0000
0130
0010
0001
0010
1000
0000
,
0001
0010
0100
0100
0010
0002
1003
0010
,
0100
0000
0001
0000
1000
0000
1000
0000
0000
0001
0010
0001
0010
0000
0100
1000
,
0002
0010
1003
0100
2000
0010
3001
0100
,
0010
0000
1000
0001
0010
0000
0100
0000
,
1000
0010
0100
0100
0001
0100
1000
1000
,
0200
0000
0301
0000
0020
0000
0031
0000
0000
0001
0100
0001
0010
0000
0100
0000
,
1000
0000
0010
0000
0100
0010
1000
0000
0100
0000
0010
0000
0001
0100
0010
0000
,
1000
0000
0001
1000
0000
1000
0100
0000
0010
0000
0001
0000
0100
0000
0010
0000
,
1000
0100
1000
0100
1000
0000
0010
0000
0100
0001
0100
0001
0100
0000
0010
0000
,
1000
0001
1000
0001
0010
0000
0001
0000
0000
1010
0000
0001
0010
0000
0100
0000
,
0000
1000
0011
0001
0000
1000
0101
0001
,
1000
0000
0010
1000
0100
0000
0010
0001
0100
0000
0010
0000
0100
0000
0000
0000
,
1000
0000
0100
0000
0001
0000
0010
0000
0100
0000
0010
0001
1000
0000
0100
0000
,
0001
0000
0100
1000
0001
0000
1000
0010
0000
0000
0000
0000
0110
0000
0100
0000
,
0001
0100
0001
0000
1000
0100
1000
0000
0001
0010
0001
0000
1000
0010
1000
0000
,
1001
0001
1001
1000
0200
0000
0020
0330
,
0001
1000
0000
0001
0000
1000
0000
0001
0100
0010
0000
0100
0000
0010
0000
0100
,
0001
0010
0000
0001
0000
0010
0000
0001
1000
0010
0000
1000
0000
0010
0000
0000
,
0100
0001
0100
0001
0100
0001
0100
0001
1000
0001
1000
0001
1000
0000
0110
0000
,
2002
0000
0000
3003
;

//---------------dance-single - ----------------
#NOTEDATA:;
#CHARTNAME:;
#STEPSTYPE:dance-single;
#DESCRIPTION:;
#CHARTSTYLE:;
#DIFFICULTY:Easy;
#METER:10;
#RADARVALUES:0.462775,0.506958,0.151599,0.255324,0.107715,406.000000,387.000000,19.000000,32.000000,0.000000,0.000000,0.000000,0.000000,0.000000,0.462775,0.506958,0.151599,0.255324,0.107715,406.000000,387.000000,19.000000,32.000000,0.000000,0.000000,0.000000,0.000000,0.000000;
#CREDIT:Embrace;
#NOTES:
0000
0000
0000
0000
,
0000
0000
0000
0000
,
0000
0000
0000
0000
,
1001
0000
0110
0000
,
1000
0001
0010
0000
0001
1000
0010
0000
,
0100
0100
0000
0100
0100
0000
0000
0000
,
0010
0000
0000
0010
0000
0000
0010
0000
2000
0000
0000
0000
3001
0000
0000
0000
,
0010
0001
0010
0000
0001
0000
1000
0000
,
0010
0000
0100
0010
0100
0000
0001
0000
,
1000
0000
0100
0010
0001
0000
2000
0000
,
3010
0000
1000
0100
0010
0000
0001
0000
,
0010
0001
0010
0000
0100
1000
0100
0000
,
1000
0010
1000
0000
0001
0100
0001
0000
,
1002
0100
1000
0013
,
0001
0000
0010
0000
0001
0000
1000
0000
0001
0000
0000
0001
0000
0000
0000
0000
,
1001
0000
1000
0010
1000
0000
0001
0100
,
0001
0000
1000
0100
0020
0000
0031
0000
,
2000
0000
3000
1000
0001
0100
0001
0000
,
1000
0000
0010
0100
0020
0000
1030
0000
,
0100
0000
0010
0000
0000
0001
1000
0000
,
0100
0000
0010
0100
1000
0000
0010
0000
,
0000
0000
0000
0000
0110
0000
0000
0000
0001
0000
0000
0001
1000
0000
0000
0000
,
0010
1000
0001
0100
0001
0010
0100
0000
,
1001
0000
1000
0100
0010
0000
0001
0100
,
0010
0000
1000
0000
0001
0000
0000
0000
0100
0000
0000
0100
0000
0000
0001
0000
,
1000
0000
0100
1000
0010
0000
0100
0001
,
0000
0000
0001
0000
0010
0000
0000
0000
0100
0000
0000
0100
0000
0000
0010
0000
,
1001
0000
0000
0000
0101
0000
0000
0000
1000
0000
0000
0010
0000
0000
0100
0000
,
1000
0000
0100
0000
0001
0000
1000
0000
0010
0000
0000
0010
0000
0000
1000
0000
,
0200
0000
0310
0000
0001
0100
0001
0010
,
0000
0010
0100
1000
0000
1000
0000
0010
,
0200
0000
0000
0000
0000
0000
0000
0300
0001
0000
0001
0000
1000
0000
0000
0000
,
0100
1000
0010
0000
0100
0010
0110
0000
,
1000
0001
0001
0000
1000
0000
1000
0000
,
0001
0010
0100
0000
0010
0001
0001
0000
,
1010
1000
0001
0010
0001
1000
0010
1000
,
0000
0000
0001
0000
0100
0000
0001
0000
1000
0000
0000
0100
0000
0000
0100
0000
,
0010
0001
0100
0001
0010
0001
1000
0100
,
0020
0000
0000
0030
,
0002
0003
2000
3000
,
0020
0030
0200
0300
,
0001
0001
1000
1000
,
0100
0010
0001
1000
0200
0000
2300
0000
,
3010
0100
0001
0100
,
0010
0000
1000
0000
0100
0000
0010
0002
,
0000
0000
1003
0200
0000
0000
1300
0020
,
0000
0000
0030
0000
0110
0000
0000
0000
1000
0001
0000
0000
1001
0000
0000
0000
,
1000
0000
0100
0000
1000
0000
0100
0000
0010
0000
0000
0010
0000
0000
0001
0000
,
2000
0000
3010
0000
0100
0001
1000
0000
,
0010
0000
1000
0000
0010
0000
1000
0000
0001
0000
0000
0010
0000
0000
0010
0000
,
0100
0000
0000
0100
0000
0000
0100
0000
1000
0000
0000
1000
0000
0000
1000
0000
,
1002
0103
2000
3100
,
0002
0000
0000
0000
0013
0000
0000
0000
0100
0010
0000
0100
0010
0000
0000
0000
,
0001
0010
1000
0010
0001
0100
1000
0100
,
0002
0000
1003
1000
0100
0010
0001
0000
,
1000
0010
1000
0000
0001
0010
0100
0000
,
0010
0001
0010
0001
0000
1000
1001
0000
,
0001
0100
0010
0000
1000
0010
0100
0001
,
1000
0100
0010
0001
,
1000
0010
0001
0000
0010
0100
0001
1000
,
0010
0000
1000
0000
0100
0000
0000
0000
0000
0010
0000
0001
0010
0000
0000
0000
,
0100
1000
0100
0000
0010
0001
0010
0000
,
0001
0100
0001
1000
0010
1000
0010
0000
,
0200
0000
0301
0010
0200
0000
1300
0010
,
0200
0000
0000
0000
0310
0000
0100
0000
0000
0001
0000
1000
0001
0000
1000
0000
,
0000
0110
0000
1001
,
1000
0010
0100
0001
0010
0000
0100
0000
,
0002
0000
0103
1000
0020
0000
0031
0010
,
1000
0002
1003
0002
0003
0000
1010
1000
,
0001
0010
0100
1000
0001
0010
0100
1000
,
0001
0000
1001
0000
0001
0100
1000
0100
,
0001
0000
0000
0001
0000
0001
0000
0000
1000
0000
0000
1000
0000
1000
0000
0000
,
0100
0000
0000
0100
0000
0100
0000
0000
0010
0000
0000
0010
0000
0010
0000
0000
,
0001
0100
0010
0001
0010
1000
0001
0010
,
2002
0000
0000
3003
;

//---------------dance-single - ----------------
#NOTEDATA:;
#CHARTNAME:;
#STEPSTYPE:dance-single;
#DESCRIPTION:;
#CHARTSTYLE:;
#DIFFICULTY:Beginner;
#METER:3;
#RADARVALUES:0.197192,0.354262,0.191493,0.199472,0.000000,173.000000,149.000000,24.000000,25.000000,0.000000,0.000000,0.000000,0.000000,0.000000,0.197192,0.354262,0.191493,0.199472,0.000000,173.000000,149.000000,24.000000,25.000000,0.000000,0.000000,0.000000,0.000000,0.000000;
#CREDIT:Embrace;
#NOTES:
0000
0000
0000
0000
,
0000
0000
0000
0000
,
0000
0000
0000
0000
,
0000
0000
0000
0000
,
1000
1000
1000
1000
,
1000
0000
0000
0000
,
0001
0000
0100
0000
,
0010
0000
0010
0000
,
0100
0100
0100
0000
,
0001
0001
0001
0000
,
1000
1000
1000
0000
,
1001
0000
0010
0000
,
1000
0000
0100
0000
,
0001
0000
0010
0000
,
0100
0000
0100
0000
,
1001
0000
0001
0000
,
0100
0100
0100
0000
,
0010
0000
1000
0000
,
0100
0100
0100
0000
,
0020
0000
0030
0000
,
0200
0000
0300
0000
,
0000
1001
0000
1001
,
1001
0000
0220
0330
,
0000
1001
0000
1000
,
0000
0010
0010
0010
,
0000
0100
0000
0001
,
0000
0010
0010
0010
,
0000
0110
0000
0100
,
0000
1000
1000
1000
,
0000
1001
0000
0001
,
0000
1000
0000
0110
,
0110
0000
0001
0000
,
0010
0000
1000
1000
,
1000
0000
0010
0000
,
0001
0000
0100
0100
,
0100
0000
1000
0000
,
0010
0000
0001
0000
,
1000
1000
1000
0000
,
2002
0000
3003
0000
,
0002
0000
0003
0000
,
0200
0000
0300
0000
,
0010
0000
0010
0000
,
1000
0000
0001
0000
,
2000
0000
3000
0000
,
0200
0000
0300
0000
,
0010
0000
0001
0000
,
0000
1000
0000
1000
,
2000
0000
3000
0000
,
0010
0000
0100
0000
,
0002
0000
0003
0000
,
1000
0000
0100
0000
,
0020
0030
0020
0030
,
0010
0000
0000
0001
,
2002
0000
0000
3003
,
2002
3003
1001
1001
,
1001
0000
0010
0000
,
0100
0000
1000
0000
,
0010
0010
0010
0000
,
0001
0001
0001
0000
,
0100
0000
0010
0000
,
1000
1000
0000
0001
,
0001
0000
0010
0000
,
1000
0000
0100
0000
,
0002
0003
0002
0003
,
0002
0003
0000
1000
,
1000
0000
0010
0000
,
0100
0000
1000
0000
,
0020
0030
0020
0030
,
0020
0030
0000
0000
,
1000
1000
1000
0000
,
1001
1001
1001
0000
,
0110
0000
1001
0000
,
0110
0000
1001
0000
,
0001
0001
0001
0002
,
0003
0000
0000
0000
;
