#TITLE:Super Freak;
#ARTIST:Hommarju;
#BANNER:Super Freak.png;
#CDTITLE:./CDTITLES/BEATMANIA IIDX.PNG;
#MUSIC:Super Freak.ogg;
#SAMPLESTART:103.2;
#SAMPLELENGTH:15;
#BPMS:0=200;

//---------------dance-single - t7r----------------
#NOTES:
     dance-single:
     t7r:
     Beginner:
     5:
     :
0000
0000
0000
0000
,
0000
0000
0000
0000
,
0000
0000
0000
0000
,
0000
0000
0000
0000
,
0000
0000
0000
0000
,
0000
0000
0000
0000
,
1000
0000
0000
0000
,
0000
0000
0000
0000
,
0001
0000
0000
0000
,
0000
0000
0000
0000
,
0100
0000
0000
0000
,
0000
0000
0000
0000
,
0010
0000
0000
0000
,
0000
0000
0000
0000
,
1000
0000
0000
0000
,
0100
0000
0000
0000
,
0001
0000
0000
0000
,
0010
0000
0000
0000
,
1000
0000
0000
0000
,
0010
0000
0000
0000
,
0001
0000
0000
0000
,
0100
0000
0000
0000
,
0000
0000
1000
0000
,
0000
0000
1000
0000
,
1000
0000
0000
0000
,
0001
0000
0000
0000
,
0000
0000
0100
0000
,
0000
0000
0100
0000
,
0100
0000
0000
0000
,
0010
0000
0000
0000
,
0000
0000
1000
0000
,
1000
0000
1000
0000
,
0000
0000
0001
0000
,
0001
0000
0001
0000
,
0010
0000
0000
0000
,
0010
0000
0000
0000
,
0100
0000
0100
0000
,
0100
0000
0000
0000
,
1000
0000
0000
0000
,
0010
0000
0000
0000
,
0001
0000
0000
0000
,
0100
0000
0000
0000
,
1000
0000
0000
0000
,
0100
0000
0000
0000
,
0001
0000
0000
0000
,
0010
0000
0000
0000
,
1000
1000
1000
1000
,
1000
1000
1000
1000
,
1000
1000
1000
1000
,
1000
1000
1000
0000
,
0001
0001
0001
0001
,
0001
0001
0001
0001
,
0001
0001
0001
0001
,
0001
0001
0001
0000
,
1000
0000
0000
0000
,
0100
0000
0000
0000
,
0010
0000
0000
0000
,
0001
0000
0000
0000
,
0100
0000
0100
0000
,
0100
0000
0000
0000
,
0010
0000
0000
0000
,
0000
0000
0000
0000
,
1000
0000
0000
0000
,
0000
0000
0000
0000
,
0001
0000
0000
0000
,
0000
0000
0000
0000
,
0010
0000
0000
0000
,
0000
0000
0000
0000
,
0100
0000
0000
0000
,
0000
0000
0000
0000
,
1000
0000
0000
0000
,
0010
0000
0000
0000
,
0100
0000
0100
0000
,
0100
0000
0000
0000
,
0001
0000
0000
0000
,
0010
0000
0010
0000
,
0010
0000
0000
0000
,
0000
0000
0000
0000
,
0100
0000
0000
0000
,
0000
0000
0000
0000
,
1000
0000
0000
0000
,
0000
0000
0000
0000
,
0001
0000
0000
0000
,
0001
0000
0000
0000
,
1000
0000
1000
0000
,
1000
0000
0000
0000
,
0010
0000
0010
0000
,
0010
0010
0010
0000
,
0100
0000
0100
0000
,
0100
0100
0100
0000
,
0001
0000
0001
0000
,
0001
0001
0001
0000
,
1000
0000
1000
0000
,
1000
1000
1000
0000
,
0010
0000
0010
0010
,
0010
0000
0010
0000
,
1000
0000
1000
1000
,
1000
0000
1000
0000
,
0001
0000
0001
0001
,
0001
0000
0001
0000
,
0010
0000
0000
0000
,
0100
0000
0100
0000
,
0110
0000
0000
0000
;

//---------------dance-single - t7r----------------
#NOTES:
     dance-single:
     t7r:
     Easy:
     11:
     :
0000
0000
0000
0000
,
0000
0000
0000
0000
,
0000
0000
0000
0000
,
0000
0000
0000
0000
,
0000
0000
0000
0000
,
0000
0000
0000
0000
,
0001
0000
0001
0000
0001
0000
0010
0001
,
0000
0001
0000
1000
0010
0000
0010
0000
,
1000
0000
1000
0000
1000
0000
0010
1000
,
0000
1000
0000
0001
0010
0000
0001
0000
,
1000
0000
1000
0000
1000
0000
0010
0100
,
0000
0100
0000
0001
0010
0000
0010
0000
,
0001
0000
0001
0000
0001
0000
0100
0010
,
0000
0010
0000
1000
0001
0000
0010
0000
,
0001
0000
0000
0101
0000
0000
1001
0000
,
0000
0101
0000
0000
1001
0000
1001
0000
,
1000
0000
0000
1100
0000
0000
1001
0000
,
0000
1100
0000
0000
1001
0000
1001
0000
,
1000
0000
1000
0000
0100
0010
0001
0000
,
0100
0000
0100
0000
0010
1000
0001
0000
,
0010
0000
0100
1000
0001
0000
0100
0000
,
0001
1000
0001
1000
0001
0000
0100
0000
,
0010
1001
1000
0100
,
0010
0100
0001
0100
,
1000
0001
0100
1000
,
0100
0010
0100
0100
,
0020
1030
0001
0010
,
1000
0010
0100
0010
,
0001
0001
0001
0001
,
0100
0010
0100
0010
0100
0000
0010
0000
,
2000
3001
0100
1000
,
0100
0001
1000
0010
,
1000
0100
0001
0100
,
0010
0100
1000
0001
,
1001
0000
0000
0101
0000
0000
1001
0000
,
0000
1000
1000
0000
0010
0000
0010
0000
,
1000
1001
1001
1001
,
0001
0010
0001
0010
0001
0000
1000
0000
,
0001
0000
0001
0000
0001
0000
0100
0010
,
0000
0010
0000
1000
0001
0000
0001
0000
,
1000
0000
1000
0000
1000
0000
0100
0010
,
0001
1000
0001
1000
0001
0000
1000
0000
,
0010
0000
0000
0010
0000
0000
1000
0000
,
0001
0000
0000
0001
0010
0000
0010
0000
,
0001
1000
0001
1000
0001
1000
0001
0000
,
0100
0010
1000
0001
,
1001
1001
1001
1001
,
1001
0000
1001
0000
1001
0000
1000
0001
,
1000
1001
1001
1001
,
0001
1000
0100
1000
0001
1000
0010
0000
,
0110
0110
0110
0110
,
0010
0100
0010
0000
0110
0000
0010
0100
,
0001
0011
0011
0011
,
0001
1000
0100
1000
0001
0000
1000
0000
,
0002
0000
0000
0100
0000
0000
1000
0000
,
0000
0010
0000
0000
1003
0000
0001
0000
,
2000
0000
0000
0100
0000
0000
0001
0000
,
0000
0010
0000
0000
3001
0000
1000
0000
,
0010
0100
0010
0100
0010
0000
0110
0000
,
0110
0000
1001
0000
1000
0100
0010
0000
,
0001
0000
0100
0010
0000
0100
0001
0000
,
1000
0000
0100
0010
0001
0000
1000
0000
,
0001
0100
1000
0100
,
0002
0010
1003
0000
,
0001
0010
1000
0010
,
0200
0001
0310
0001
,
1000
0010
0001
0010
,
2000
0100
3001
0000
,
1000
0010
0001
0010
,
0200
0000
0000
0320
0000
0000
2030
0000
,
3002
0010
1000
0100
,
2003
0000
0000
3020
0000
0000
0230
0000
,
0301
1000
0100
0010
,
0001
0100
0010
1000
,
0200
0001
0010
1000
,
0320
0000
0000
0032
0000
0000
1003
0000
,
2000
0010
0001
0100
,
3002
0000
0000
1003
,
0001
0000
0010
0000
0001
0000
1000
0100
,
0000
0000
0000
0000
1000
0000
0000
0000
0001
0000
0000
0010
0000
0000
0001
0000
,
1000
0000
0010
0000
1000
0000
0001
0100
,
0000
0000
0000
0000
0001
0000
0000
0000
1000
0000
0000
0010
0000
0000
1000
0000
,
0001
0000
0000
0101
0000
0000
1000
0000
,
1100
0000
0000
1000
0001
0000
1001
0000
,
1000
0100
1000
0100
0010
0001
0010
0001
,
1000
0001
1000
0001
1000
0000
0010
0000
,
1000
0100
1000
0000
0001
0000
0100
0001
,
0000
0000
0001
0000
1000
0000
0000
0000
0001
0000
0000
0010
0000
0000
0001
0000
,
1000
0010
1000
0000
0001
0000
0100
0001
,
0000
0000
0001
0000
0000
0000
1000
0000
0100
0000
0000
0010
0000
0000
0100
0000
,
0010
0001
1000
0000
0001
0000
0100
0010
,
0000
0000
0010
0000
1000
0000
0000
0000
0001
0000
0000
1000
0000
0000
0100
0000
,
1000
0001
0100
0000
0010
0000
0100
0001
,
1000
0000
0100
0010
0100
0010
0100
0000
,
1100
0001
0010
0001
,
0101
0000
0000
0000
1000
0000
0000
0000
0010
0000
0000
1010
0000
0000
1000
0000
,
0001
0010
0001
1100
,
1000
0000
0000
0000
0001
0000
0000
0000
0100
0000
0000
0010
0000
0000
1000
0000
,
0001
0100
1000
0100
0001
0000
1001
0000
,
1100
0000
1100
0000
1000
0001
0100
0000
,
0010
0000
0100
0001
0000
1000
0001
0000
,
1000
0010
0001
0010
1000
0000
0001
0000
,
2002
3003
0000
0000
;

//---------------dance-single - t7r----------------
#NOTES:
     dance-single:
     t7r:
     Medium:
     14:
     :
0000
0000
0000
0000
,
0000
0000
0000
0000
,
0000
0000
0000
0000
,
0000
0000
0000
0000
,
0000
0000
0000
0000
,
0000
0000
0000
0000
,
1000
0000
0000
0000
1000
0000
0000
1000
0010
0000
1000
0000
0001
0000
0100
0000
,
0000
0000
0100
0000
0000
0001
1000
0000
0001
0000
0100
0000
0001
0000
1000
0000
,
0001
0000
0000
0000
0001
0000
0000
0001
0010
0000
0001
0000
1000
0000
0010
0000
,
0000
0000
0010
0000
0000
1000
0001
0000
1000
0000
0000
0100
1000
0000
0001
0000
,
1000
0000
0000
0000
1000
0000
0000
1000
0100
0000
1000
0000
0001
0000
0010
0000
,
0000
0000
0010
0000
0000
0001
1000
0000
0001
0000
0010
0000
0001
0000
1000
0000
,
0001
0000
0000
0000
0001
0000
0000
0001
0100
0000
0001
0000
1000
0000
0100
0000
,
0000
0000
0100
0000
0000
1000
0001
0000
1000
0000
0000
0010
1000
0000
0001
0000
,
0100
0000
1000
0100
0000
0001
0010
0000
,
1000
0010
0000
0001
0100
0000
0110
0000
,
0010
0000
0001
0010
0000
1000
0100
0000
,
0001
0100
0000
1000
0010
0000
1010
0000
,
0001
0010
0001
1000
0010
0010
0100
0100
,
0001
0010
0001
1000
0100
0100
0010
0010
,
0001
0100
0010
1000
0001
0010
0100
1000
,
0100
0010
0010
0001
1000
0010
0010
0100
,
0001
0000
0000
0000
1000
0000
0100
1000
0000
0000
0001
0000
1000
0000
0000
0001
,
0100
0000
0001
0000
0000
0000
1000
0000
0010
0000
0000
1000
0001
0000
0010
0000
,
0001
0000
0100
0010
1000
0001
0010
0100
,
1000
0001
1000
1000
0001
0100
0010
1000
,
0001
0000
0000
0000
1000
0000
0010
1000
0000
0000
0001
0000
1000
0000
0000
0001
,
0010
0000
0001
0000
0000
0000
1000
0000
0100
0000
0000
1000
0001
0000
0100
0000
,
0001
0110
1001
0110
,
1000
0100
1000
0100
0010
0001
1000
0001
,
0200
0000
0000
0000
0301
0000
0010
0001
0000
0000
1000
0000
0001
0000
0000
1000
,
0010
0000
1000
0000
0000
0000
0001
0000
0100
0000
0000
0001
1000
0000
0100
0000
,
1000
0000
0001
0010
0100
1000
0010
0100
,
0001
1000
0100
0010
0001
1000
0010
0010
,
2000
0000
0100
3002
0000
0100
2003
0000
,
3100
0010
0010
0000
0011
0000
0011
0000
,
0001
0100
0100
0000
0110
0000
0110
0000
,
0001
0010
0010
0100
1000
0001
0001
0100
,
0010
0000
0000
0000
0010
0000
0000
0010
1000
0000
0001
0000
1000
0000
0100
0000
,
0000
0000
0100
0000
0000
0100
0010
0000
0001
0000
1000
0000
0001
0000
0100
0000
,
0001
0000
0000
0000
0001
0000
0000
0001
0010
0000
0100
0000
1000
0000
0001
0000
,
1000
0010
0010
0100
0001
1000
1000
0000
,
0010
0000
0001
0010
0000
1000
0100
0000
,
0001
0000
0100
1000
0000
0010
0001
0000
,
0010
0100
0010
0100
0001
1000
0001
1000
,
0001
0010
0010
0100
1000
1000
0001
0000
,
2000
0000
0000
0000
0000
0000
0000
0000
0000
0000
0000
0000
0000
0000
0000
3000
2000
0000
0000
0000
0000
0000
0000
0000
0000
0000
0000
0000
0000
0000
0000
3000
2000
0000
0000
0000
0000
0000
0000
0000
0000
0000
0000
0000
0000
0000
0000
3000
2000
0000
0000
0000
0000
0000
0000
0000
0000
0000
0000
0000
0000
0000
0000
3000
,
2000
0000
0000
0000
0000
0000
0000
0000
0000
0000
0000
0000
0000
0000
0000
3000
2000
0000
0000
0000
0000
0000
0000
0000
0000
0000
0000
0000
0000
0000
0000
3000
2000
0000
0000
0000
0000
0000
0000
0000
0000
0000
0000
0000
0000
0000
0000
3000
1000
0000
0000
0000
0000
0000
0000
0000
1000
0000
0000
0000
0000
0000
0000
0000
,
2000
0000
0000
0000
0000
0000
0000
0000
0000
0000
0000
0000
0000
0000
0000
3000
2000
0000
0000
0000
0000
0000
0000
0000
0000
0000
0000
0000
0000
0000
0000
3000
2000
0000
0000
0000
0000
0000
0000
0000
0000
0000
0000
0000
0000
0000
0000
3000
2000
0000
0000
0000
0000
0000
0000
0000
0000
0000
0000
0000
0000
0000
0000
3000
,
1000
0000
0000
0100
0010
0000
0001
0000
1000
0000
0010
0000
0100
0000
0000
0000
,
0002
0000
0000
0000
0000
0000
0000
0000
0000
0000
0000
0000
0000
0000
0000
0003
0002
0000
0000
0000
0000
0000
0000
0000
0000
0000
0000
0000
0000
0000
0000
0003
0002
0000
0000
0000
0000
0000
0000
0000
0000
0000
0000
0000
0000
0000
0000
0003
0002
0000
0000
0000
0000
0000
0000
0000
0000
0000
0000
0000
0000
0000
0000
0003
,
0001
0000
0000
0000
0000
0000
0000
0000
0001
0000
0000
0000
0000
0000
0000
0000
0002
0000
0000
0000
0000
0000
0000
0000
0000
0000
0000
0000
0000
0000
0000
0003
0001
0000
0000
0000
0000
0000
0000
0000
0000
0000
0000
0000
0001
0000
0000
0000
1000
0000
0000
0000
0000
0000
0000
0000
0001
0000
0000
0000
0000
0000
0000
0000
,
0020
0000
0000
0000
0000
0000
0000
0000
0000
0000
0000
0000
0000
0000
0000
0030
0020
0000
0000
0000
0000
0000
0000
0000
0000
0000
0000
0000
0000
0000
0000
0030
0010
0000
0000
0000
0000
0000
0000
0000
0010
0000
0000
0000
0000
0000
0000
0000
0001
0000
0000
0000
0000
0000
0000
0000
0001
0000
0000
0000
0000
0000
0000
0000
,
1000
0100
0100
0010
0001
0001
1000
0010
,
0100
0000
1000
0100
0000
0001
0010
0000
,
1000
0010
0000
0001
0100
0000
0110
0000
,
0010
0000
0001
0010
0000
1000
0100
0000
,
0001
0100
0000
1000
0010
0000
0110
0000
,
1000
0100
0100
0100
1000
0000
1001
0000
,
1001
0000
0000
0000
0001
1000
0000
0100
1000
0000
0001
0000
1000
0000
0000
0000
,
0100
0010
0010
0001
1000
1000
0010
0100
,
0001
0010
0010
0100
1000
1000
0001
0100
,
0010
0000
1000
0100
0010
0000
0001
0000
,
1000
0000
0001
0100
0010
0000
1000
0000
,
0001
0000
1000
0100
0010
0000
0001
0000
,
0100
0000
0001
0010
0100
0010
0001
0000
,
1000
0000
0010
0100
0001
0000
1000
0000
,
0001
0000
0010
0100
1000
0000
0001
0000
,
1000
0000
0010
0100
0001
0000
0100
0000
,
0010
0000
1000
0200
0000
0000
0310
0000
,
0002
0010
1000
0100
,
2003
0000
0010
3002
0000
0000
0010
0000
,
1003
0000
0100
0010
0100
0000
0010
0000
,
0001
0000
0100
0010
0100
0000
0010
0000
,
0200
1000
0010
0001
,
0320
0000
1000
0230
0000
0000
0301
0000
,
0002
0010
1000
0100
,
2003
0000
0000
0000
,
3001
0010
0001
0000
1000
0000
0001
0100
,
0000
0000
0100
0000
0001
0000
0000
0000
1000
0000
0000
0010
1000
0000
0001
0000
,
1000
0010
1000
0000
0001
0000
1000
0100
,
0000
0000
0100
0000
0000
0000
1000
0000
0001
0000
0000
0010
0001
0000
1000
0000
,
0002
0000
0100
2003
0000
0100
3001
0000
,
0002
0000
0010
1003
1000
0000
1001
0000
,
1000
0010
0010
0100
0001
0001
1000
0100
,
0010
0100
0100
1000
0001
0100
0010
0000
,
1000
0100
0010
0000
0100
0000
0001
0100
,
0000
0000
1000
0000
0010
0000
0000
0000
0100
0000
0000
0010
1000
0000
0001
0000
,
1000
0100
0010
0000
0100
0100
0100
1000
,
0001
0000
0100
0000
1000
0000
0100
0000
0001
0000
0000
1001
0000
0000
1000
0000
,
0001
0001
0001
0000
0100
0000
1000
0100
,
0000
0000
0001
0000
0010
0000
0000
0000
0100
0000
0000
0010
0001
0000
1000
0000
,
0100
0001
0001
0100
1000
1000
0010
0100
,
0001
0010
0010
0100
1000
1000
0001
0000
,
1000
0100
0010
0100
1000
0001
0100
0010
,
1000
0000
0000
0100
1000
0000
0001
0000
0100
0000
0000
0110
0000
0000
0010
0000
,
1000
0001
0010
0001
1000
0100
0010
0001
,
1000
0000
0010
0000
0001
0000
0010
0000
0100
0000
0000
0001
1000
0000
0100
0000
,
1000
0010
0010
0010
1000
0000
1001
0000
,
0011
0000
0000
0000
0001
0010
0000
0001
1000
0000
0010
0000
1000
0000
0000
0000
,
0100
0001
0001
0100
0000
1000
0010
0010
,
0100
1000
1000
0100
0001
0010
0010
0000
,
2002
3003
0000
0000
;

//---------------dance-single - t7r----------------
#NOTES:
     dance-single:
     t7r:
     Hard:
     17:
     :
0000
0000
0000
0000
,
0000
0000
0000
0000
,
0000
0000
0000
0000
,
0000
0000
0000
0000
,
0000
0000
0000
0000
,
0000
0000
0000
0000
,
0001
0000
0000
0000
0001
0000
0000
0001
0010
0001
1000
0000
0001
0000
0100
0000
,
0000
0000
0100
0000
0000
0100
0010
0000
1000
0000
1000
0000
0001
1000
0001
1000
,
0010
0000
0000
0000
0010
0000
0000
0010
1000
0001
1000
0000
0010
0000
0010
0000
,
0000
0000
0010
1000
0000
0001
1000
0000
0001
0010
0000
0001
1000
0000
0001
0000
,
1000
0000
0000
0000
1000
0000
0000
1000
0010
1000
0001
0000
1000
0000
0100
0000
,
0000
0000
0100
0000
0000
0100
0010
0000
0001
0000
0001
0000
1000
0001
1000
0001
,
0010
0000
0000
0000
0010
0000
0000
0010
0001
1000
0001
0000
0010
0000
0010
0000
,
0000
0000
0010
0001
0000
1000
0001
0000
1000
0010
0000
1000
0001
0000
1000
0000
,
0002
0000
0100
2003
0000
0100
3002
0000
,
0100
2003
0000
0100
3001
0000
1001
0001
,
2000
0000
0010
3002
0000
0010
2003
0000
,
0010
3002
0000
0010
1003
0000
1001
0001
,
1000
0000
1000
0000
0100
0000
0100
0000
0010
0000
0010
0000
0001
0000
0001
1000
,
0001
0000
0001
0000
0010
0000
0010
0000
0100
0000
0100
0000
1000
0000
1000
0001
,
1000
0000
0010
0100
0001
0000
0010
0100
1000
0001
0100
0010
1000
0001
0010
0100
,
1000
0000
0010
1000
0001
0000
0100
0001
1000
0000
0010
0000
0100
0000
0010
0000
,
1000
0000
0000
0000
0001
0000
1000
0010
0000
1000
0001
0000
1000
0100
0000
0010
,
0001
1000
0000
0001
0000
0100
0010
0000
1000
0001
0000
0010
0000
0001
0100
0001
,
1000
0000
0100
0001
1000
0010
0001
0100
,
1000
0001
0010
1000
0100
0010
0001
1000
,
1002
0000
0000
0000
1003
0000
0001
0010
0000
0001
1000
0000
0001
0100
0000
0010
,
1000
0001
0000
1000
0000
0100
0010
0000
0001
1000
0000
0100
0000
1000
0010
1000
,
0001
0000
0100
0010
1000
0000
0100
0010
0001
0000
0100
0010
1000
0000
0001
0000
,
1000
0010
0100
0000
0001
0010
0100
0000
1000
0001
0100
0010
1000
0001
0010
0000
,
0120
0000
0000
0000
0031
0000
1000
0100
0000
1000
0001
0000
1000
0010
0000
0100
,
0001
1000
0000
0001
0000
0010
0100
0000
1000
0001
0000
0100
0000
0001
0010
0001
,
1000
0000
0010
0001
1000
0100
0001
0010
,
1000
0000
0001
0000
0100
0000
1000
0000
0010
0000
0100
0001
1000
0000
0001
0000
,
1000
0000
0100
0010
0100
0000
0001
0000
0100
0010
0100
0000
1000
0000
0010
0100
,
0010
0000
0001
0000
0010
0100
0010
0000
2000
0000
0100
0000
3002
0000
0100
0000
,
1003
0000
0100
1000
0020
0000
0130
0000
0020
0000
0031
0000
0020
0000
0130
0000
,
0001
0000
0010
0100
1000
0000
0010
0000
0100
0000
0100
0000
0001
0000
0001
0000
,
1001
0000
0000
0000
1000
0000
0000
1000
0010
1000
0001
0000
1000
0000
0100
0000
,
0000
0000
0100
0000
0000
0100
0010
0000
0001
0000
0001
0000
1000
0001
1000
0001
,
0010
0000
0000
0000
0010
0000
0000
0010
0001
1000
0001
0000
0010
0000
0010
0000
,
0100
0000
0001
0100
0010
0000
0001
0100
0010
1000
0010
0000
1000
0000
0000
0000
,
0010
0001
1000
0100
0001
0010
1000
0001
,
0100
1000
0010
0001
2000
3100
0002
0013
,
0100
0000
0010
0100
0010
0000
0001
0000
1000
0010
1000
0010
0100
0001
0100
0001
,
1000
0000
0100
1000
0001
0000
0100
0000
0010
0100
0010
0000
0110
0000
0000
0000
,
0102
0000
0000
0000
0000
0000
0000
0000
0000
0000
0000
0000
0000
0000
0000
0003
1002
0000
0000
0000
0000
0000
0000
0000
0000
0000
0000
0000
0000
0000
0000
0003
0012
0000
0000
0000
0000
0000
0000
0000
0000
0000
0000
0000
0000
0000
0000
0003
1002
0000
0000
0000
0000
0000
0000
0000
0000
0000
0000
0000
0000
0000
0000
0003
,
0102
0000
0000
0000
0000
0000
0000
0000
0000
0000
0000
0000
0000
0000
0000
0003
1002
0000
0000
0000
0000
0000
0000
0000
0000
0000
0000
0000
0000
0000
0000
0003
0012
0000
0000
0000
0000
0000
0000
0000
0000
0000
0000
0000
0000
0000
0000
0000
1003
0000
0000
0000
0000
0000
0000
0000
1000
0000
0000
0000
0000
0000
0000
0000
,
2100
0000
0000
0000
0000
0000
0000
0000
0000
0000
0000
0000
0000
0000
0000
3000
2001
0000
0000
0000
0000
0000
0000
0000
0000
0000
0000
0000
0000
0000
0000
3000
2010
0000
0000
0000
0000
0000
0000
0000
0000
0000
0000
0000
0000
0000
0000
3000
2001
0000
0000
0000
0000
0000
0000
0000
0000
0000
0000
0000
0000
0000
0000
3000
,
2100
0000
0000
0000
0000
0000
0000
3000
1000
0000
0000
0000
0001
0000
0000
0000
2000
0000
0000
0000
0000
0000
0000
3000
2000
0000
0000
0000
0000
0000
0000
3000
2000
0000
0000
0000
0000
0000
0000
3000
2000
0000
0000
0000
0000
0000
0000
3000
1100
0000
0000
0000
0000
0000
0000
0000
0000
0000
0000
0000
0000
0000
0000
0000
,
1020
0000
0000
0000
0000
0000
0000
0000
0000
0000
0000
0000
0000
0000
0000
0030
0120
0000
0000
0000
0000
0000
0000
0000
0000
0000
0000
0000
0000
0000
0000
0030
0021
0000
0000
0000
0000
0000
0000
0000
0000
0000
0000
0000
0000
0000
0000
0030
0120
0000
0000
0000
0000
0000
0000
0000
0000
0000
0000
0000
0000
0000
0000
0030
,
1020
0000
0000
0000
0000
0000
0000
0030
0020
0000
0000
0000
0000
0000
0000
0030
1020
0000
0000
0000
0000
0000
0000
0000
0000
0000
0000
0000
0000
0000
0000
0030
1020
0000
0000
0000
0000
0000
0000
0000
1030
0000
0000
0000
0001
0000
0000
0000
2000
0000
0000
0000
0000
0000
0000
3000
2000
0000
0000
0000
0000
0000
0000
3000
,
1200
0000
0000
0000
0000
0000
0000
0000
0000
0000
0000
0000
0000
0000
0000
0300
0201
0000
0000
0000
0000
0000
0000
0000
0000
0000
0000
0000
0000
0000
0000
0300
0210
0000
0000
0000
0000
0000
0000
0300
0200
0000
0000
0000
0000
0000
0000
0300
0100
0000
0000
0000
1000
0000
0000
0000
0001
0000
0000
0000
0000
0000
0000
0000
,
0010
0000
0001
1000
0100
0000
1000
0001
0010
0000
0001
0100
0010
0000
1000
0000
,
1200
0000
0001
0320
0000
1000
0230
0000
,
0001
0320
0000
1000
0130
0000
1000
0001
,
0201
0000
1000
0320
0000
0001
0230
0000
,
1000
0320
0000
0001
0130
0000
0010
1000
,
0100
0100
0100
0100
0110
0000
1001
0000
,
1001
0000
0000
0000
1000
0100
1000
0001
1000
0000
1000
0000
1000
0000
0000
0000
,
0001
0100
0001
0100
0010
0000
1000
0100
1000
0100
0010
0000
0001
0100
0010
0000
,
1000
0000
0100
1000
0001
0000
0100
0000
0001
0000
0001
0000
1000
0000
1000
0000
,
1001
0000
0001
0100
0010
1000
0001
0010
,
0001
0000
0001
0100
0010
1000
0001
0010
,
0100
0000
0100
1000
0010
1000
0001
1000
,
0010
0000
0010
0100
0001
1000
0010
0000
,
1000
0000
1000
0100
0010
0001
1000
0010
,
1000
0000
1000
0100
0010
0001
1000
0010
,
0100
0000
0100
0001
0010
0001
1000
0001
,
0020
0000
0001
0230
0000
0000
0320
0000
,
0032
0000
0100
0000
1000
0000
0013
0100
,
2000
0000
0010
3002
0100
0000
0023
0000
,
0230
0000
0301
0100
1000
0010
0001
0010
,
2000
0000
3100
0010
0001
0100
0010
1000
,
0200
0001
0010
1000
,
0320
0000
0001
0230
1000
0000
0320
0000
,
0032
0100
1000
0010
,
1003
1000
0001
0001
1000
0010
0001
0010
,
1000
0000
0100
0010
0001
0000
0000
0000
0100
0000
0000
0000
1000
0000
0100
0000
,
0010
0000
0100
0001
1000
0000
0000
0000
0001
0000
0010
1000
0000
0010
0001
0000
,
1000
0000
0010
0100
0001
0000
0000
0000
0010
0000
0000
0000
1000
0000
0010
0000
,
0100
0000
0010
0000
0001
0000
1000
0000
0001
0000
0100
1000
0000
0100
0001
0000
,
1000
0100
0001
1000
0010
0100
1000
1000
,
0001
0100
1000
0001
0020
0130
0002
1003
,
0001
0000
0010
0100
1000
0000
0010
0100
0001
1000
0001
1000
0100
0010
0100
0010
,
0001
0000
0100
0000
0010
0000
1000
0000
0100
0010
0001
1000
0001
0000
0000
0000
,
1000
0000
0010
0100
0001
0000
1000
0000
0001
0000
0010
0100
1000
0000
0010
0000
,
1000
0000
0100
0010
0001
0000
0100
0000
0001
0000
1000
0001
0000
0100
0001
0000
,
0010
0000
0100
1000
0001
0000
0100
0000
0010
0000
1000
0000
1200
0000
0000
0000
,
0310
0000
0001
1000
0010
0000
1000
0100
0010
0000
0000
0110
0000
0000
1001
0000
,
0001
0000
0010
0000
0011
0000
0001
0000
1000
0000
0010
0100
0001
0000
0010
0000
,
0001
0000
0100
0010
1000
0000
0100
0000
1100
0000
1000
0001
0000
0100
0001
0000
,
0010
0000
0100
1000
0001
0000
0100
0001
1000
0000
1000
0000
1002
0000
0000
0000
,
0103
0000
1000
0100
0010
0000
1000
0100
0010
0000
0001
0000
1001
0000
0000
0000
,
1000
0000
0100
0001
0100
0000
0010
0000
0100
0000
1000
0100
0000
1000
0001
0000
,
0100
0000
1000
0100
0001
0000
0010
0100
1000
0000
0001
1000
0000
0001
0010
0000
,
0001
0000
0100
1000
0100
0000
0010
0000
0100
0000
0001
0100
0000
0001
1000
0000
,
0100
0000
0001
0100
1000
0000
0010
0100
0001
0000
1000
0010
0000
1000
0001
1000
,
0100
0100
0100
0100
0110
0000
1001
0000
,
1001
0000
0000
0000
0001
0100
0001
1000
0001
0000
0001
0000
0001
0000
0000
0000
,
0100
0010
0100
0010
1000
0000
0100
0010
0100
0010
0001
0000
0100
0010
1000
0000
,
0001
0000
0010
0100
1000
0000
0010
0000
0100
0000
0001
1000
0100
0000
1000
0000
,
2002
3003
0000
0000
;

//---------------dance-double - t7r----------------
#NOTES:
     dance-double:
     t7r:
     Easy:
     11:
     :
00000000
00000000
00000000
00000000
,
00000000
00000000
00000000
00000000
,
00000000
00000000
00000000
00000000
,
00000000
00000000
00000000
00000000
,
00000000
00000000
00000000
00000000
,
00000000
00000000
00000000
00000000
,
00000001
00000000
00000001
00000000
00000010
00000000
00000001
00000100
,
00000000
00000100
00000000
00000001
00001000
00000000
00000100
00000000
,
00010000
00000000
00010000
00000000
00010000
00000000
00001000
00010000
,
00000000
00010000
00000000
00000000
01000000
00000000
10000000
00000000
,
00100000
00000000
00100000
00000000
00100000
00000000
01000000
00010000
,
00000000
00010000
00000000
10000000
01000000
00000000
00100000
00000000
,
00010000
00000000
00010000
00000000
00010000
00000000
00001000
00000010
,
00000000
00000010
00000000
00001000
00000001
00000000
00000100
00000000
,
00000001
00000000
00000000
00000010
00000000
00000000
00000100
00000000
,
00000000
00001000
00000000
00000000
00010000
00000000
10010000
00000000
,
10000000
00000000
00000000
00100000
00000000
00000000
01000000
00000000
,
00000000
00010000
00000000
00000000
00001000
00000000
00001001
00000000
,
00000001
00000100
00001000
00010000
,
01000000
10000000
00100000
00010000
,
00001000
00000000
00001000
00000000
00010000
00001000
00010000
00001000
,
00010000
00000000
01000000
10000000
00010000
00000000
01000000
00000000
,
00100000
10010000
10000000
01000000
,
00100000
00010000
00001000
00000010
,
00000100
00000000
00000001
00000000
00001000
00000100
00001000
00000000
,
00000001
00000000
00000100
00000000
00001000
00010000
00001000
00000000
,
01000000
10010000
00010000
00100000
,
01000000
10000000
00100000
01000000
,
00010000
00010000
00010000
00010000
,
10000000
01000000
10000000
01000000
10000000
00000000
00100000
00000000
,
00020000
00031000
00000010
00000100
,
00000010
00000001
00001000
00000100
,
00010000
00000000
00001000
00010000
00001000
00000000
00010000
00000000
,
00100000
00000000
10000000
00010000
10000000
00000000
01000000
00000000
,
10000000
00000000
00000000
01000000
00000000
00000000
00100000
00000000
,
00000000
00010000
00010000
00000000
00001000
00000000
00000001
00000000
,
00000100
00000001
00001000
00000000
00000100
00000000
00000100
00000000
,
00010000
00001000
00010000
00001000
00010000
00000000
00001000
00000000
,
00010000
00000000
00010000
00000000
00010000
00000000
01000000
10000000
,
00000000
10000000
00000000
00100000
01000000
00000000
01000000
00000000
,
00010000
00000000
00010000
00000000
00010000
00000000
00100000
00001000
,
00010000
00001000
00000100
00000001
,
00000010
00000000
00000000
00000010
00000000
00000000
00000100
00000000
,
00000100
00000000
00000000
00000100
00010000
00000000
00010000
00000000
,
00001000
00010000
00001000
00010000
00001000
00010000
00001000
00000000
,
00010000
00100000
10000000
01000000
,
10000000
01000000
00100000
00010000
,
00001000
00000000
00001001
00000000
00001001
00000000
00000001
00001000
,
00000001
00000100
00000010
00001000
,
00010000
00000000
00100000
01000000
10000000
01000000
00100000
00000000
,
00011000
00011000
00011000
00011000
,
00001000
00010000
00001000
00000000
00011000
00000000
00010000
00001000
,
00010000
00011000
00011000
00011000
,
00010000
00000000
01000000
10000000
00010000
00000000
10000000
00000000
,
00100000
00000000
00000000
00011000
00000000
00000000
00000010
00000000
,
00000000
00011000
00000000
00000000
01001000
00000000
00000000
00000000
,
01000000
00000000
00000000
00011000
00000000
00000000
00000100
00000000
,
00000000
00011000
00000000
00000000
00101000
00000000
00000000
00000000
,
00001000
00010000
00001000
00010000
00001000
00000000
00010000
00000000
,
00011000
00000000
00000100
00000000
00001000
00000001
00001000
00000000
,
00000001
00000000
00000100
00000010
00000000
00001000
00000100
00000000
,
00010000
00000000
00001000
01000000
00010000
00000000
10000000
00000000
,
01000000
00100000
00010000
00000000
,
00001000
00000010
00000100
00000000
,
00000001
00000010
00000100
00000000
,
00010000
00000000
00001000
00000000
00100000
00010000
10000000
00000000
,
00100000
01000000
00010000
00000000
,
00001000
00000100
00000010
00000000
,
00000001
00000100
00001000
00000000
,
00010000
00000000
00100000
00000000
10000000
00010000
10000000
00000000
,
02000000
00010000
00100000
10000000
,
03200000
00000000
00000000
00302000
00000000
00000000
00023000
00000000
,
00031000
00000100
00000001
00000010
,
00000100
00000000
00010000
00000000
00001000
00010000
00001000
00000000
,
00000200
00001000
00000010
00000001
,
00000320
00000000
00000000
00020030
00000000
00000000
00031000
00000000
,
00002000
00010000
01000000
00100000
,
00023000
00000000
00000000
00000000
,
00031000
00000100
00000001
00001000
,
00000100
00000000
00000000
00000000
00000010
00000000
00000000
00000000
00000001
00000000
00000000
00001000
00000000
00000000
00000100
00000000
,
00010000
00001000
00010000
01000000
,
10000000
00000000
00000000
00000000
00100000
00000000
00000000
00000000
01000000
00000000
00000000
00010000
00000000
00000000
10000000
00000000
,
01000000
00000000
00000000
00100000
00000000
00000000
00010000
00000000
,
00001000
00000000
00000000
00000010
00000000
00000000
00000100
00000000
,
00000001
00000000
00000010
00000000
00001000
00010000
00001000
00010000
,
00001000
00010000
00100000
10000000
,
00010000
00000000
00100000
00000000
01000000
00000000
10000000
00010000
,
00000000
00000000
00000000
00000000
10000000
00000000
00000000
00000000
00100000
00000000
00000000
00010000
00000000
00000000
00001000
00000000
,
00010000
00000000
00001000
00000000
00000010
00000000
00000001
00001000
,
00000000
00000000
00000000
00000000
00000001
00000000
00000000
00000000
00000100
00000000
00000000
00001000
00000000
00000000
00010000
00000000
,
00001000
00000000
00010000
00000000
01000000
00000000
10000000
00100000
,
00000000
00000000
00000000
00000000
01000000
00000000
00000000
00000000
00100000
00000000
00000000
10000000
00000000
00000000
00010000
00000000
,
00100000
00000000
00001000
00000000
00010000
00000000
00000010
00001000
,
00000001
00000000
00000100
00001000
00010000
00000000
00011000
00000000
,
00010000
01000000
10000000
00100000
,
00010000
00000000
00000000
00000000
00001000
00000000
00000000
00000000
00000100
00000000
00000000
00000001
00000000
00000000
00001000
00000000
,
00000100
00000010
00000001
00000100
,
00001000
00010000
00001000
00000000
00010000
00000000
00100000
00000000
,
10000000
01000000
10000000
01000000
10000000
00000000
01000000
00000000
,
00010000
00000000
00001000
00010000
00001000
00000000
00000100
00000000
,
00000001
00000000
00000010
00000001
00000000
00000010
00001000
00000000
,
00010000
00000000
00001000
00010000
01000000
00000000
10000000
00000000
,
20020000
30030000
00000000
00000000
;

//---------------dance-double - t7r----------------
#NOTES:
     dance-double:
     t7r:
     Medium:
     14:
     :
00000000
00000000
00000000
00000000
,
00000000
00000000
00000000
00000000
,
00000000
00000000
00000000
00000000
,
00000000
00000000
00000000
00000000
,
00000000
00000000
00000000
00000000
,
00000000
00000000
00000000
00000000
,
10000000
00000000
00000000
00000000
10000000
00000000
00000000
10000000
01000000
00000000
00100000
00000000
00010000
00000000
10000000
00000000
,
00000000
00000000
10000000
00000000
00000000
10000000
00100000
00000000
01000000
00000000
00010000
00000000
10000000
00000000
00000000
00000000
,
01000000
00000000
00000000
00000000
01000000
00000000
00000000
01000000
00100000
00000000
00010000
00000000
00001000
00000000
00000100
00000000
,
00000000
00000000
00000100
00000000
00000000
00000100
00001000
00000000
00000100
00000000
00000000
00000010
00000001
00000000
00001000
00000000
,
00000001
00000000
00000000
00000000
00000001
00000000
00000000
00000001
00000100
00000000
00000010
00000000
00001000
00000000
00000001
00000000
,
00000000
00000000
00000001
00000000
00000000
00000001
00000010
00000000
00000100
00000000
00001000
00000000
00000001
00000000
00000000
00000000
,
00000100
00000000
00000000
00000000
00000100
00000000
00000000
00000100
00000010
00000000
00001000
00000000
00010000
00000000
01000000
00000000
,
00000000
00000000
01000000
00000000
00000000
01000000
00010000
00000000
01000000
00000000
00000000
00100000
10000000
00000000
00010000
00000000
,
00100000
00000000
00010000
01000000
00000000
00100000
10000000
00000000
,
01000000
00010000
00000000
00001000
00010000
00000000
00011000
00000000
,
00001000
00000000
00000100
00000001
00000000
00000010
00001000
00000000
,
00010000
01000000
00000000
10000000
00100000
00000000
01100000
00000000
,
10000000
01000000
10000000
00010000
01000000
01000000
00001000
00000000
,
00010000
00000100
00001000
00000001
00000100
00000100
00000001
00000000
,
00000010
00001000
00010000
00000000
00001000
01000000
00010000
00000000
,
10000000
01000000
01000000
00100000
00010000
00000000
00001000
00000100
,
00001000
00000000
00000000
00000000
00000001
00000000
00000100
00000001
00000000
00000000
00001000
00000000
00000001
00000000
00000000
00000010
,
00000100
00000000
00001000
00000000
00000000
00000000
00000001
00000000
00000100
00000000
00000000
00001000
00010000
00000000
00001000
00000000
,
01000000
00000000
00010000
00100000
01000000
10000000
01000000
00100000
,
00001000
00000000
00010000
00000000
00001000
00000000
00001000
00000000
00000100
00000000
00000000
00000001
00000010
00000000
00000100
00000000
,
00002000
00000000
00000000
00000000
00003001
00000000
00000000
00001000
00000100
00000000
00010000
00000000
00001000
00000000
00000000
00010000
,
00100000
00000000
01000000
00000000
00000000
00000000
00010000
00000000
10000000
00000000
00000000
01000000
10000000
00000000
00010000
00000000
,
00100000
00011000
00000010
00011000
,
00001000
00000010
00000001
00000000
00000100
00001000
00010000
00000000
,
00200000
00000000
00000000
00000000
10300000
00000000
01000000
10000000
00000000
00000000
00010000
00000000
10000000
00000000
00000000
00100000
,
01000000
00000000
00010000
00000000
00000000
00000000
10000000
00000000
01000000
00000000
00000000
00010000
00001000
00000000
00010000
00000000
,
00000100
00000000
00001000
00000010
00000100
00000001
00001000
00000100
,
00000010
00000000
00000001
00000000
00000100
00000000
00000000
00000000
00001000
00000000
00000000
00010000
00000000
00000000
01000000
00000000
,
10000000
00000000
00100000
00010000
00000000
00001000
00000100
00000000
,
00000001
00000010
00000010
00000000
00000100
00000000
00011000
00000000
,
00010000
01000000
01000000
00000000
10000000
00000000
00100000
00000000
,
10000000
01000000
01000000
00100000
00010000
00010000
10000000
00100000
,
00010000
00000000
00000000
00000000
00010000
00000000
00000000
00001000
00010000
00000000
00001000
00000000
00000010
00000000
00000100
00000000
,
00000000
00000000
00000100
00000000
00000000
00000100
00000010
00000000
00000001
00000000
00001000
00000000
00000001
00000000
00000100
00000000
,
00000001
00000000
00000000
00000000
00000001
00000000
00000000
00000001
00000010
00000000
00000100
00000000
00001000
00000000
00000001
00000000
,
00000100
00000000
00001000
00010000
01000000
00000000
01100000
00000000
,
00010000
00000000
10000000
00100000
00000000
00010000
00001000
00000000
,
00000100
00000000
00000001
00000010
00000000
00001000
00010000
00000000
,
01000000
10000000
00010000
10000000
00100000
00010000
00001000
00000000
,
00010000
01000000
10000000
00000000
00100000
00000000
01100000
00000000
,
20000000
30020000
00032000
00003002
,
00002003
00000000
00023000
00000000
20030000
00000000
30010000
00010000
,
00002000
00003002
00002003
00023000
,
10030000
00000000
00000000
01000000
00100000
00000000
00001000
00000000
00010000
00000000
00000000
00000000
00011000
00000000
00000000
00000000
,
02000000
03000200
02000300
03000200
,
01000300
01000000
02000000
00000000
03000100
00000000
00011000
00000000
,
00200000
00000000
00300020
00000000
00100030
00100000
00100000
00000000
,
00001000
00010000
00001000
00010000
00001000
00000000
00011000
00000000
,
00010000
00000000
01000000
10000000
00000000
00100000
00010000
00000000
,
00001000
00000100
00000000
00000001
00000010
00000000
00000100
00000000
,
00010000
00000000
00001000
00000010
00000000
00000001
00000100
00000000
,
00001000
00010000
00000000
00100000
10000000
00000000
01000000
00000000
,
00010000
00001000
00001000
00001000
00010000
00000000
00011000
00000000
,
00011000
00000000
00001000
00000100
00000001
00000000
00000010
00000000
,
00000100
00001000
00001000
00000100
00010000
00010000
00001000
00000000
,
00010000
01000000
10000000
00000000
00100000
00000000
01100000
00000000
,
10000000
00000000
01000000
00100000
00010000
00000000
10000000
00000000
,
01000000
00000000
00100000
00001000
00010000
00000000
00001000
00000000
,
00010000
00000000
00000100
00000010
00000001
00000000
00001000
00000000
,
00000100
00000000
00000010
00000001
00001000
00000001
00001000
00000000
,
00000001
00000000
00000100
00000010
00001000
00000000
00000001
00000000
,
00000100
00000000
00000010
00010000
00001000
00000000
00010000
00000000
,
00001000
00000000
01000000
00100000
10000000
00000000
00010000
00000000
,
01000000
00000000
00010000
00200000
00000000
00000000
00310000
00000000
,
20000000
01000000
00010000
00100000
,
30020000
00000000
00000000
00230000
00000000
00000000
00301000
00000000
,
00010000
00000000
00001000
00000010
00001000
00000000
00000010
00000000
,
00000200
00000000
00001300
00000002
00000100
00000000
00001003
00000000
,
00000020
00000001
00000100
00001000
,
00000230
00000000
00000301
00000010
00001000
00000000
00010000
00000000
,
00020000
00100000
00001000
01000000
,
00032000
00000000
00000000
00000000
,
00013000
00100000
00010000
00000000
00100000
00000000
10000000
01000000
,
00000000
00000000
00000000
00000000
00100000
00000000
00000000
00000000
00001000
00000000
00000000
00010000
00001000
00000000
00010000
00000000
,
00001000
00000010
00001000
00000000
00000010
00000000
00000001
00000100
,
00000000
00000000
00000100
00000000
00000000
00000000
00000010
00000000
00010000
00000000
00000000
00001000
00010000
00000000
00001000
00000000
,
00010000
00000000
01000000
10000000
00000000
00000000
00100000
00000000
,
00100000
00000000
00010000
00001000
00010000
00000000
00011000
00000000
,
00010000
00000010
00000010
00001000
00000001
00000001
00000010
00000100
,
00010000
00001000
00010000
00100000
10000000
00000000
01000000
00000000
,
10000000
00100000
01000000
00000000
00010000
00000000
10000000
01000000
,
00000000
00000000
00100000
00000000
00010000
00000000
00000000
00000000
00001000
00000000
00000000
00000010
00000000
00000000
00001000
00000000
,
00000001
00000010
00000100
00000000
00001000
00000000
00000001
00000100
,
00000000
00000000
00000010
00000000
00000000
00000000
00001000
00000000
00010000
00000000
00000000
00100000
00000000
00000000
00010000
00000000
,
10000000
00000000
01000000
00000000
00100000
00000000
00000000
00000000
00010000
00000000
00000000
10000000
00010000
00000000
01000000
00000000
,
00000000
00000000
00100000
00000000
00010000
00000000
00001000
00000000
00010000
00000000
00000000
00000100
00001000
00000000
00000001
00000000
,
00001000
00000000
00000010
00000000
00000100
00000000
00000000
00000000
00000001
00000000
00000000
00000010
00000100
00000000
00001000
00000000
,
00000001
00000100
00001000
00001000
00010000
00000000
01000000
00000000
,
10000000
00000000
00100000
00000000
10000000
00000000
00010000
00000000
10000000
00000000
00000000
01000000
00100000
00000000
00010000
00000000
,
00001000
00000000
00000100
00000000
00010000
00000000
00000000
00000000
00001000
00000000
00000000
00000100
00000001
00000000
00001000
00000000
,
00000001
00000000
00000010
00000000
00000001
00000000
00001000
00000000
00000001
00000000
00000000
00000100
00000010
00000000
00001000
00000000
,
00010000
00000000
01000000
00000000
00001000
00000000
00000000
00000000
00010000
00000000
00000000
01000000
10000000
00000000
00010000
00000000
,
10000000
01000000
01000000
01000000
00010000
00000000
00011000
00000000
,
00011000
00000000
00000000
00000000
00001000
00000000
00000000
00000100
00000010
00000000
00001000
00000000
00000001
00000000
00000000
00000000
,
00000010
00000100
00001000
00010000
00100000
01000000
10000000
00010000
,
10000000
00100000
00100000
00010000
00001000
00000010
00000001
00000000
,
00002002
00003003
00000000
00000000
;

//---------------dance-double - t7r----------------
#NOTES:
     dance-double:
     t7r:
     Hard:
     17:
     :
00000000
00000000
00000000
00000000
,
00000000
00000000
00000000
00000000
,
00000000
00000000
00000000
00000000
,
00000000
00000000
00000000
00000000
,
00000000
00000000
00000000
00000000
,
00000000
00000000
00000000
00000000
,
00010000
00000000
00000000
00000000
00010000
00000000
00000000
00010000
00001000
00010000
00000100
00000000
00001000
00000000
00000001
00000000
,
00000000
00000000
00000001
00000000
00000000
00000001
00000100
00000000
00000010
00000000
00000010
00000000
00001000
00000100
00001000
00000100
,
00010000
00000000
00000000
00000000
00010000
00000000
00000000
00010000
00000100
00010000
00001000
00000000
00010000
00000000
00010000
00000000
,
00000000
00000000
00010000
00001000
00000000
01000000
00010000
00000000
10000000
00100000
00000000
10000000
00010000
00000000
10000000
00000000
,
01000000
00000000
00000000
00000000
01000000
00000000
00000000
01000000
00100000
01000000
10000000
00000000
00100000
00000000
01000000
00000000
,
00000000
00000000
01000000
00000000
00000000
01000000
00100000
00000000
00010000
00000000
00001000
00000000
00000100
00000010
00000100
00000010
,
00001000
00000000
00000000
00000000
00001000
00000000
00000000
00001000
00000100
00001000
00000001
00000000
00000010
00000000
00000010
00000000
,
00000000
00000000
00000001
00000100
00000000
00001000
00010000
00000000
01000000
10000000
00000000
00100000
10000000
00000000
00010000
00000000
,
20000000
00000000
01000000
30020000
00000000
01000000
20030000
00000000
,
31000000
00010000
00001000
00000010
00000001
00000000
00001001
00000000
,
00000002
00000000
00000100
00002003
00000000
00000100
00003002
00000000
,
00000103
00001000
00010000
00100000
10000000
00000000
10010000
00010000
,
10000000
00000000
10000000
00000000
01000000
00000000
01000000
00000000
00100000
00000000
00100000
00000000
00001000
00000000
00010000
00001000
,
00010000
00000000
00010000
00000000
00001000
00000000
00001000
00000000
00000100
00000000
00000100
00000000
00000010
00000000
00001000
00000001
,
00001000
00000000
00000010
00000100
00000001
00000000
00000010
00000000
00001000
00000000
00010000
00001000
01000000
00010000
10000000
00100000
,
10000000
00000000
01000000
00100000
00010000
00000000
10000000
00000000
00100000
00000000
00010000
00000000
00001000
00000000
00000100
00000000
,
00000010
00000000
00000000
00000000
00001000
00000000
00000001
00000010
00000000
00000001
00001000
00000000
00000001
00000100
00000000
00000010
,
00001000
00000001
00000000
00000010
00000000
00001000
00010000
00000000
00100000
01000000
00000000
00010000
00000000
00100000
01000000
00100000
,
00010000
00000000
10000000
00100000
00010000
00001000
00000010
00000001
,
00000100
00001000
00010000
00100000
10000000
01000000
00100000
00010000
,
20010000
00000000
00000000
00000000
30010000
00000000
10000000
00100000
00000000
10000000
00010000
00000000
10000000
01000000
00000000
00100000
,
00010000
10000000
00000000
00100000
00000000
00010000
00001000
00000000
00000010
00000100
00000000
00001000
00000000
00000010
00000100
00000010
,
00001000
00000000
00000100
00000010
00000001
00000000
00000100
00000000
00001000
00000000
00010000
00000000
01000000
00000000
10000000
00000000
,
00100000
01000000
00100000
00000000
10000000
00010000
10000000
00000000
01000000
00100000
01000000
00100000
00001000
00000000
00001000
00000000
,
00020000
00000000
00000000
00000000
00031000
00000000
00000100
00000001
00000000
00000100
00000010
00000000
00001000
00000100
00000000
00000010
,
00000001
00000010
00000000
00001000
00000000
00010000
00100000
00000000
10000000
00010000
00000000
00100000
00000000
00010000
10000000
00010000
,
01000000
00000000
00010000
00100000
01000000
10000000
01000000
00100000
,
00010000
00001000
00000100
00000010
00000001
00000100
00001000
00010000
,
00000100
00000000
00010000
00001000
00010000
00000000
00001000
00000000
00010000
00000000
01000000
10000000
01000000
00000000
00010000
00000000
,
00001000
00000000
00010000
00001000
00010000
00000000
00001000
00000000
00000200
00000000
00000010
00000000
00000302
00000000
00001000
00000000
,
00000013
00000000
00001000
00010000
00001000
00000000
00000000
00000000
00011000
00000000
00000000
00000000
00011000
00000000
00000000
00000000
,
00010000
00000000
01000000
10000000
00010000
00000000
01000000
00000000
00100000
00000000
00100000
00000000
10000000
00000000
10000000
00000000
,
10010000
00000000
00000000
00000000
10000000
00000000
00000000
10000000
00100000
10000000
00010000
00000000
10000000
00000000
01000000
00000000
,
00000000
00000000
01000000
00000000
00000000
01000000
00100000
00000000
00001000
00000000
00001000
00000000
00010000
00001000
00010000
00001000
,
00010000
00000000
00000000
00000000
00010000
00000000
00000000
00010000
00000100
00001000
00000100
00000000
00001000
00000000
00001000
00000000
,
00000001
00000000
00000100
00001000
00010000
00000000
01000000
00000000
10000000
00100000
01000000
00000000
01100000
00000000
00000000
00000000
,
10000000
00100000
00010000
00001000
00000100
00000001
00000010
00000100
,
00010000
00001000
00010000
00100000
02000000
00010000
03200000
10000000
,
01300000
00000000
00100000
01000000
00100000
00000000
10000000
00000000
01000000
00100000
01000000
00100000
00001000
00010000
00001000
00000100
,
00000010
00000000
00001000
00000100
00010000
00000000
00001000
00010000
00000100
00000000
00010000
00000000
00001000
00000000
00000000
00000000
,
00021000
00000000
00000000
00000000
00000000
00000000
00000000
00000000
00000000
00000000
00000000
00000000
00000000
00000000
00000000
00030000
00020100
00000000
00000000
00000000
00000000
00000000
00000000
00000000
00000000
00000000
00000000
00000000
00000000
00000000
00000000
00030000
00020010
00000000
00000000
00000000
00000000
00000000
00000000
00000000
00000000
00000000
00000000
00000000
00000000
00000000
00000000
00030000
00021000
00000000
00000000
00000000
00000000
00000000
00000000
00000000
00000000
00000000
00000000
00000000
00000000
00000000
00000000
00030000
,
00021000
00000000
00000000
00000000
00000000
00000000
00000000
00000000
00000000
00000000
00000000
00000000
00000000
00000000
00000000
00030000
00020100
00000000
00000000
00000000
00000000
00000000
00000000
00000000
00000000
00000000
00000000
00000000
00000000
00000000
00000000
00030000
00020010
00000000
00000000
00000000
00000000
00000000
00000000
00000000
00000000
00000000
00000000
00000000
00000000
00000000
00000000
00000000
00031000
00000000
00000000
00000000
00000000
00000000
00000000
00000000
00001000
00000000
00000000
00000000
00000000
00000000
00000000
00000000
,
00012000
00000000
00000000
00000000
00000000
00000000
00000000
00000000
00000000
00000000
00000000
00000000
00000000
00000000
00000000
00003000
01002000
00000000
00000000
00000000
00000000
00000000
00000000
00000000
00000000
00000000
00000000
00000000
00000000
00000000
00000000
00003000
00102000
00000000
00000000
00000000
00000000
00000000
00000000
00000000
00000000
00000000
00000000
00000000
00000000
00000000
00000000
00003000
00012000
00000000
00000000
00000000
00000000
00000000
00000000
00000000
00000000
00000000
00000000
00000000
00000000
00000000
00000000
00003000
,
00012000
00000000
00000000
00000000
00000000
00000000
00000000
00003000
00001000
00000000
00000000
00000000
00010000
00000000
00000000
00000000
00001000
00000000
00000000
00000000
00000000
00000000
00000000
00000000
00000100
00000000
00000000
00000000
00000000
00000000
00000000
00000000
00000001
00000000
00000000
00000000
00000000
00000000
00000000
00000000
00000010
00000000
00000000
00000000
00000000
00000000
00000000
00000000
00000110
00000000
00000000
00000000
00000000
00000000
00000000
00000000
00000000
00000000
00000000
00000000
00000000
00000000
00000000
00000000
,
00010200
00000000
00000000
00000000
00000000
00000000
00000000
00000000
00000000
00000000
00000000
00000000
00000000
00000000
00000000
00000300
00001200
00000000
00000000
00000000
00000000
00000000
00000000
00000000
00000000
00000000
00000000
00000000
00000000
00000000
00000000
00000300
00010200
00000000
00000000
00000000
00000000
00000000
00000000
00000000
00000000
00000000
00000000
00000000
00000000
00000000
00000000
00000300
01000200
00000000
00000000
00000000
00000000
00000000
00000000
00000000
00000000
00000000
00000000
00000000
00000000
00000000
00000000
00000300
,
00000200
00000000
00000000
00000000
00000000
00000000
00000000
00000000
02000300
00000000
00000000
00000000
00000000
00000000
00000000
03000000
01000100
00000000
00000000
00000000
00000000
00000000
00000000
00000000
00000000
00000000
00000000
00000000
00000000
00000000
00000000
00000000
00021000
00000000
00000000
00000000
00000000
00000000
00000000
00000000
00031000
00000000
00000000
00000000
00010000
00000000
00000000
00000000
00002000
00000000
00000000
00000000
00000000
00000000
00000000
00003000
00002000
00000000
00000000
00000000
00000000
00000000
00000000
00003000
,
00201000
00000000
00000000
00000000
00000000
00000000
00000000
00000000
00000000
00000000
00000000
00000000
00000000
00000000
00000000
00300000
00210000
00000000
00000000
00000000
00000000
00000000
00000000
00000000
00000000
00000000
00000000
00000000
00000000
00000000
00000000
00300000
00201000
00000000
00000000
00000000
00000000
00000000
00000000
00000000
00300020
00000000
00000000
00000000
00000000
00000000
00000000
00000000
00100030
00000000
00000000
00000000
00010000
00000000
00000000
00000000
10000000
00000000
00000000
00000000
00000000
00000000
00000000
00000000
,
00100000
00000000
00010000
00001000
00000010
00000000
00000100
00001000
00000001
00000000
00000100
00001000
00010000
00000000
00001000
00000000
,
00021000
00000000
00001000
00030200
00000000
00001000
00020300
00000000
,
00001000
00030200
00000000
00001000
00010300
01000000
10000000
00100000
,
00020000
00000000
00001000
00030020
00000000
00001000
00020030
00000000
,
00001000
00030020
00000000
00001000
00010030
00001000
00000100
00000001
,
00000010
00000010
00000010
00000010
00000110
00000000
00001001
00000000
,
00001001
00000000
00000000
00000000
00000001
00000100
00000001
00000100
00000001
00000000
00001000
00000000
00000100
00000000
00000000
00000000
,
00010000
00001000
00010000
00001000
01000000
00000000
00001000
00010000
00001000
00010000
00000100
00000000
00010000
00001000
00010000
00000000
,
01000000
00000000
10000000
00100000
01000000
00000000
00100000
00000000
10000000
00000000
10000000
00000000
00010000
00000000
00010000
00000000
,
10010000
00000000
10000000
01000000
00100000
00010000
10000000
01000000
,
10000000
00000000
00100000
00010000
00001000
00000100
00000010
00001000
,
00000001
00000000
00000001
00000010
00000100
00001000
00000001
00000100
,
00000001
00000000
00000100
00001000
00010000
00100000
10000000
00000000
,
10010000
00000000
10000000
00100000
01000000
00010000
10000000
01000000
,
10000000
00000000
01000000
00010000
00001000
00000010
00000100
00001000
,
00000001
00000000
00000001
00000100
00001000
00010000
01000000
10000000
,
00020000
00000000
00100000
20030000
00000000
00000000
30200000
00000000
,
02300000
00000000
10000000
00000000
00100000
00000000
03010000
10000000
,
00020000
00000000
00000000
20030000
00000000
00000000
32000000
00000000
,
03020000
00000000
00031000
00000100
00000001
00000010
00000100
00001000
,
00020000
00000000
10030000
00100000
01000000
00010000
10000000
01000000
,
00020000
01000000
00001000
00000100
,
00032000
00000000
00003100
00000020
00000001
00000000
00000230
00000000
,
00000302
00000010
00001000
00000100
,
00001003
00000100
00020000
00000000
00031000
00010000
01000000
00100000
,
00010000
10000000
00100000
00000000
01000000
00000000
00100000
10000000
,
00000000
00000000
00010000
00100000
00010000
00000000
00000000
00000000
00100000
00000000
00001000
00010000
00000000
00001000
00000100
00000000
,
00000001
00000010
00000100
00000000
00000010
00000000
00000001
00000100
,
00000000
00000000
00001000
00000000
00010000
00000000
00001000
00000000
01000000
00000000
00100000
10000000
00000000
00010000
01000000
00000000
,
00100000
00010000
00001000
00000100
00000010
00001000
00000001
00000001
,
00000010
00001000
00010000
01000000
00200000
00310000
20000000
30010000
,
10000000
00000000
10000000
00000000
01000000
00000000
01000000
00000000
00010000
00001000
00010000
00001000
00010000
00001000
00010000
00001000
,
00010000
00000000
00001000
00000000
00000100
00000000
00000001
00000000
00001000
00000100
00000010
00000001
00001000
00000000
00000000
00000000
,
00000001
00000000
00000010
00000100
00001000
00000000
00000001
00000000
00000100
00000000
00001000
00010000
00001000
00000000
00100000
00000000
,
00010000
00000000
01000000
00100000
10000000
00000000
01000000
00000000
00100000
00000000
00010000
10000000
00000000
00010000
01000000
00000000
,
00010000
00000000
10000000
01000000
00100000
00000000
01000000
00000000
10000000
00000000
00100000
00000000
10200000
00000000
00000000
00000000
,
00310000
00000000
00001000
00000100
00000010
00000000
00001000
00000100
00010000
00000000
00000000
00011000
00000000
00000000
01001000
00000000
,
01000000
00000000
00010000
00000000
10010000
00000000
10000000
00000000
01000000
00000000
00100000
00010000
10000000
00000000
00100000
00000000
,
00010000
00000000
00001000
00000010
00000100
00000000
00000010
00000000
00000011
00000000
00000001
00001000
00000000
00000001
00000100
00000000
,
00000001
00000000
00000010
00000100
00001000
00000000
00000001
00000100
00000010
00000000
00000010
00000000
00020010
00000000
00000000
00000000
,
00031000
00000000
00000100
00000010
00001000
00000000
00000100
00000010
00000001
00000000
00001000
00000000
00001001
00000000
00000000
00000000
,
00000001
00000000
00000100
00001000
00000100
00000000
00001000
00000000
00010000
00000000
00100000
00000000
10000000
00000000
01000000
00000000
,
10000000
00000000
01000000
00100000
00010000
00000000
00001000
00000001
00000100
00000000
00000001
00000010
00000000
00000001
00001000
00000000
,
00000001
00000000
00000010
00001000
00000010
00000000
00000100
00000000
00001000
00000000
00000001
00000100
00000000
00001000
00010000
00000000
,
01000000
00000000
10000000
00100000
01000000
00000000
00010000
00000000
00001000
00000000
00000001
00000100
00000000
00000001
00001000
00000001
,
00000100
00000100
00000100
00000100
00000110
00000000
00011000
00000000
,
00011000
00000000
00000000
00000000
00010000
00000100
00010000
00001000
00010000
00000000
00010000
00000000
00010000
00000000
00000000
00000000
,
01000000
10000000
01000000
10000000
00010000
00000000
01000000
00010000
01000000
00010000
00100000
00000000
00001000
00010000
00001000
00000000
,
00000100
00000000
00000001
00000010
00000100
00000000
00001000
00000000
00010000
00000000
10000000
00100000
00010000
00000000
00001000
00000000
,
00022000
00033000
00000000
00000000
;
