#TITLE:Suomi;
#SUBTITLE:;
#ARTIST:Aire;
#TITLETRANSLIT:;
#SUBTITLETRANSLIT:;
#ARTISTTRANSLIT:;
#GENRE:;
#CREDIT:;
#MUSIC:Suomi.ogg;
#BANNER:Suomi-banner.png;
#BACKGROUND:Suomi-bg.png;
#CDTITLE:;
#SAMPLESTART:32.676;
#SAMPLELENGTH:15.360;
#SELECTABLE:YES;
#OFFSET:-0.036;
#BPMS:0.000=125.000;
#STOPS:;
#BGCHANGES:;
#FGCHANGES:;

//--------------- dance-single - Cremie ----------------
#NOTES:
     dance-single:
     Cremie:
     Beginner:
     3:
     0,0,0,0,0:
0000
0000
0000
0000
,
0000
0000
0000
0000
,
0000
0000
0000
0000
,
0000
0000
0000
0000
,
0000
0000
0000
0000
,
1000
0000
0000
0000
,
1000
0000
0000
0000
,
0001
0000
0000
0000
,
0001
0000
0000
0000
,
1000
0000
0000
0000
,
0010
0000
0000
0000
,
0100
0000
0000
0000
,
0001
0000
0000
0000
,
1000
0000
1000
0000
,
0010
0000
0010
0000
,
0100
0000
0001
0000
,
1001
0000
0000
0000
,
1000
0000
0001
0000
,
0010
0000
0100
0000
,
1000
0000
0001
0000
,
1000
0000
0010
0010
,
0010
0000
0100
0000
,
0010
0000
1000
0000
,
0001
0000
0010
0000
,
0100
0000
2000
3000
,
0001
0000
1000
0000
,
0100
0000
0010
0000
,
0001
0000
1000
0000
,
0001
0000
0100
0100
,
0100
0000
0010
0000
,
0100
0000
0001
0000
,
1000
0000
0100
0000
,
0010
0000
0002
0003
,
2002
0000
0000
0000
,
0000
0000
0000
0000
,
3003
0000
0000
0000
,
0000
0000
0000
0000
,
0001
0000
0000
0000
,
0100
0000
0000
0000
,
0001
0000
0000
0000
,
1000
0000
0000
0000
,
0001
0000
0000
0000
,
0100
0000
0000
0000
,
0010
0000
0000
0000
,
1000
0000
0000
0000
,
0001
0000
0001
0000
,
0100
0000
0100
0000
,
0010
0000
1000
0000
,
1001
0000
0000
0000
,
0001
0000
1000
0000
,
0010
0000
0100
0000
,
0001
0000
0100
0000
,
0001
0000
1000
1000
,
1000
0000
0100
0000
,
0010
0000
0001
0000
,
1000
0000
0010
0000
,
0100
0000
0002
0003
,
1000
0000
0001
0000
,
0100
0000
0010
0000
,
1000
0000
0100
0000
,
0010
0000
0001
0001
,
0001
0000
0010
0000
,
0100
0000
1000
0000
,
0001
0000
0100
0000
,
0010
0000
2000
3000
,
1001
0000
0000
0000
;

//--------------- dance-single - Cremie ----------------
#NOTES:
     dance-single:
     Cremie:
     Easy:
     6:
     0,0,0,0,0:
0000
0000
0000
0000
,
0000
0000
0000
0000
,
0000
0000
0000
0000
,
0000
0000
0000
0000
,
0000
0000
0000
0000
,
1000
0000
0000
0000
,
1000
0000
0000
0000
,
0001
0000
0000
0000
,
0001
0000
0000
0000
,
0100
0000
0000
0001
0000
0000
0000
0000
,
1000
0000
0000
0010
0000
0000
0000
0000
,
1000
0000
0000
0100
0000
0000
0000
0000
,
0010
0000
0000
0001
0000
0000
0000
0000
,
0100
0100
0010
0010
,
1000
1000
0001
0001
,
1000
0001
0100
0001
,
1001
0000
0000
0000
,
0001
0001
0010
0001
,
1000
1000
1000
0000
,
0001
0100
0001
1000
,
0100
0100
0020
0230
,
0310
0001
1000
0001
,
0010
0010
0010
0000
,
0001
0100
0010
1000
,
0100
0010
0002
0003
,
1000
1000
0010
1000
,
0001
0001
0001
0000
,
1000
0100
1000
0001
,
0100
0100
0020
0230
,
0310
1000
0001
1000
,
0010
0010
0010
0000
,
1000
0100
0010
0001
,
0100
0010
1000
0001
,
2002
0000
0000
0000
,
0000
0000
0000
0000
,
3003
0000
0000
0000
,
0000
0000
0000
0000
,
0001
0000
0000
0100
0000
0001
0000
0000
,
0100
0000
0000
0010
0000
1000
0000
0000
,
0010
0000
0000
1000
0000
0100
0000
0000
,
1000
0000
0000
0001
0000
0100
0000
0000
,
0001
0000
0000
0010
0000
0000
0000
0000
,
0100
0000
0000
1000
0000
0000
0000
0000
,
0010
0000
0000
0100
0000
0000
0000
0000
,
0001
0000
0000
1000
0000
0000
0000
0000
,
0001
0001
0100
0100
,
0010
0010
1000
1000
,
0001
1000
0010
0100
,
0110
0000
0000
0000
,
0010
1000
0001
0010
,
0100
1000
0100
0000
,
1000
0010
0100
0001
,
0010
0001
0200
0320
,
0130
0001
1000
0100
,
0010
0001
1000
0000
,
0001
0100
0001
1000
,
0100
0010
0200
0300
,
0010
0001
1000
0010
,
0100
0001
0100
0000
,
0001
0010
0100
1000
,
0010
1000
0200
0320
,
0130
1000
0001
0100
,
0010
1000
0001
0000
,
1000
0100
1000
0001
,
0100
0010
0200
0300
,
1001
0000
0000
0000
;

//--------------- dance-single - Cremie ----------------
#NOTES:
     dance-single:
     Cremie:
     Medium:
     8:
     0,0,0,0,0:
0000
0000
0000
0000
,
0000
0000
0000
0000
,
0000
0000
0000
0000
,
0000
0000
0000
0000
,
0000
0000
0000
0000
,
1000
0010
1000
0010
,
0100
0001
0100
0001
,
0010
0001
0010
0001
,
1000
0001
1000
0001
,
1000
0000
0000
0000
0000
0000
0100
0000
0000
0000
0010
0000
0000
0001
0000
0000
,
1000
0000
0000
0000
0000
0000
0010
0000
0000
0000
0100
0000
0000
0001
0000
0000
,
0010
0000
0000
0000
0000
0000
0001
0000
0000
0000
0100
0000
0000
0010
0000
0000
,
1000
0000
0000
0001
0000
0010
0100
0000
,
1000
0100
1000
0000
0001
0100
0001
0000
,
0100
0010
0100
0000
0010
0100
0010
0000
,
1000
0000
0010
0000
0100
0000
0001
0000
0010
0000
0000
0100
0000
0000
1000
0000
,
0000
0000
0000
0000
,
1000
0000
0010
1000
0001
0000
0010
0000
,
0001
0100
0001
0100
0010
0000
1000
0000
,
0001
0000
0010
0100
0010
0000
0001
0000
,
1000
0010
0100
0010
2000
0000
3100
0000
,
1001
0000
0001
0100
0001
0000
0010
0000
,
0100
1000
0100
0010
0100
0000
1000
0000
,
0001
0000
0100
0001
0010
0000
0100
0000
,
1000
0001
1000
0001
2000
0000
3002
0000
,
0103
0000
0001
1000
0010
0000
1000
0000
,
0100
0010
0100
0010
0001
0000
1000
0000
,
0010
0000
0100
0010
1000
0000
0001
0000
,
0010
0100
0010
0100
2000
0000
3001
0000
,
1001
0000
1000
0010
0100
0000
0010
0000
,
0100
0001
0010
0001
0100
0000
0010
0000
,
1000
0000
0001
0010
0100
0000
0010
0000
,
0100
1000
0001
0000
1000
0001
1000
0000
,
2100
0000
0000
0000
,
3002
0000
0000
0000
,
0203
0000
0000
0000
,
0320
0000
0000
0030
,
1020
0000
0000
0000
,
0230
0000
0000
0000
,
0302
0000
0000
0000
,
2003
0000
0000
0000
,
3100
0000
0000
0000
0000
0000
0010
0000
0000
0000
0100
0000
0000
1000
0000
0000
,
0001
0000
0000
0000
0000
0000
0100
0000
0000
0000
0010
0000
0000
1000
0000
0000
,
0010
0000
0000
0000
0000
0000
0100
0000
0000
0000
0001
0000
0000
1000
0000
0000
,
0100
0000
0000
0010
0000
0001
1000
0000
,
0010
0100
0010
0000
1000
0001
1000
0000
,
0001
0010
0100
0000
0010
0100
1000
0000
,
0001
0000
0010
0000
0100
0000
1000
0000
0001
0000
0000
1000
0000
0000
0100
0000
,
0000
0000
0000
0000
,
1000
0000
0001
0100
0010
0000
0100
0000
,
0001
1000
0010
1000
0100
0000
0010
0000
,
0001
0000
1000
0010
0100
0000
0001
0000
,
1000
0100
1000
0001
0020
0000
0130
0000
,
1100
0000
1000
0001
0010
0000
0001
0000
,
0100
0001
1000
0010
0100
0000
0010
0000
,
1000
0000
0100
0010
0001
0000
1000
0000
,
0001
0010
0100
1000
0002
0000
1003
0000
,
0001
0000
1000
0010
0100
0000
0010
0000
,
1000
0001
0100
0001
0010
0000
0100
0000
,
1000
0000
0001
0100
0010
0000
1000
0000
,
0001
0010
0001
1000
0200
0000
0310
0000
,
0011
0000
0001
1000
0100
0000
1000
0000
,
0010
1000
0001
0100
0010
0000
0100
0000
,
0001
0000
0010
0100
1000
0000
0001
0000
,
1000
0100
0010
0001
2000
0000
3001
0000
,
1001
0000
0000
0000
;

//--------------- dance-single - Cremie ----------------
#NOTES:
     dance-single:
     Cremie:
     Hard:
     13:
     0,0,0,0,0:
0000
0000
0000
0000
,
0000
0000
0000
0000
,
0000
0000
0000
0000
,
0000
0000
0000
0000
,
0000
0000
0000
0000
,
1001
0000
0000
0000
0000
0000
0001
0000
0000
0000
1000
0000
0000
0100
0000
0000
,
1100
0000
0000
0000
0000
0000
0010
0000
0000
0000
0001
0000
0000
0100
0000
0000
,
0101
0000
0000
0000
0000
0000
0100
0000
0000
0000
0001
0000
0000
1000
0000
0000
,
1010
0000
0000
0010
0000
1000
0000
0000
,
0100
0000
1000
0000
0001
0000
0010
0000
0000
0000
0011
0000
0000
0101
0000
0000
,
0100
0000
0001
0000
1000
0000
0010
0000
0000
0000
1010
0000
0000
0101
0000
0000
,
0100
0000
0001
0000
1000
0000
0100
0000
0000
0000
0110
0000
0000
0011
0000
0000
,
0010
0001
1000
0100
0000
0110
1001
0000
,
1000
0100
0010
0001
1000
0100
0010
0001
,
1000
0010
0100
0001
1000
0010
0100
0001
,
0010
0100
0010
0100
1000
0001
1000
0001
0010
0100
0010
0100
1000
0001
1000
0001
,
2000
3200
0320
0031
,
0101
0000
0000
0000
0001
0010
0001
0100
0000
0010
0100
0000
0020
0000
2030
0000
,
3001
0000
0010
0000
0100
1000
0100
1000
0001
0000
1000
0000
0100
0000
0000
0000
,
1100
0000
0000
0000
1000
0100
1000
0010
0000
0100
0010
0000
0200
0000
0302
0000
,
1003
0000
0100
0000
1000
0010
1000
0000
1010
0000
0000
0000
0101
0000
0000
0000
,
0011
0000
0000
0000
0001
0100
0001
0010
0000
0100
0010
0000
0200
0000
2300
0000
,
3001
0000
0100
0000
0010
1000
0010
1000
0001
0000
1000
0000
0010
0000
0000
0000
,
1010
0000
0000
0000
1000
0010
1000
0100
0000
0010
0100
0000
0020
0000
0032
0000
,
1003
0000
0010
0000
1000
0100
1000
0000
0002
0000
0000
0000
1003
0000
0000
0000
,
1100
0000
0000
0000
1000
0010
0100
0001
0000
0010
0001
0000
0020
0000
0230
0000
,
1300
0000
0001
0000
0100
0010
0100
0010
1000
0000
0001
0000
0010
0000
0000
0000
,
0011
0000
0000
0000
0001
0010
0100
1000
0000
0010
1000
0000
0020
0000
0230
0000
,
0301
0000
1000
0000
0100
0010
0100
0000
1100
0000
0000
0000
0011
0000
0000
0000
,
1010
0000
0000
0000
1000
0100
0010
0001
0000
0100
0001
0000
0200
0000
0320
0000
,
1030
0000
0001
0000
0010
0100
0010
0100
1000
0000
0001
0000
0100
0000
0000
0000
,
0101
0000
0000
0000
0001
0100
0010
1000
0000
0100
1000
0000
0200
0000
0320
0000
,
0031
0000
1000
0000
0010
0100
0010
0000
1000
0001
1000
0001
1000
0000
0000
0000
,
1002
1000
0010
1000
,
0203
0001
0010
0001
,
0320
1000
0100
1000
,
2030
0100
0001
3100
,
2001
0001
0010
0001
,
3200
1000
0010
1000
,
0320
0001
0100
0001
,
0032
0100
1000
0103
,
0001
0000
1000
0000
0001
0000
0100
0000
0000
0000
0101
0000
0000
1100
0000
0000
,
1000
0000
0001
0000
1000
0000
0100
0000
0000
0000
1100
0000
0000
0101
0000
0000
,
0001
0000
0100
0000
0001
0000
1000
0000
0000
0000
1010
0000
0000
0011
0000
0000
,
0001
1000
0100
1000
0000
1100
1001
0000
,
0001
1000
0010
0100
0001
0010
0100
1000
,
0001
1000
0100
0010
0001
0100
0001
1000
,
0100
0010
0100
0010
0001
1000
0001
1000
0100
0010
0100
0010
0001
1000
0001
1000
,
0002
0203
0320
1030
,
1100
0000
0000
0000
1000
0100
1000
0001
0000
0010
0100
0000
2000
0000
3002
0000
,
0103
0000
0010
0000
1000
0001
0100
0001
0010
0000
0100
0000
1100
0000
0000
0000
,
0011
0000
0000
0000
0001
0010
0001
1000
0000
0100
0010
0000
0002
0000
2003
0000
,
3010
0000
0100
0000
0001
1000
0010
0000
1010
0000
0000
0000
0011
0000
0000
0000
,
0101
0000
0000
0000
0001
0100
0001
1000
0000
0010
0100
0000
0002
0000
2003
0000
,
3100
0000
0010
0000
0001
1000
0100
1000
0010
0000
0100
0000
0101
0000
0000
0000
,
1010
0000
0000
0000
1000
0010
1000
0001
0000
0100
0010
0000
2000
0000
3002
0000
,
0013
0000
0100
0000
1000
0001
0010
0000
0200
0000
0000
0000
1300
0000
0000
0000
,
1010
0000
0000
0000
1000
0010
1000
0001
0000
0100
0010
0000
2000
0000
3002
0000
,
0013
0000
0100
0000
1000
0001
0010
0001
0100
0000
0010
0000
1010
0000
0000
0000
,
0101
0000
0000
0000
0001
0100
0001
1000
0000
0010
0100
0000
0002
0000
2003
0000
,
3100
0000
0010
0000
0001
1000
0100
0000
1100
0000
0000
0000
0101
0000
0000
0000
,
0011
0000
0000
0000
0001
0010
0001
1000
0000
0100
0010
0000
0002
0000
2003
0000
,
3010
0000
0100
0000
0001
1000
0010
1000
0100
0000
0010
0000
0011
0000
0000
0000
,
1100
0000
0000
0000
1000
0100
1000
0001
0000
0010
0100
0000
2000
0000
3002
0000
,
0103
0000
0010
0000
1000
0001
0100
0000
0001
1000
0001
1000
0001
0000
0000
0000
,
1001
0000
0000
0000
;
