#VERSION:0.83;
#TITLE:Stronghold;
#SUBTITLE:;
#ARTIST:Lite Show Magic;
#TITLETRANSLIT:;
#SUBTITLETRANSLIT:;
#ARTISTTRANSLIT:;
#GENRE:;
#CREDIT:;
#MUSIC:Stronghold.ogg;
#BANNER:Stronghold.png;
#BACKGROUND:Stronghold-bg.png;
#CDTITLE:cdtitle.png;
#SAMPLESTART:38.400;
#SAMPLELENGTH:10.800;
#SELECTABLE:YES;
#OFFSET:0.000;
#BPMS:0.000=200.000;
#STOPS:;
#JACKET:Stronghold-jacket.png;
#BGCHANGES:;
#FGCHANGES:;

//--------------- dance-single - MEGAtive ----------------
#NOTEDATA:;
#STEPSTYPE:dance-single;
#DESCRIPTION:MEGAtive;
#DIFFICULTY:Beginner;
#METER:3;
#RADARVALUES:0,0,0,0,0;
#NOTES:
0000
0000
0000
0000
,
0000
0000
0000
0000
,
0000
0000
0000
0000
,
0000
0000
0000
0000
,
0000
0000
0000
0000
,
0001
0000
0000
0000
,
0000
0000
0000
0000
,
1000
0000
0000
0000
,
0010
0000
0000
0000
,
1001
0000
0000
0000
,
0000
0000
0000
0000
,
1001
0000
0000
0000
,
0000
0000
0000
0000
,
1001
0000
0000
0000
,
0110
0000
0000
0000
,
1001
0000
0000
0000
,
0000
0000
0000
0000
,
2001
0000
0000
0000
,
0000
0000
0000
0000
,
3020
0000
0000
0000
,
0000
0000
0030
0000
,
0200
0000
0000
0000
,
0000
0000
0000
0000
,
0302
0000
0000
0000
,
0003
0000
0000
0000
,
1000
0000
0000
0000
,
0100
0000
0000
0000
,
0010
0000
0000
0000
,
0001
0000
0000
0000
,
2000
0000
0000
0000
,
3020
0000
0000
0000
,
0230
0000
0000
0000
,
0301
0000
0000
0000
,
0001
0000
0010
0000
,
0001
0000
0000
0000
,
1000
0000
0010
0000
,
1000
0000
0000
0000
,
0001
0000
0100
0000
,
0001
0000
0000
0000
,
1000
0000
0100
0000
,
2000
0000
3000
0000
,
0001
0000
0001
0000
,
0001
0000
0000
0000
,
0100
0000
0100
0000
,
0100
0000
0000
0000
,
0020
0000
0000
0000
,
2030
0000
0000
0000
,
3002
0000
0000
0000
,
1003
0000
0000
0000
,
2001
0000
0000
0000
,
0000
0000
0000
0000
,
0000
0000
0000
0000
,
0000
0000
3000
0000
,
0000
0002
0000
0000
,
0000
0000
0000
0000
,
0000
0000
0000
0000
,
0000
0000
0003
0000
,
1000
0000
0000
0000
,
0010
0000
0000
0000
,
0100
0000
0000
0000
,
0001
0000
0000
0000
,
2000
0000
0000
0000
,
3200
0000
0000
0000
,
0320
0000
0000
0000
,
0031
0000
0000
0000
,
1000
0000
1000
0000
,
0010
0000
0000
0000
,
0100
0000
0100
0000
,
0001
0000
0000
0000
,
1000
0000
1000
0000
,
0100
0000
0000
0000
,
0010
0000
0010
0000
,
0002
0000
0000
0000
,
0103
0000
0100
0000
,
0100
0000
0000
0000
,
0010
0000
0010
0000
,
0010
0000
0000
0000
,
1000
0000
1000
0000
,
1000
0000
0000
0000
,
0001
0000
0001
0000
,
0002
0000
0000
0000
,
1003
0000
0000
0000
,
0100
0000
0000
0000
,
0010
0000
0000
0000
,
0001
0000
0000
0000
,
2000
0000
0000
0000
,
3020
0000
0000
0000
,
0230
0000
0000
0000
,
0301
0000
0000
0000
,
1001
0000
0000
0000
,
0000
0000
0000
0000
,
1001
0000
0000
0000
,
0000
0000
0000
0000
,
1001
0000
0000
0000
,
0110
0000
0000
0000
,
2002
0000
0000
0000
,
3003
0000
0000
0000
,
2002
3003
0000
0000
;

//--------------- dance-single - MEGAtive ----------------
#NOTEDATA:;
#STEPSTYPE:dance-single;
#DESCRIPTION:MEGAtive;
#DIFFICULTY:Easy;
#METER:7;
#RADARVALUES:0,0,0,0,0;
#NOTES:
0000
0000
0000
0000
,
0000
0000
0000
0000
,
0000
0000
0000
0000
,
0000
0000
0000
0000
,
0000
0000
0000
0000
,
1010
0000
1000
0000
,
1000
0000
1000
0000
,
0001
0000
0010
0000
,
0200
0000
1300
0000
,
1002
0000
0000
0000
1000
0000
0000
0010
,
0000
0010
0000
0000
0003
0000
0000
0000
,
2001
0000
0000
0000
0001
0000
0000
0010
,
0000
0010
0000
0000
3000
0000
0000
0000
,
1001
0000
0110
0000
,
1002
0000
0000
0100
0000
0103
0000
0000
,
2002
3003
0000
0000
,
0000
0000
0000
0000
,
1000
0000
0100
0000
,
0001
0000
0100
0000
,
1000
0000
0100
0000
,
0001
0000
0100
0000
,
1000
0000
0010
0000
,
0001
0000
0010
0000
,
1000
0000
0010
0000
,
0001
0000
0010
0000
,
1000
0010
1000
0000
,
0001
0000
0001
0000
,
1000
0100
1000
0000
,
0001
0000
0001
0000
,
1000
0010
1000
0000
,
0001
0010
0001
0000
,
2000
0000
0000
0000
,
3001
0000
0000
0000
,
0001
0000
1000
1000
,
1000
0000
0020
0030
,
1000
0000
0001
0001
,
0001
0000
0010
0100
,
0010
0000
0001
0001
,
0001
0000
0200
0300
,
0010
0000
1000
1000
,
2000
0000
3001
0000
,
1000
0010
1000
0010
,
1000
0000
0001
0000
,
1000
0001
1000
0001
,
1000
0000
0100
0000
,
0010
0001
0010
0000
,
0001
0100
0001
0000
,
2000
0000
0000
0000
,
3010
0000
0000
0000
,
1002
0000
0000
0000
,
0000
0000
0000
0000
,
0020
0000
0000
0000
,
0000
0000
0033
0000
,
0000
2000
0000
0000
,
0000
0000
0000
0000
,
0020
0000
0000
0000
,
0000
0000
3030
0000
,
1000
0000
1000
0000
,
1000
0000
0000
0000
,
0001
0000
0001
0000
,
0001
0000
0000
0000
,
1000
0100
1000
0000
,
0001
0100
0001
0000
,
1000
0100
0010
0000
,
0002
0000
0000
1003
,
0001
0001
0100
0000
,
1000
0000
0100
0000
,
0010
0010
0100
0000
,
0001
0001
0001
0000
,
0010
0010
0100
0000
,
0001
0000
0100
0000
,
1000
1000
0001
1000
,
0020
0000
0000
0000
,
0130
0100
0010
0000
,
0001
0000
0010
0000
,
0100
0100
0001
0000
,
1000
1000
1000
0000
,
0100
0100
0010
0000
,
1000
0000
0010
0000
,
0001
0001
1000
0001
,
0200
0000
0000
0000
,
0301
0100
0001
0000
,
1000
0100
1000
0000
,
0001
0000
0100
0000
,
1000
0000
0100
0000
,
0001
0010
0001
0000
,
1000
0010
1000
0000
,
0001
0100
0010
1000
,
0002
0000
0003
1000
,
2000
0000
0000
0000
0001
0000
0000
0100
,
0000
0100
0000
0000
3000
0000
0000
0000
,
0002
0000
0000
0000
1000
0000
0000
0100
,
0000
0100
0000
0000
0003
0000
0000
0000
,
1001
0000
0110
0000
,
2001
0000
0000
0100
0000
3100
0000
0000
,
0022
0000
0000
0033
0000
0000
0000
0000
,
0000
0000
0000
0000
,
2002
3003
0000
0000
;

//--------------- dance-single - MEGAtive ----------------
#NOTEDATA:;
#STEPSTYPE:dance-single;
#DESCRIPTION:MEGAtive;
#DIFFICULTY:Medium;
#METER:11;
#RADARVALUES:0,0,0,0,0;
#NOTES:
0000
0000
0000
0000
,
0000
0000
0000
0000
,
0000
0000
0000
0000
,
0000
0000
0000
0000
,
0000
0000
0000
0000
,
1001
0000
0001
0010
,
0100
1000
0001
0100
,
0202
0303
2002
3003
,
2100
0000
0000
0000
3100
0010
0001
0000
,
2002
0000
3003
0000
0101
0000
0000
1010
,
0000
1010
0000
0000
0000
0000
0000
0000
,
2002
0000
3003
0000
1100
0000
0000
0011
,
0000
0011
0000
0000
0000
0000
0000
0000
,
2002
3003
0220
0330
,
1001
0000
0010
0100
0000
0110
0000
0000
,
2002
3003
0000
0000
,
0001
0100
0010
1000
0000
2002
0000
3003
,
0001
0100
0001
0100
0001
0100
0001
0100
,
0001
0100
0001
0100
0001
0100
0020
0000
,
1030
0100
1000
0100
1000
0100
1000
0100
,
1000
0000
0001
0010
0100
0000
2000
0000
,
3010
0100
0010
0100
0010
0100
0010
0100
,
0010
0100
0010
0100
0010
0100
0020
0000
,
1030
0001
1000
0001
1000
0001
1000
0001
,
2000
0000
3001
0000
,
0010
0100
0010
0000
0001
0000
0001
0000
,
0100
0010
0100
0000
0001
0000
0001
0000
,
0010
0100
0010
0000
0001
0000
0001
0000
,
0100
0010
0100
0000
0001
0000
0001
0000
,
1000
0100
0010
0000
0001
1000
0010
0000
,
0100
0001
1000
0000
0001
0010
0100
0000
,
1000
0001
1000
0001
0100
0010
0100
0010
,
1000
1000
1000
1001
,
0001
0010
0001
0000
0100
0000
1000
0000
,
0100
0010
0100
0000
0001
0000
0020
0000
,
0130
1000
0100
0000
0001
0000
0100
0000
,
1000
0001
0100
0000
0010
0000
0010
0100
,
0001
1000
0001
0000
0010
0000
1000
0000
,
0010
0100
0010
0000
0001
0000
0200
0000
,
0310
1000
0010
0000
0001
0000
0010
0000
,
0200
0000
0310
0000
,
1000
0001
0010
0000
1000
0000
0010
0000
,
0100
0010
0100
0000
1000
0000
0020
0000
,
0130
0001
1000
0000
0100
0000
0001
0000
,
0100
0010
0100
0000
1000
0001
0100
0010
,
1000
0001
0010
0000
0100
1000
0001
0000
,
0100
0010
0100
0010
1000
0001
1000
0001
,
1000
0100
1000
0100
0010
0001
0010
0001
,
0100
0100
0100
0110
,
2001
0000
0000
0000
,
3002
0000
0000
0000
,
0023
0000
0000
0000
,
0200
0000
0330
0000
,
0000
2000
0000
0000
,
3020
0000
0000
0000
,
0230
0000
0000
0000
,
0002
0000
0303
0000
,
1000
0100
1000
0100
,
0010
0001
0010
0001
,
1000
0001
0100
0001
,
1000
0100
1000
0001
,
1000
0010
0100
0000
0001
0010
0100
0000
,
1000
0001
0100
0000
0010
1000
0001
0000
,
0010
0100
0010
0100
1000
0001
1000
0001
,
0100
0100
0100
1001
,
0001
0010
0001
1000
0100
0000
0010
0000
,
0100
1000
0010
0100
0010
0000
1000
0000
,
0001
1000
0100
0010
0100
0000
1000
0000
,
0002
0100
0000
0100
0000
0100
0203
0000
,
0301
1000
0010
1000
0001
0000
0010
0000
,
0100
0010
0001
0010
0100
0000
1000
0000
,
0001
1000
0010
0100
0010
0000
1000
0000
,
0002
0000
0103
0000
,
0010
0100
0001
1000
0001
0000
0010
0000
,
0100
0010
0100
1000
0001
0000
0100
0000
,
0010
0100
0001
1000
0010
0000
0100
0000
,
0002
1000
0000
1000
0000
1000
2003
0000
,
3100
0010
0001
0010
0100
0000
1000
0000
,
0001
0100
0010
0100
0001
0000
1000
0000
,
0001
1000
0100
0010
0001
1000
0001
1000
,
0020
0000
0200
0330
,
1001
0001
0010
1000
,
0010
0000
0001
0000
0010
0000
0100
1000
,
0010
0001
0010
1000
,
0020
0100
0000
0100
0000
0100
0230
0000
,
0310
1000
0010
0000
0100
0001
1000
0000
,
0001
0010
0001
0000
1000
0001
0100
0000
,
0010
1000
0010
1000
0001
0010
0001
0010
,
0100
0100
0100
0110
,
1001
0000
0000
0000
0011
0000
0000
1100
,
0000
1100
0000
0000
0000
0000
0000
0000
,
1001
0000
0000
0000
1010
0000
0000
0101
,
0000
0101
0000
0000
0000
0000
0000
0000
,
0011
0000
1100
0000
,
0011
0000
1000
0100
0000
1100
0000
0000
,
2002
3003
0000
0000
,
1000
0100
0010
0001
0000
2002
0000
3003
,
0220
0330
0000
0000
;

//--------------- dance-single - MEGAtive ----------------
#NOTEDATA:;
#STEPSTYPE:dance-single;
#DESCRIPTION:MEGAtive;
#DIFFICULTY:Hard;
#METER:14;
#RADARVALUES:0,0,0,0,0;
#NOTES:
0000
0000
0000
0000
,
0000
0000
0000
0000
,
0000
0000
0000
0000
,
0000
0000
0000
0000
,
0000
0000
0000
0000
,
0202
0000
0303
0001
0100
0001
0100
0010
,
1000
0001
1000
0100
0020
0000
0130
0000
,
2100
3001
2010
3002
,
0023
0000
0000
0000
0230
2000
0000
3300
,
2002
0000
3003
0000
0201
0000
0000
1000
,
0000
0020
0000
0330
0000
0000
0000
0000
,
2002
0000
3003
0000
0021
0000
0000
1000
,
0000
0200
0000
0330
0000
0000
0000
0000
,
2001
3010
1002
0013
,
2001
0000
0100
3100
0000
0022
0000
0033
,
2001
0000
0010
0000
3002
0000
0000
1003
,
1000
0100
0010
0001
0000
0201
0000
0000
,
0310
1000
0001
1000
0100
1000
0001
1000
,
0010
1000
0001
1000
0100
1000
0002
0000
,
0103
0001
1000
0001
0010
0001
1000
0001
,
0200
0300
0100
0010
1000
0000
0002
0000
,
0013
0100
1000
0100
0010
0001
1000
0001
,
0010
0100
1000
0100
0010
0001
2000
0000
,
3010
0100
0001
0100
0010
1000
0001
1000
,
0200
0000
1300
0000
,
1000
0100
0001
0000
0110
0000
1100
0000
,
0001
0010
1000
0000
0110
0000
0011
0000
,
0001
0100
1000
0000
0110
0000
0101
0000
,
1000
0010
0001
0000
0110
0000
2010
0000
,
3001
0010
0100
0010
0001
0100
0010
0100
,
0001
1000
0100
0010
0100
1000
0001
0100
,
0010
0010
1000
1000
0001
0001
0010
0010
,
0100
0100
0100
1001
,
1000
0000
0010
0000
0100
0000
0001
0010
0000
0100
0000
0010
0001
0000
1000
0000
,
0001
0000
0010
0000
0100
0000
1000
0010
0000
0100
0000
0010
2000
0000
0000
0000
,
3001
0000
0100
0000
0010
0000
1000
0100
0000
0010
0000
0100
1000
0000
0001
0000
,
0100
0100
0100
0000
1000
0100
0001
0010
,
0100
0000
1000
0000
0001
0000
0010
0100
0000
1000
0000
0100
0010
0000
0001
0000
,
1000
0000
0010
0000
0100
0000
0001
1000
0000
0010
0000
1000
0002
0000
0000
0000
,
0103
0000
0010
0000
1000
0000
0001
0010
0000
0100
0000
0010
0001
0000
1000
0000
,
0200
0000
0310
0000
,
0001
0000
0010
0000
0100
0000
1000
0010
0000
0100
0000
0001
0100
0000
0010
0000
,
1000
0000
0001
0000
0100
0000
0010
1000
0000
0001
0000
0010
0002
0000
0000
0000
,
1003
0000
0100
0000
0010
0000
0001
1000
0000
0010
0000
0100
0001
0000
1000
0000
,
0100
0100
0100
0000
0001
0100
1000
0010
,
0100
0001
0101
0000
1000
0100
1100
0000
,
0001
0000
0010
0000
0001
0000
1000
0000
0001
0000
0100
0010
0100
0000
0001
0000
,
1000
0100
0001
1000
0010
0100
1000
0001
,
0100
0100
0100
0110
,
2001
0000
3200
0000
0320
0032
0000
0203
,
0000
0320
0230
0000
0302
0000
2003
3200
,
0320
0000
0032
0203
0000
0000
0000
0000
,
0000
0000
0300
0000
,
0000
0000
0002
0000
0203
0320
0000
2030
,
0000
3200
0320
0000
0230
0000
2300
0000
,
3002
0000
2003
3020
0000
0000
0000
0000
,
0000
0000
0030
0000
,
1000
0010
1000
0010
,
0100
0000
0001
0000
0100
0000
0001
1000
,
0100
0010
0100
0010
,
0001
0000
1000
0000
0001
0000
1000
0010
,
0100
0001
1000
0001
0010
0100
1000
0010
,
1000
0001
0010
0100
1000
0001
0100
0001
,
1000
1000
0100
0100
0010
0010
0001
0001
,
0100
0100
0100
1001
,
0001
0000
0010
0000
0100
0000
1000
0000
0010
0000
0000
0001
0000
0000
0010
0000
,
0100
0000
0001
0000
1000
0000
0100
0000
0010
0000
0000
1000
0000
0000
0010
0000
,
0100
0000
1000
0000
0001
0000
0100
0000
0010
0000
0000
0001
0000
0000
0010
0000
,
1000
0200
1300
0020
1030
0100
0200
0000
,
0310
0000
0001
0000
1000
0000
0010
0000
0100
0000
0000
1000
0000
0000
0100
0000
,
0010
0000
1000
0000
0001
0000
0010
0000
0100
0000
0000
0001
0000
0000
0100
0000
,
0010
0000
0001
0000
1000
0000
0001
0000
0100
0000
0000
1000
0000
0000
0100
0000
,
0010
0000
0000
0010
0000
0000
0010
0000
2000
0000
0000
0000
0000
0000
0000
0000
,
3010
0000
0100
0000
0001
0000
0010
0000
0100
0000
0000
0001
0000
0000
0100
0000
,
0010
0000
0001
0000
1000
0000
0010
0000
0100
0000
0000
1000
0000
0000
0100
0000
,
0010
0000
1000
0000
0001
0000
1000
0000
0100
0000
0000
0001
0000
0000
0100
0000
,
1000
0020
1030
0200
1300
0010
0020
0000
,
0130
0000
0001
0000
1000
0000
0100
0000
0010
0000
0000
1000
0000
0000
0010
0000
,
0100
0000
1000
0000
0001
0000
0100
0000
0010
0000
0000
0001
0000
0000
0010
0000
,
0100
0001
1000
0100
0010
0001
1000
0001
,
0200
0000
0310
0000
,
1010
0000
0010
1000
0100
0001
0000
0120
,
0000
0031
2000
0000
3001
0010
0100
1000
,
0002
0000
1003
0020
0100
0000
0100
0000
,
0230
0001
0000
0010
0000
0001
0302
0000
,
0013
0100
0010
0100
1000
0001
1000
0001
,
0100
0010
1000
0001
0010
0100
1000
0001
,
0100
0100
0010
0010
1000
1000
0001
0001
,
0010
0010
0010
1001
,
2020
0000
3030
0000
0220
0000
0030
1000
,
0000
0002
0000
0000
0303
0000
0000
0000
,
0022
0000
0033
0000
0210
0000
0000
0001
,
0000
2000
0000
0000
3300
0000
0000
0000
,
0012
1003
0102
1003
,
2100
0000
3001
0200
0000
0020
0000
0330
,
1002
0000
0010
0000
2003
0000
0000
3001
,
0001
0100
0010
1000
0000
2200
0000
3300
,
2002
3003
0000
0000
;

//--------------- dance-single - MEGAtive ----------------
#NOTEDATA:;
#STEPSTYPE:dance-single;
#DESCRIPTION:MEGAtive;
#DIFFICULTY:Challenge;
#METER:17;
#RADARVALUES:0,0,0,0,0;
#NOTES:
0000
0000
0000
0000
,
0000
0000
0000
0000
,
0000
0000
0000
0000
,
0000
0000
0000
0000
,
0000
0000
0000
0000
,
2200
0000
3300
0001
1000
0010
1000
0001
,
0010
0100
1000
0010
0200
0000
0310
1000
,
0001
0010
0100
1000
0001
0100
0010
1000
,
0200
0000
0000
0000
0000
0000
0000
0000
1300
0000
0001
0010
0001
0010
0001
0010
,
0200
0000
0300
0000
1001
0000
0000
0110
,
0000
2002
0000
3003
0000
0000
0000
0000
,
0022
0000
0033
0000
2002
0000
3003
0110
,
0000
2002
0000
3003
0000
0000
0000
0000
,
1010
1000
0001
0010
0011
0001
1000
0010
,
0110
0000
0110
1001
0000
0022
0000
0033
,
1001
0000
0000
0000
2000
0000
0000
0000
3200
0000
0000
0000
0300
0000
0010
0100
,
1000
0010
0100
0001
0000
1020
0000
0000
,
1030
1000
0010
0010
0100
0100
0001
0001
,
0010
0000
0010
0000
0100
0000
0100
0000
1000
0000
1000
0000
0001
1000
0001
0100
,
0010
0010
1000
1000
0001
0001
0100
0100
,
0010
1000
0010
0000
0100
0000
0010
1000
0002
0000
0000
0000
1003
0100
1000
0100
,
0010
0010
0001
0001
1000
1000
0100
0100
,
0010
0000
0010
0000
0001
0000
0001
0000
0100
0000
0100
0000
0010
0100
0010
1000
,
0001
0001
0100
0100
0010
0010
1000
1000
,
0002
0000
1003
0000
,
0010
1000
0010
1000
0010
0000
0100
0001
0000
1000
0000
0001
0010
0000
0100
0000
,
1000
0100
1000
0100
1000
0000
0100
0010
0000
0001
0000
0100
0010
0000
1000
0000
,
0001
0100
0001
0100
0001
0000
1000
0010
0000
0100
0000
0001
0010
0000
0100
0000
,
0010
0001
0010
0001
0010
0000
0100
1000
0000
0001
0000
1000
0020
0000
0000
0000
,
0130
0000
0001
1000
0100
0000
0010
0000
0100
1000
0100
1000
0001
0000
0100
0000
,
0010
1000
0010
1000
0001
0000
1000
0000
0100
0010
0100
0010
0001
0000
1000
0000
,
0001
0100
0010
0000
1000
0001
0010
0000
0100
0010
0001
0000
1000
0010
0100
0000
,
0001
0001
0001
1001
,
1000
0100
0010
0100
1000
0000
0001
0200
0000
0010
0000
0301
0100
0000
0010
0000
,
1000
0010
0100
0010
1000
0000
0001
0020
0000
0100
0000
0031
0020
0000
0000
0000
,
0130
1000
0001
1000
0100
0000
0010
0002
0000
1000
0000
0013
0001
0000
1000
0000
,
0010
1000
0001
1000
0020
0000
0000
0000
0031
0000
0010
0100
0010
0000
1000
0000
,
0001
0010
0100
0010
0001
0000
1000
0020
0000
0100
0000
1030
0010
0000
0100
0000
,
0001
0100
0010
0100
0001
0000
1000
0200
0000
0010
0000
1300
0200
0000
0000
0000
,
0310
0001
1000
0001
0010
0000
0100
2000
0000
0001
0000
3100
1000
0000
0001
0000
,
0200
0000
0310
0000
,
0010
1000
0001
1000
0100
0000
0010
0200
0000
1000
0000
0310
0001
0000
1000
0000
,
0100
1000
0001
1000
0010
0000
0100
0020
0000
1000
0000
0130
0002
0000
0000
0000
,
0103
0001
1000
0001
0010
0000
0100
0020
0000
0001
0000
0130
1000
0000
0001
0000
,
0010
0001
1000
0001
0200
0000
0000
0000
1300
0000
0100
0010
0100
0000
0001
0000
,
1000
0100
0010
0100
1000
0000
0001
0000
1000
0010
0100
0010
1000
0000
0001
0000
,
0010
0100
1000
0000
0001
0100
0010
0000
1000
0001
0010
0001
1000
0000
0010
0000
,
0100
0001
1000
0001
0010
0100
0010
0001
1000
0001
0100
0010
1000
0100
0010
0100
,
1000
1000
1000
1001
,
0201
0000
0320
0000
2030
3200
0300
0020
,
0000
0230
2300
3002
0023
0000
0230
2300
,
3020
0000
0230
2000
0000
0000
0000
0000
,
0000
0000
3000
0000
,
0000
0000
0320
0000
0230
0302
0003
0020
,
0000
0230
2300
3020
0230
0302
2003
0000
,
3200
0000
0320
2000
0000
0000
0000
0000
,
0000
0000
3000
0000
,
0031
0001
0100
0100
,
0010
0000
0010
0000
1000
0000
1000
0001
,
0010
0010
0100
0100
,
1000
1000
0001
0001
,
0100
0010
1000
0001
0010
0100
0010
0001
,
1000
0010
0100
0001
1000
0100
0010
0100
,
1000
0001
1000
0010
0100
0001
1000
0001
0010
0100
1000
0001
1000
0010
0100
0001
,
1000
1000
1000
1001
,
0001
0000
0001
0000
0010
0000
0010
0000
0100
2000
0000
0001
0000
0000
3100
0010
,
0001
0000
0001
0000
0100
0000
0100
0000
0010
2000
0000
0001
0000
0000
3010
0100
,
0001
0000
0001
0000
1000
0000
1000
0000
0100
0020
0000
0001
0000
0000
0130
1000
,
0001
0000
0100
0001
0010
0000
0100
1000
0010
0000
0100
0000
0102
0000
0000
0000
,
1003
0000
1000
0000
0010
0000
0010
0000
0100
0002
0000
1000
0000
0000
0103
0010
,
1000
0000
1000
0000
0001
0000
0001
0000
0010
0200
0000
1000
0000
0000
0310
0001
,
1000
0000
1000
0000
0001
0000
0001
0000
0100
0020
0000
1000
0000
0000
0130
0001
,
0010
0000
0000
0010
0000
0000
0001
0000
0201
0000
0000
0000
0000
0000
0000
0000
,
0310
0000
0010
0000
1000
0000
1000
0000
0001
0020
0000
0100
0000
0000
0031
0010
,
0100
0000
0100
0000
1000
0000
1000
0000
0010
0200
0000
0001
0000
0000
0310
0100
,
0001
0000
0001
0000
1000
0000
1000
0000
0100
0020
0000
0001
0000
0000
0130
0010
,
0001
0000
1000
0010
0100
0000
0001
0010
0100
0000
1000
0000
1002
0000
0000
0000
,
0103
0000
0100
0000
0010
0000
0010
0000
1000
0200
0000
0010
0000
0000
1300
0100
,
0010
0000
0010
0000
0001
0000
0001
0000
0100
0020
0000
1000
0000
0000
0130
0010
,
1000
1000
0001
0001
0010
0100
1000
0010
,
0002
0000
0020
0033
,
0010
0000
0100
0000
0010
1000
0010
0000
0100
0000
0001
0000
0100
0000
0010
0000
,
0100
0001
0010
0100
1000
1000
0001
0100
,
0010
1000
0001
0010
0100
0010
0001
0010
,
0200
1000
0000
0010
0000
1000
2300
0000
,
3001
0000
0010
0000
0100
1000
0100
0000
0010
0000
0001
0000
0100
0000
0010
0000
,
1000
0010
0100
0010
1000
0100
0010
0001
,
1000
0010
1000
0001
0010
0100
1000
0001
1000
0010
0100
0001
1000
0001
0010
0100
,
1000
1000
1000
1001
,
0022
0000
0033
0000
2002
0000
3003
0110
,
0000
2002
0000
3003
0000
0000
0000
0000
,
2020
0000
3030
0000
2002
0000
3003
0110
,
0000
2002
0000
3003
0000
0000
0000
0000
,
1001
1000
0100
0010
0011
0001
0100
0010
,
0120
0000
1030
1010
0000
0011
0000
0000
,
1001
0000
0000
0000
0002
0000
0000
0000
0203
0000
0000
0000
0300
0000
0010
0100
,
0001
0000
0010
0000
0100
0000
1000
0000
0000
0000
0022
0000
0000
0033
0000
0000
,
2002
3003
0000
0000
;
