#VERSION:0.83;
#TITLE:Storm Buster;
#SUBTITLE:;
#ARTIST:P*Light;
#TITLETRANSLIT:;
#SUBTITLETRANSLIT:;
#ARTISTTRANSLIT:;
#GENRE:MYTHIC HARDCORE 2;
#ORIGIN:;
#CREDIT:;
#BANNER:Storm Buster.png;
#BACKGROUND:Storm Buster-bg.png;
#PREVIEWVID:;
#JACKET:Storm Buster-jacket.png;
#CDIMAGE:;
#DISCIMAGE:;
#LYRICSPATH:;
#CDTITLE:;
#MUSIC:Storm Buster.ogg;
#OFFSET:-0.144476;
#SAMPLESTART:80.622261;
#SAMPLELENGTH:12.000000;
#SELECTABLE:YES;
#BPMS:0.000=193.000;
#STOPS:;
#DELAYS:;
#WARPS:;
#TIMESIGNATURES:0.000=4=4;
#TICKCOUNTS:0.000=4;
#COMBOS:0.000=1;
#SPEEDS:0.000=1.000=0.000=0;
#SCROLLS:0.000=1.000;
#FAKES:;
#LABELS:0.000=Song Start;
#BGCHANGES:;
#KEYSOUNDS:;
#ATTACKS:
;

//---------------dance-single - ----------------
#NOTEDATA:;
#CHARTNAME:;
#STEPSTYPE:dance-single;
#DESCRIPTION:;
#CHARTSTYLE:;
#DIFFICULTY:Hard;
#METER:16;
#RADARVALUES:0.845865,1.065789,0.192982,0.824561,0.548246,675.000000,653.000000,22.000000,94.000000,0.000000,0.000000,0.000000,0.000000,0.000000,0.845865,1.065789,0.192982,0.824561,0.548246,675.000000,653.000000,22.000000,94.000000,0.000000,0.000000,0.000000,0.000000,0.000000;
#CREDIT:BlindedVanguard573;
#NOTES:
0000
0000
0000
0000
,
0000
0000
0000
0000
,
0000
0000
0000
0000
,
0000
0000
0000
0000
,
2000
0000
0010
0000
3010
0000
1000
0010
0200
0000
0001
0000
0301
0000
1000
0001
,
0020
0000
0001
0000
0031
0000
0010
0100
2000
0000
0100
0000
3100
0000
1000
0001
,
1000
0000
0010
0000
0100
0000
0001
0000
1000
0100
0010
0001
0010
0100
1000
0001
,
1000
0000
1010
0000
0101
0000
2002
3003
,
0002
0000
0010
0000
1003
0000
0001
0000
0010
0000
0100
1000
0000
0001
1000
0001
,
2000
0000
0010
0000
3001
0000
1000
0000
0010
0000
0100
0001
0000
1000
0001
1000
,
0002
0000
0100
0000
1003
0000
0001
0000
1000
0000
0010
0100
0000
0001
1000
0001
,
1000
0100
1000
0000
0001
0010
0001
0000
1000
0010
1000
0000
0001
0100
0001
0000
,
2000
0000
0100
0000
3010
0000
1000
0000
0001
0000
0010
0100
0000
1000
0001
1000
,
0002
0000
0010
0000
0103
0000
0001
0000
1000
0000
0100
0010
0000
0001
1000
0001
,
2000
0000
0010
0000
3100
0000
1000
0000
0001
0000
0100
0010
0000
1000
0001
1000
,
0001
0001
0001
0001
1000
1000
2002
3003
,
0001
0100
0010
0000
1000
0010
0100
0000
0001
0000
0100
0000
1000
0000
0100
0000
,
0001
0010
0100
0000
1000
0100
0010
0000
0001
0000
0010
0000
1000
0000
0010
0000
,
0001
0100
0010
0000
1000
0010
0100
0000
0001
0000
0100
0000
1000
0000
0100
0000
,
0101
1010
0011
1100
,
1000
0010
0100
0000
0001
0010
0100
0000
1000
0000
1000
0000
1000
0000
1000
0000
,
0001
0100
0010
0000
1000
0100
0010
0000
0001
0000
0001
0000
0001
0000
0001
0000
,
1000
0010
0100
0001
1000
0010
0100
0001
1000
0010
0100
0001
1000
0010
0100
0001
,
2000
0000
0000
3001
,
0012
0000
1000
0000
0100
0100
0100
0103
,
0002
0000
0023
2030
3020
0000
0032
1003
,
2100
0000
0000
0000
0001
0000
0000
0000
0010
0000
0000
0010
0000
0000
3010
1000
,
0002
0023
2030
3020
0032
2003
3002
0003
,
0011
0100
1000
0000
1010
0100
0001
0000
,
1001
0010
0100
0000
1001
1000
0100
0010
,
0100
0000
0001
0000
0100
0000
1000
0000
0001
1000
0001
1000
0001
1000
0001
1000
,
0002
0000
0003
1001
,
0002
0000
0010
0000
1003
0000
0001
0000
1000
0000
0010
0100
0000
0001
0100
0001
,
2000
0000
3200
0302
0203
0000
2300
3002
,
2003
0000
0010
0000
3001
0000
1000
0000
0001
0000
0010
0100
0000
1000
0100
1000
,
0002
0023
2030
3020
0032
2003
3002
0003
,
2000
0000
0100
0000
3001
0000
1000
0000
0001
0000
0100
0010
0000
1000
0010
1000
,
0002
0000
0023
2030
0010
0010
0010
3010
,
0002
0000
0100
0000
1003
0000
0001
0000
0100
0000
0010
1000
0000
0001
1000
0001
,
1000
0000
1000
0100
0000
0100
0001
0000
0001
0200
0000
0000
,
0310
0000
0010
0001
0000
0001
1000
0000
1000
0100
0000
0100
,
1000
0010
0100
0001
0000
0001
1000
0000
1000
0200
0000
0300
,
1000
0000
1000
0010
0000
0010
0100
0000
0100
0001
0000
0001
,
1000
0100
0010
0002
0000
0000
0103
0000
0100
0020
0000
0030
,
1000
0010
0100
0000
0001
0100
0010
0000
1000
0000
0100
0000
0001
0000
0100
0000
,
1000
0100
0010
0000
0001
0010
0100
0000
1000
0000
0010
0000
0001
0000
0010
0000
,
1000
0010
0000
0000
0100
0001
0000
0000
1000
0100
0000
0000
0010
0001
0000
0000
,
1000
0001
0020
0000
0031
1000
0020
0000
1030
0001
0200
0000
0301
1000
0100
0000
,
1002
0000
0000
0000
,
0203
0000
0000
0000
,
0320
0000
0000
0000
,
2030
0000
0000
0000
,
3002
0000
0000
0000
,
0023
0000
0000
0000
,
0230
0000
0000
0000
,
2300
0000
0000
0000
0000
0000
3001
0100
,
1000
0000
1000
0100
0001
0000
1000
0100
,
0010
0000
0001
0000
1000
0010
1000
0000
0001
0000
0000
0000
1000
0000
0010
0000
,
0100
0000
0010
0000
0001
0000
0010
0000
0100
0000
0010
0000
1000
0001
1000
0000
,
0001
0100
0010
0100
1000
0000
0100
0001
,
0020
0000
0100
0000
0130
0000
0010
0001
2000
0000
0001
0000
3001
0000
1000
0010
,
0200
0000
0010
0000
0310
0000
0100
0010
2000
0000
3100
0000
0020
0000
0031
0000
,
1000
0000
0010
0000
0001
0000
0010
0000
1000
0001
1000
0001
1000
0001
1000
0001
,
1000
0000
0100
0000
0010
0001
1000
0000
0020
0000
0000
0000
0130
0000
0000
0000
,
0101
0000
1010
0000
1001
0000
0102
0100
,
1003
0000
2100
0100
3001
0000
1000
0100
,
0001
0000
0100
0000
0010
0001
1000
0000
0001
0000
0000
0000
1000
0000
0010
0000
,
0100
0000
0010
0000
0001
0000
0010
0000
1000
0000
0100
0000
0010
0001
1000
0000
,
0001
0100
1000
0100
0010
0000
1000
0100
,
0001
0000
1000
0000
0010
0001
0010
0000
0002
0000
0000
0000
1003
0000
0010
0000
,
0001
0000
1000
0000
0100
0001
0100
0000
0001
0000
0000
0000
1000
0000
0100
0000
,
0001
0100
1000
0010
0001
0010
1000
0100
,
0010
0010
0010
0010
0100
0000
2000
0100
,
3001
1000
0002
0100
1003
0001
1000
0010
,
0001
0000
0010
0000
0100
0001
1000
0000
0001
0000
0000
0000
1000
0000
0100
0000
,
0010
0000
0100
0000
0001
0000
0100
0000
1000
0000
0010
0000
0100
0001
1000
0000
,
0001
0010
1000
0010
0001
0000
1000
0010
,
0001
0000
1000
0000
0100
0001
1000
0000
0002
0000
0000
0000
1003
0000
0100
0000
,
0001
0000
1000
0000
0010
0001
1000
0000
0001
0000
0000
0000
1000
0000
0010
0000
,
0100
0010
0001
0010
1000
0100
0001
0100
,
0010
0010
0010
0010
0100
0000
2000
0100
,
3010
1000
0002
0100
0013
0001
0100
0010
,
2000
3100
0002
0103
0020
0130
2000
3002
,
2003
0000
0000
0000
0010
0000
3001
1000
0200
0000
0000
0000
0301
0000
0100
0010
,
0002
0000
0203
0000
0310
0010
1000
0000
,
0002
0000
0010
0000
0013
0000
0001
1000
0020
0000
1000
0000
1030
0000
0001
1000
,
0200
0000
0010
0000
0310
0000
0001
0100
0020
0000
0100
0000
0130
0000
0001
1000
,
0001
0000
0010
0000
1000
0000
0010
0000
0001
0100
0010
1000
0001
0010
0100
1000
,
0001
0000
0100
0000
1000
0100
0010
0000
1000
0000
0000
0000
0001
0000
0000
0000
,
2002
0000
0000
0000
,
3003
0000
0000
0000
;

//---------------dance-single - ----------------
#NOTEDATA:;
#CHARTNAME:;
#STEPSTYPE:dance-single;
#DESCRIPTION:;
#CHARTSTYLE:;
#DIFFICULTY:Medium;
#METER:13;
#RADARVALUES:0.684210,0.710526,0.157895,0.561404,0.087719,546.000000,528.000000,18.000000,64.000000,0.000000,0.000000,0.000000,0.000000,0.000000,0.684210,0.710526,0.157895,0.561404,0.087719,546.000000,528.000000,18.000000,64.000000,0.000000,0.000000,0.000000,0.000000,0.000000;
#CREDIT:BlindedVanguard573;
#NOTES:
0000
0000
0000
0000
,
0000
0000
0000
0000
,
0000
0000
0000
0000
,
0000
0000
0000
0000
,
1000
0001
0001
0000
0100
0010
0010
0000
,
1000
0001
0001
0000
0010
0100
0100
0000
,
1000
0010
0100
0001
1000
0100
0010
0001
,
0100
0010
0100
1001
,
1000
0000
0100
0000
0010
0000
0001
0000
1000
0000
0000
0001
0000
0000
0100
0000
,
0001
0000
0010
0000
0100
0000
1000
0000
0001
0000
0000
1000
0000
0000
0100
0000
,
1000
0000
0010
0000
0100
0000
0001
0000
1000
0000
0000
0001
0000
0000
0010
0000
,
0001
0100
0010
0100
1000
0100
0010
0100
,
0001
0000
0010
0000
0100
0000
1000
0000
0001
0000
0000
0100
0000
0000
0010
0000
,
1000
0000
0100
0000
0010
0000
0001
0000
1000
0000
0000
0010
0000
0000
0100
0000
,
0001
0000
0010
0000
0100
0000
1000
0000
0001
0000
0000
0100
0000
0000
0010
0000
,
1000
0000
0001
0000
0010
0010
1001
0000
,
0001
0100
0010
0100
1000
0100
1000
0100
,
0001
0010
0100
0010
1000
0010
1000
0010
,
0001
0100
1000
0100
0010
0100
0010
0100
,
0001
0101
1000
1100
,
0001
0010
1000
0010
0001
1000
0001
1000
,
0001
0100
1000
0100
0001
1000
0001
1000
,
0010
0010
0100
0100
0001
0001
1000
1000
,
0200
0000
0000
0310
,
0012
0000
1000
0000
0100
0100
0103
0000
,
0002
0000
0023
0230
2300
0000
3001
0000
,
2001
0000
0000
0000
0010
0000
0000
0000
0100
0000
0000
0100
0000
0000
3100
0000
,
2000
3020
0032
0023
2030
3002
2003
0000
,
3001
0010
0010
0000
0100
1000
1000
0000
,
0001
0100
0100
0000
0010
1000
0100
1000
,
0001
1000
0010
1000
0001
0010
1000
0010
,
0002
0000
0003
1001
,
1000
0000
0010
0000
0100
0000
1000
0000
0100
0000
0000
0001
0000
0000
1000
0000
,
0002
0000
0023
2030
3020
0000
0032
2003
,
3001
0000
0100
0000
0010
0000
0001
0000
0010
0000
0000
1000
0000
0000
0001
0000
,
2000
3200
0302
0203
2300
3002
2003
0000
,
3001
0000
0100
0000
0010
0000
0001
0000
0010
0000
0000
1000
0000
0000
0001
0000
,
0020
0000
0230
2300
0001
0001
0001
3001
,
1000
0000
0010
0000
0100
0000
1000
0000
0100
0000
0000
0001
0000
0000
1000
0000
,
1100
0011
0101
1010
,
1000
0000
1000
0001
0000
0000
0100
0000
0100
0010
0000
0000
,
1000
0000
1000
0100
0000
0100
0010
0000
0010
0002
0000
0000
,
1003
0000
1000
0010
0000
0000
0100
0000
0100
0001
0000
0000
,
1000
0000
0000
0000
1000
0000
0200
0000
0000
0000
0000
0000
0310
0000
0000
0000
0010
0000
0002
0000
0000
0003
0000
0000
,
1000
1000
0001
0001
0100
0010
0100
0010
,
1000
1000
0001
0001
0010
0100
0010
0100
,
1000
0010
0100
0010
0001
0010
0100
0010
,
1000
0100
0010
0100
0001
0100
0010
0100
,
2001
0000
0000
0000
,
3020
0000
0000
0000
,
0230
0000
0000
0000
,
0302
0000
0000
0000
,
0023
0000
0000
0000
,
0230
0000
0000
0000
,
2300
0000
0000
0000
,
0002
0000
0000
0000
3003
0000
1000
0010
,
0001
0000
0001
0010
1000
0000
0001
0010
,
0100
0010
1000
0010
0001
0000
1000
0010
,
0100
0001
0100
0010
1000
0100
0010
0001
,
1000
0010
0001
0010
1000
0000
0001
0010
,
0100
0010
0001
0100
1000
0000
0001
0010
,
1000
0010
0100
0001
1000
0000
0001
0010
,
0100
0010
1000
0010
0001
0100
1000
0100
,
0001
0010
1000
0010
0002
0000
1003
0000
,
0101
0000
1010
0000
1001
0000
0002
0100
,
1003
0000
2000
0100
3001
0000
1000
0100
,
0010
0001
0100
1000
0100
0000
0001
0010
,
0100
0010
1000
0010
0001
0100
1000
0100
,
0001
0010
0100
1000
0001
0000
1000
0010
,
0100
1000
0100
0001
2000
0000
3001
0010
,
0100
0010
0001
0100
1000
0000
0100
0001
,
1000
0100
0001
0100
0010
0100
1000
0001
,
1000
0010
0001
0010
0100
0000
0002
0100
,
0013
0000
2000
0100
3010
0000
1000
0010
,
0001
0010
1000
0001
1000
0000
0001
0100
,
0010
0100
1000
0100
0001
0010
0100
1000
,
0010
0001
0010
1000
0001
0000
1000
0100
,
0001
0100
0010
0001
2000
0000
3001
0100
,
1000
0100
0010
1000
0001
0000
1000
0100
,
0010
0100
0001
0100
1000
0010
0001
0010
,
1000
0100
0001
0100
0010
0000
0102
0100
,
1003
0000
2100
0100
3001
1000
0001
0100
,
0010
0100
1000
0100
0010
0100
0001
1000
,
0200
0000
0310
0010
0002
0000
1003
1000
,
0020
0230
2300
3200
,
0302
0010
0013
0001
2000
0010
3010
1000
,
0002
0100
0103
0001
2000
0100
3100
1000
,
0001
0100
1000
0100
0010
0010
0100
0100
,
0001
0010
1000
0001
0200
0000
0310
0000
,
2002
0000
0000
0000
,
3003
0000
0000
0000
;

//---------------dance-single - ----------------
#NOTEDATA:;
#CHARTNAME:;
#STEPSTYPE:dance-single;
#DESCRIPTION:;
#CHARTSTYLE:;
#DIFFICULTY:Easy;
#METER:7;
#RADARVALUES:0.404762,0.592105,0.201754,0.263158,0.000000,323.000000,300.000000,23.000000,30.000000,0.000000,0.000000,0.000000,0.000000,0.000000,0.404762,0.592105,0.201754,0.263158,0.000000,323.000000,300.000000,23.000000,30.000000,0.000000,0.000000,0.000000,0.000000,0.000000;
#CREDIT:BlindedVanguard573;
#NOTES:
0000
0000
0000
0000
,
0000
0000
0000
0000
,
0000
0000
0000
0000
,
0000
0000
0000
0000
,
2000
3100
0020
0031
,
2000
3010
0100
0001
,
1000
0001
0010
0100
,
1000
0000
0000
1001
,
1000
0010
0100
0100
,
0001
0100
0010
0010
,
1000
0100
0010
0010
,
0001
0010
1000
0010
,
0001
0100
0010
0010
,
1000
0100
0010
0010
,
0001
0010
0100
0100
,
1000
0100
0001
0100
,
1000
1000
0010
0100
,
0001
0001
0100
0010
,
1000
1000
0100
0010
,
0001
0100
1000
0100
,
0001
0001
0010
0100
,
1000
1000
0010
0100
,
0001
0001
0001
0001
,
2000
0000
0000
3001
,
1010
0000
1000
1000
,
0001
0010
1000
0010
,
0011
0000
1000
1000
,
0001
0100
1000
0100
,
0001
0001
0010
0010
,
0100
0100
1000
0010
,
0100
0010
0001
0010
,
1001
0000
0000
1001
,
1000
0010
0100
1000
,
0200
0300
0020
0030
,
1000
0100
0010
1000
,
0020
0032
2003
3000
,
0001
0100
0010
0001
,
0020
2030
0001
3001
,
1000
0100
0001
0100
,
0010
0010
0100
0100
,
1000
1010
0000
1010
,
1000
0100
0001
0100
,
0010
0011
0000
0011
,
0001
0100
1000
0100
,
0001
1000
0010
0010
,
1000
0001
0010
0010
,
0100
0100
0100
0100
,
0010
0010
0010
0010
,
2002
0000
0000
0000
,
3003
0000
0000
0000
,
0000
0000
0000
0000
,
0000
0000
0000
0000
,
0000
0000
0000
0000
,
0000
0000
0000
0000
,
0000
0000
0000
0000
,
0000
0000
0000
2000
,
0010
3002
0010
1003
,
0010
0001
0010
1000
,
0100
0010
0001
0010
,
0100
1000
0001
1000
,
0010
0001
0010
1000
,
0100
0001
0100
1000
,
0010
0001
1000
0100
,
0001
0010
0100
1000
,
0001
0001
0001
1000
,
1010
0001
0011
1000
,
0001
0010
1000
0010
,
0001
0100
0010
0100
,
1000
0100
0001
1000
,
0001
0010
0100
0010
,
0001
0100
0010
0100
,
0001
0010
0100
1000
,
0001
1000
0001
0000
1000
0000
0001
0000
,
0101
1000
1100
0001
,
1000
0100
0001
0100
,
1000
0010
0100
1000
,
0001
0010
0100
0001
,
1000
0100
0010
0100
,
1000
0010
0100
0010
,
1000
0010
0001
0010
,
1000
0001
1000
0000
0001
0000
1000
1000
,
1000
0000
0001
0001
0001
0000
0010
0000
,
1001
1001
1001
1001
,
0002
0100
2003
0100
,
3002
0203
2300
3100
,
0202
0303
2020
3030
,
0022
0033
2200
3300
,
0001
0010
0100
1000
,
0001
0001
0001
0001
0001
0000
1000
0000
,
2002
0000
0000
0000
,
3003
0000
0000
0000
;

//---------------dance-double - ----------------
#NOTEDATA:;
#CHARTNAME:;
#STEPSTYPE:dance-double;
#DESCRIPTION:;
#CHARTSTYLE:;
#DIFFICULTY:Hard;
#METER:16;
#RADARVALUES:0.840852,0.947368,0.219298,0.833333,0.539474,671.000000,646.000000,25.000000,95.000000,0.000000,0.000000,0.000000,0.000000,0.000000,0.840852,0.947368,0.219298,0.833333,0.539474,671.000000,646.000000,25.000000,95.000000,0.000000,0.000000,0.000000,0.000000,0.000000;
#CREDIT:BlindedVanguard573;
#NOTES:
00000000
00000000
00000000
00000000
,
00000000
00000000
00000000
00000000
,
00000000
00000000
00000000
00000000
,
00000000
00000000
00000000
00000000
,
00002000
00000000
00010000
00000000
00013000
00000000
00001000
00010000
00000200
00000000
00001000
00000000
00001300
00000000
00000100
00010000
,
00002000
00000000
00100000
00000000
00103000
00000000
00001000
00010000
00000020
00000000
00001000
00000000
00001030
00000000
00000001
00001000
,
00000001
00000000
00000010
00000000
00001000
00000000
00000010
00000000
00000001
00000100
00000010
00001000
00000010
00000100
00000001
00001000
,
00000001
00010000
00001000
10010000
,
20000000
00000000
00100000
00000000
30010000
00000000
10000000
00000000
00100000
00000000
01000000
00010000
00000000
00100000
00001000
00100000
,
00002000
00000000
00010000
00000000
00103000
00000000
00001000
00000000
00010000
00000000
00000100
00001000
00000000
00000010
00001000
00000010
,
00002000
00000000
00000100
00000000
00003001
00000000
00001000
00000000
00000001
00000000
00000010
00000100
00000000
00001000
00000100
00001000
,
00000100
00010000
00000100
00000000
00100000
00001000
00100000
00000000
00010000
01000000
00010000
00000000
10000000
00100000
10000000
00000000
,
00020000
00000000
00100000
00000000
10030000
00000000
00010000
00000000
00100000
00000000
01000000
10000000
00000000
00010000
01000000
00010000
,
02000000
00000000
00001000
00000000
03010000
00000000
01000000
00000000
00010000
00000000
00100000
00001000
00000000
00010000
00000100
00010000
,
00002000
00000000
00100000
00000000
00013000
00000000
00001000
00000000
00010000
00000000
00000100
00001000
00000000
00000010
00001000
00000010
,
00001000
00001000
00001000
00001000
00000001
00000001
00002002
00003003
,
00000001
00000100
00000001
00000000
00001000
00000100
00001000
00000000
00000001
00000000
00000100
00000000
00000010
00000000
00000100
00000000
,
00001000
00010000
00001000
00000000
00100000
00010000
00100000
00000000
00010000
00000000
01000000
00000000
00100000
00000000
01000000
00000000
,
10000000
01000000
10000000
00000000
01000000
00010000
01000000
00000000
00100000
00000000
10000000
00000000
01000000
00000000
00010000
00000000
,
00011000
00001100
00000011
00001001
,
00000001
00000100
00000001
00000000
00001000
00000100
00001000
00000000
00000001
00000000
00000100
00000000
00001000
00000000
00010000
00000000
,
01000000
10000000
01000000
00000000
00100000
00010000
00100000
00000000
00010000
00000000
00100000
00000000
10000000
00000000
00100000
00000000
,
00010000
00100000
01000000
00000000
00010000
01000000
00100000
00000000
00010000
01000000
00100000
00000000
00010000
00100000
01000000
00000000
,
20020000
00000000
00000000
30030000
,
21000000
00000000
00010000
00000000
00100000
00100000
00100000
30100000
,
20000000
00000000
30200000
00320000
00032000
00000000
00003100
00000010
,
00001002
00000000
00000000
00000000
00000010
00000000
00000000
00000000
00000100
00000000
00000000
00000100
00000000
00000000
00000103
00000001
,
00002000
00003200
00000302
00000203
00020300
00032000
00203000
00300000
,
00110000
00010000
01000000
00000000
10100000
10000000
01000000
00000000
,
10010000
00001000
00010000
00000000
00011000
00000001
00001000
00000001
,
00000100
00000000
00000010
00000000
00000100
00000000
00001000
00000000
00000100
00000010
00000100
00000010
00001000
00000001
00001000
00000001
,
00000200
00000000
00000300
00001001
,
00000002
00000000
00000100
00000000
00001003
00000000
00000001
00000000
00001000
00000000
00000100
00010000
00000000
00001000
00100000
00010000
,
00200000
00000000
20300000
30200000
20300000
00000000
30200000
00320000
,
20030000
00000000
00100000
00000000
30010000
00000000
10000000
00000000
00100000
00000000
01000000
00010000
00000000
10000000
00010000
10000000
,
00020000
02030000
23000000
32000000
03002000
00023000
00030200
00000000
,
00002300
00000000
00000010
00000000
00003001
00000000
00001000
00000000
00000001
00000000
00000010
00000100
00000000
00001000
00000100
00001000
,
00000020
00000000
00000032
00000023
00001000
00001000
00001000
00001030
,
00000002
00000000
00000010
00000000
00001003
00000000
00000001
00000000
00000010
00000000
00000100
00001000
00000000
00000100
00010000
00000100
,
00001000
00000000
00001000
00000100
00000000
00000100
00000001
00000000
00000001
00000200
00000000
00000000
,
00001300
00000000
00001000
00000100
00000000
00000100
00010000
00000000
00010000
00001000
00000000
00001000
,
01000000
00100000
01000000
00100000
00000000
00100000
10000000
00000000
10000000
00020000
00000000
00000000
,
10030000
00000000
10000000
01000000
00000000
01000000
00010000
00000000
00010000
00001000
00000000
00001000
,
00000010
00000001
00000010
00000200
00000000
00000000
00001300
00000000
00001000
00000002
00000000
00000000
,
00001003
00000010
00000100
00000000
00000001
00000100
00000010
00000000
00001000
00000000
00000100
00000000
00000001
00000000
00000100
00000000
,
00010000
00001000
00100000
00000000
00010000
01000000
00100000
00000000
10000000
00000000
00100000
00000000
00010000
00000000
00100000
00000000
,
10000000
00100000
00000000
00000000
01000000
00010000
00000000
00000000
00100000
00001000
00000000
00000000
00010000
00000100
00000000
00000000
,
00001000
00000010
00000200
00000000
00000301
00000010
00000200
00000000
00001300
00000100
00000020
00000000
00000031
00000100
00000010
00000000
,
00001002
00000000
00000000
00000000
,
00000203
00000000
00000000
00000000
,
00002300
00000000
00000000
00000000
,
00023000
00000000
00000000
00000000
,
00230000
00000000
00000000
00000000
,
20300000
00000000
00000000
00000000
,
30020000
00000000
00000000
00000000
,
20000000
00000000
00000000
00000000
30030000
00000000
10000000
01000000
,
00010000
00000000
00010000
01000000
10000000
00000000
00010000
01000000
,
00100000
00000000
01000000
00000000
10000000
01000000
10000000
00000000
01000000
00000000
00000000
00000000
00010000
00000000
00100000
00000000
,
01000000
00000000
00010000
00000000
01000000
00000000
00100000
00000000
00010000
00000000
00001000
00000000
00000100
00000010
00000100
00000000
,
00001000
00000010
00000001
00000010
00001000
00000000
00000001
00000010
,
00000200
00000000
00001000
00000000
00001300
00000000
00000100
00001000
00000002
00000000
00000100
00000000
00000103
00000000
00000010
00010000
,
00002000
00000000
00100000
00000000
00103000
00000000
00010000
01000000
00200000
00000000
10300000
00000000
00020000
00000000
10030000
00000000
,
00010000
00000000
00100000
00000000
10000000
00000000
00100000
00000000
00010000
10000000
00010000
10000000
00010000
10000000
00010000
10000000
,
00010000
00000000
01000000
00000000
00100000
10000000
00010000
00000000
20000000
00000000
00000000
00000000
30010000
00000000
00000000
00000000
,
10010000
00000000
00011000
00000000
00001001
00000000
00000102
00000100
,
00001003
00000000
00002100
00000100
00003001
00000000
00000001
00000100
,
00001000
00000000
00010000
00000000
01000000
10000000
01000000
00000000
10000000
00000000
00000000
00000000
00010000
00000000
01000000
00000000
,
10000000
00000000
01000000
00000000
00001000
00000000
00010000
00000000
00000100
00000000
00001000
00000000
00000001
00000100
00000010
00000000
,
00001000
00000100
00000010
00000001
00001000
00000000
00001000
00000010
,
00000001
00000000
00000010
00000000
00010000
00001000
00010000
00000000
00002000
00000000
00000000
00000000
00103000
00000000
00010000
00000000
,
01000000
00000000
10000000
00000000
01000000
00100000
01000000
00000000
00100000
00000000
00000000
00000000
10000000
00000000
01000000
00000000
,
00010000
00001000
00010000
01000000
10000000
00100000
00010000
00100000
,
10000000
00000000
01000000
00000000
00100000
00010000
10000000
00000000
00010000
00000000
00000000
00000000
00120000
00000000
00100000
00000000
,
01030000
00000000
20100000
00100000
31000000
00000000
10000000
01000000
,
00010000
00000000
00001000
00000000
00000100
00000010
00000100
00000000
00000010
00000000
00000000
00000000
00001000
00000000
00000010
00000000
,
00000100
00000000
00000010
00000000
00000001
00000000
00000010
00000000
00001000
00000000
00000100
00000000
00010000
00001000
00100000
00000000
,
00010000
01000000
10000000
01000000
00100000
00000000
00100000
10000000
,
01000000
00000000
00010000
00000000
00001000
00000100
00001000
00000000
00000200
00000000
00000000
00000000
00000301
00000000
00000010
00000000
,
00001000
00000000
00010000
00000000
00100000
10000000
00100000
00000000
10000000
00000000
00000000
00000000
00010000
00000000
00100000
00000000
,
01000000
00100000
10000000
00100000
00010000
01000000
10000000
01000000
,
00001000
00000000
00010000
00000000
00000100
00001000
00000001
00000000
00001000
00000000
00000000
00000000
00000012
00000000
00000010
00000000
,
00001003
00000000
00002010
00000010
00003001
00001000
00000001
00000100
,
00000020
00000130
00002000
00003100
00000020
00010030
00002000
00203000
,
00320000
00000000
00000000
00000000
01000000
00000000
10030000
00010000
00200000
00000000
00000000
00000000
01000000
00000000
10300000
00100000
,
00020000
02030000
23000000
32000000
,
03020000
00000000
00100000
00000000
00130000
00000000
00001000
00010000
00000200
00000000
00001000
00000000
00001300
00000000
00000010
00001000
,
00000002
00000000
00000010
00000000
00000013
00000000
00000100
00001000
00000002
00000000
00000100
00000000
00000100
00000003
00000010
00001000
,
00000100
00000000
00000001
00000000
00000100
00000000
00010000
00000000
00001000
00100000
00010000
01000000
00100000
10000000
01000000
00100000
,
00010000
00000000
01000000
00000000
10000000
01000000
00100000
00000000
20000000
00000000
00000000
00000000
30010000
00000000
00000000
00000000
,
20020000
00000000
00000000
00000000
,
30030000
00000000
00000000
00000000
;

//---------------dance-double - ----------------
#NOTEDATA:;
#CHARTNAME:;
#STEPSTYPE:dance-double;
#DESCRIPTION:;
#CHARTSTYLE:;
#DIFFICULTY:Medium;
#METER:13;
#RADARVALUES:0.680451,0.710526,0.096491,0.500000,0.100877,543.000000,532.000000,11.000000,57.000000,0.000000,0.000000,0.000000,0.000000,0.000000,0.680451,0.710526,0.096491,0.500000,0.100877,543.000000,532.000000,11.000000,57.000000,0.000000,0.000000,0.000000,0.000000,0.000000;
#CREDIT:BlindedVanguard573;
#NOTES:
00000000
00000000
00000000
00000000
,
00000000
00000000
00000000
00000000
,
00000000
00000000
00000000
00000000
,
00000000
00000000
00000000
00000000
,
00001000
00100000
00100000
00000000
00001000
00010000
00000100
00000000
,
00001000
00000010
00000010
00000000
00001000
00000100
00010000
00000000
,
00001000
01000000
00100000
10000000
00010000
10000000
01000000
00100000
,
00010000
10000000
00010000
10010000
,
10000000
00000000
00100000
00000000
01000000
00000000
00010000
00000000
00100000
00000000
00000000
00001000
00000000
00000000
00010000
00000000
,
00000100
00000000
00001000
00000000
00000010
00000000
00000100
00000000
00000001
00000000
00000000
00001000
00000000
00000000
00000100
00000000
,
00010000
00000000
00001000
00000000
01000000
00000000
00100000
00000000
10000000
00000000
00000000
00010000
00000000
00000000
01000000
00000000
,
00010000
00100000
01000000
00100000
10000000
00100000
00010000
00100000
,
00010000
00000000
01000000
00000000
00100000
00000000
10000000
00000000
00010000
00000000
00000000
00100000
00000000
00000000
00001000
00000000
,
00010000
00000000
00000100
00000000
00001000
00000000
00000010
00000000
00000100
00000000
00000000
00000001
00000000
00000000
00001000
00000000
,
00000100
00000000
00010000
00000000
00001000
00000000
00100000
00000000
00010000
00000000
00000000
01000000
00000000
00000000
00100000
00000000
,
10000000
10000000
10000000
10000000
00010000
00010000
01000000
00000000
,
00010000
00010000
10000000
10000000
00010000
00100000
10000000
00100000
,
00010000
00010000
10000000
10000000
00010000
01000000
10000000
01000000
,
00001000
00001000
00010000
00010000
00000100
00001000
00000001
00000100
,
00000010
00001001
00000100
00001001
,
00000001
00000001
00001000
00001000
00000001
00000010
00001000
00000010
,
00000001
00000001
00001000
00001000
00000001
00000100
00001000
00010000
,
01000000
01000000
00100000
00100000
00010000
00010000
10000000
10000000
,
00200000
00000000
00000000
01300000
,
20010000
00000000
00100000
00000000
01000000
01000000
31000000
00000000
,
20000000
00000000
30200000
00320000
00032000
00000000
00003100
00000000
,
00001002
00000000
00000000
00000000
00000010
00000000
00000000
00000000
00000100
00000000
00000000
00000100
00000000
00000000
00000103
00000000
,
00000002
00000023
00002030
00003020
00000032
00002003
00003002
00000000
,
00001003
00000100
00000100
00000000
00010000
00001000
00001000
00000000
,
00100000
00010000
00010000
00000000
10000000
00100000
01000000
00100000
,
00010000
00100000
01000000
00100000
10000000
01000000
00100000
00010000
,
20000000
00000000
30000000
10010000
,
10000000
00000000
00100000
00000000
01000000
00000000
00010000
00000000
00100000
00000000
00000000
00010000
00000000
00000000
01000000
00000000
,
00002000
00000000
00023000
00030200
00002300
00000000
00003001
00000000
,
00001000
00000000
00000010
00000000
00000100
00000000
00000001
00000000
00000010
00000000
00000000
00000001
00000000
00000000
00001000
00000000
,
00000200
00020300
00032000
00203000
00320000
02030000
03200000
00000000
,
10300000
00000000
00100000
00000000
01000000
00000000
00010000
00000000
10000000
00000000
00000000
00100000
00000000
00000000
10000000
00000000
,
02000000
00000000
03020000
00032000
00000100
00000100
00000100
00003100
,
00000001
00000000
00000010
00000000
00000100
00000000
00001000
00000000
00000010
00000000
00000000
00010000
00000000
00000000
00001000
00000000
,
00100000
00000000
00100000
00010000
00000000
00010000
10000000
00000000
10000000
01000000
00000000
00000000
,
10000000
00000000
10000000
00100000
00000000
00000000
01000000
00000000
01000000
00010000
00000000
00000000
,
10000000
00000000
10000000
01000000
00000000
01000000
00100000
00000000
00100000
00002000
00000000
00000000
,
00013000
00000000
00010000
00000100
00000000
00000000
00001000
00000000
00001000
00000020
00000000
00000000
,
00000130
00000000
00000100
00000001
00000000
00000000
00000010
00000000
00000010
00000200
00000000
00000000
,
00001300
00001000
00000001
00000001
00001000
00000010
00000001
00000010
,
00001000
00001000
00000001
00000001
00001000
00000100
00000001
00000100
,
00010000
00010000
00001000
00001000
00100000
00100000
00010000
00010000
,
01000000
00100000
01000000
10000000
01000000
00100000
01000000
00010000
,
20010000
00000000
00000000
00000000
,
30020000
00000000
00000000
00000000
,
02030000
00000000
00000000
00000000
,
03002000
00000000
00000000
00000000
,
00023000
00000000
00000000
00000000
,
00030200
00000000
00000000
00000000
,
00002300
00000000
00000000
00000000
,
00000002
00000000
00000000
00000000
00003003
00000000
00000001
00000100
,
00000010
00000000
00000010
00000100
00000001
00000000
00001000
00000100
,
00000001
00000100
00001000
00000001
00001000
00000000
00000001
00000100
,
00000001
00000100
00000010
00001000
00000010
00001000
00000100
00010000
,
00000100
00010000
00001000
00100000
00010000
00000000
10000000
00100000
,
00010000
00100000
10000000
00010000
10000000
00000000
00010000
00100000
,
10000000
00100000
00010000
10000000
00010000
00000000
10000000
00100000
,
01000000
00100000
00010000
00100000
01000000
00100000
10000000
01000000
,
00010000
01000000
10000000
00001000
00020000
00000000
00031000
00000000
,
00011000
00000000
00001100
00000000
00001001
00000000
00000002
00000100
,
00001003
00000000
00002000
00000100
00003001
00000000
00001000
00000100
,
00000001
00000100
00001000
00000001
00001000
00000000
00000001
00000100
,
00000010
00001000
00000010
00000100
00000001
00001000
00000100
00010000
,
00001000
00100000
00010000
10000000
01000000
00000000
10000000
00100000
,
00010000
00100000
10000000
00010000
20000000
00000000
30010000
00100000
,
10000000
00100000
00010000
10000000
00010000
00000000
10000000
00100000
,
01000000
00100000
00010000
00100000
10000000
01000000
00100000
00010000
,
00001000
00000100
00000010
00000001
00001000
00000000
00000002
00000010
,
00000103
00000000
00002000
00000010
00003100
00000000
00001000
00000010
,
00000001
00000010
00010000
00001000
00100000
00000000
00010000
01000000
,
00100000
01000000
10000000
01000000
00010000
00100000
10000000
00100000
,
00010000
01000000
10000000
01000000
00001000
00000000
00010000
00000100
,
00001000
00000010
00000100
00000001
00002000
00000000
00003001
00000010
,
00000100
00010000
00001000
00100000
00010000
00000000
10000000
00100000
,
00010000
00100000
01000000
00100000
10000000
01000000
00010000
01000000
,
10000000
00100000
00010000
00001000
00000100
00000000
00000020
00001000
,
00000130
00000000
00000020
00001000
00000130
00000010
00001000
00000100
,
00000001
00000100
00000010
00000100
00001000
00000100
00010000
00001000
,
00200000
00000000
01300000
01000000
20000000
00000000
30010000
00010000
,
02000000
23000000
30020000
00230000
,
01300000
00010000
01000000
00010000
00100000
00001000
00100000
00001000
,
00010000
00000100
00010000
00000100
00001000
00000010
00001000
00000010
,
00000100
00001000
00010000
00100000
01000000
10000000
01000000
00010000
,
10000000
01000000
00010000
00001000
00000100
00000000
00000010
00000000
,
00002002
00000000
00000000
00000000
,
00003003
00000000
00000000
00000000
;

//---------------dance-double - ----------------
#NOTEDATA:;
#CHARTNAME:;
#STEPSTYPE:dance-double;
#DESCRIPTION:;
#CHARTSTYLE:;
#DIFFICULTY:Easy;
#METER:7;
#RADARVALUES:0.408521,0.552632,0.131579,0.245614,0.000000,326.000000,311.000000,15.000000,28.000000,0.000000,0.000000,0.000000,0.000000,0.000000,0.408521,0.552632,0.131579,0.245614,0.000000,326.000000,311.000000,15.000000,28.000000,0.000000,0.000000,0.000000,0.000000,0.000000;
#CREDIT:BlindedVanguard573;
#NOTES:
00000000
00000000
00000000
00000000
,
00000000
00000000
00000000
00000000
,
00000000
00000000
00000000
00000000
,
00000000
00000000
00000000
00000000
,
00001000
00001000
00010000
00010000
,
00000100
00000100
00001000
00001000
,
00000001
00000100
00001000
00000100
,
00000010
00000010
00000010
00001001
,
00000001
00000010
00000100
00000100
,
00001000
00000100
00000010
00000010
,
00000001
00000100
00000010
00000010
,
00001000
00000100
00010000
00001000
,
00100000
00010000
01000000
01000000
,
00100000
10000000
01000000
01000000
,
00100000
00010000
10000000
10000000
,
00010000
01000000
00100000
10010000
,
10000000
01000000
00010000
00010000
,
00001000
00000100
00000010
00000010
,
00001000
00000100
00000001
00000001
,
00000100
00000010
00000001
00001000
,
00000001
00000100
00001000
00001000
,
00010000
01000000
10000000
10000000
,
00100000
00100000
00100000
00100000
,
02000000
00000000
00000000
03100000
,
20100000
00000000
00010000
30010000
,
10000000
01000000
00010000
01000000
,
01200000
00000000
00010000
00310000
,
00100000
00010000
00001000
00000100
,
00002000
00003010
00000200
00000301
,
00002000
00003100
00000020
00000031
,
00001000
00000010
00000001
00000010
,
00000200
00000000
00000300
00001001
,
00000001
00000010
00000100
00000100
,
00001000
00000100
00000001
00000100
,
00010000
00001000
00100000
00100000
,
00010000
01000000
10000000
01000000
,
00100000
10000000
00010000
00010000
,
10000000
01000000
00100000
00100000
,
00010000
00100000
10000000
00100000
,
00010000
01000000
00100000
10010000
,
10000000
10000000
00010000
00010000
,
01000000
00001000
00010000
00000100
,
00001000
00001000
00000001
00000001
,
00000100
00000010
00000100
00001001
,
00000001
00000010
00001000
00001000
,
00010000
01000000
10000000
10000000
,
00100000
00100000
00100000
00100000
,
01000000
01000000
01000000
01000000
,
20020000
00000000
00000000
00000000
,
30030000
00000000
00000000
00000000
,
00000000
00000000
00000000
00000000
,
00000000
00000000
00000000
00000000
,
00000000
00000000
00000000
00000000
,
00000000
00000000
00000000
00000000
,
00000000
00000000
00000000
00000000
,
00000000
00000000
00000000
10000000
,
10000000
00010000
00010000
10000000
,
01000000
00010000
01000000
00100000
,
00001000
00010000
00000100
00001000
,
00000010
00000100
00000001
00001000
,
00000100
00000001
00000001
00001000
,
00000010
00000001
00000001
00001000
,
00000010
00000100
00001000
00010000
,
00100000
01000000
00010000
10000000
,
10010000
10010000
10010000
20000000
,
01000000
30020000
01000000
10030000
,
01000000
00010000
01000000
10000000
,
00100000
01000000
00001000
00010000
,
00000100
00001000
00000010
00001000
,
00000100
00000001
00000001
00001000
,
00000010
00000001
00000001
00001000
,
00000010
00000100
00001000
00010000
,
00100000
01000000
00010000
20000000
,
00100000
30020000
00100000
10030000
,
01000000
00010000
01000000
10000000
,
00100000
01000000
00001000
00010000
,
00000100
00001000
00000010
00002000
,
00000100
00000001
00003010
00000002
,
00000100
00001000
00000013
00000001
,
00000010
00001000
00010000
00100000
,
10000000
00000000
00010000
00000000
10010000
00000000
10000000
10000000
,
10000000
00000000
00010000
00010000
00010000
00000000
00100000
00000000
,
11000000
10000000
10010000
00010000
,
20000000
30100000
00020000
00130000
,
20000000
32000000
03020000
00032000
,
00003200
00000310
00002000
00003001
,
00000020
00000130
00002000
00003001
,
00000100
00000010
00000100
00000000
00000001
00001000
00000001
00000000
,
00000010
00000100
00000010
00000100
00001000
00000000
00010000
00000000
,
00022000
00000000
00000000
00000000
,
00033000
00000000
00000000
00000000
;

//---------------dance-single - ----------------
#NOTEDATA:;
#CHARTNAME:;
#STEPSTYPE:dance-single;
#DESCRIPTION:;
#CHARTSTYLE:;
#DIFFICULTY:Beginner;
#METER:4;
#RADARVALUES:0.260652,0.351316,0.000000,0.000000,0.000000,208.000000,208.000000,0.000000,0.000000,0.000000,0.000000,0.000000,0.000000,0.000000,0.260652,0.351316,0.000000,0.000000,0.000000,208.000000,208.000000,0.000000,0.000000,0.000000,0.000000,0.000000,0.000000,0.000000;
#CREDIT:BlindedVanguard573;
#NOTES:
0000
0000
0000
0000
,
0000
0000
0000
0000
,
0000
0000
0000
0000
,
0000
0000
0000
0000
,
1000
0000
0010
0000
,
0100
0000
0001
0000
,
0010
0010
0010
0000
,
0100
0100
0100
0100
,
0100
0000
0010
0000
,
1000
0000
0001
0000
,
0010
0000
0100
0000
,
1000
1000
1000
1000
,
1000
0000
0001
0000
,
0100
0000
0010
0000
,
1000
0000
0001
0000
,
0010
0010
0010
0000
,
0001
0001
0001
0000
,
0100
0100
0100
0000
,
0010
0010
0010
0000
,
1000
1000
1000
0000
,
0001
0001
0001
0000
,
0010
0010
0010
0000
,
0100
0100
0100
0100
,
0100
0000
0000
0000
,
1000
0000
0000
0000
,
0001
0001
0001
0000
,
0100
0000
0000
0000
,
0010
0010
0010
0010
,
0010
0000
0100
0000
,
0001
0000
1000
0000
,
0100
0100
0100
0100
,
0100
0000
0000
0000
,
1000
1000
1000
0000
,
0010
0000
0100
0000
,
0001
0001
0001
0000
,
0010
0000
0100
0000
,
1000
1000
1000
0000
,
0010
0000
0100
0000
,
0001
0001
0001
0000
,
1000
1000
1000
0000
,
0010
0000
0010
0000
,
0100
0100
0100
0000
,
0001
0000
0001
0000
,
1000
1000
1000
0000
,
0001
0001
0001
0000
,
0010
0010
0010
0000
,
0100
0100
0100
0100
,
0100
0100
0100
0100
,
0100
0000
0000
0000
,
0000
0000
0000
0000
,
0000
0000
0000
0000
,
0000
0000
0000
0000
,
0000
0000
0000
0000
,
0000
0000
0000
0000
,
0000
0000
0000
0000
,
0000
0000
0000
0000
,
1000
0000
0001
0000
,
0100
0100
0100
0000
,
0001
0000
1000
0000
,
0010
0010
0010
0000
,
1000
1000
1000
0000
,
0001
0001
0001
0000
,
0010
0000
0100
0000
,
1000
1000
1000
0000
,
0001
0001
0001
0001
,
0001
0000
0100
0000
,
0010
0010
0010
0000
,
1000
0000
0001
0000
,
0010
0010
0010
0000
,
0100
0100
0100
0000
,
1000
1000
1000
0000
,
0001
0000
0100
0000
,
0010
0010
0010
0000
,
1000
0000
0001
0000
,
0010
0010
0010
0000
,
0100
0000
1000
0000
,
0001
0001
0001
0000
,
0100
0100
0100
0000
,
0010
0010
0010
0000
,
1000
0000
0001
0000
,
0010
0010
0010
0000
,
0100
0000
1000
0000
,
0001
0001
0001
0001
,
0001
0000
0100
0000
,
0010
0010
0010
0010
,
0010
0000
1000
0000
,
0001
0000
0010
0000
,
0100
0100
0100
0000
,
0010
0010
0010
0010
,
0010
0000
0000
0000
;
