#VERSION:0.83;
#TITLE:Stop a Gaben;
#SUBTITLE:;
#ARTIST:Mastgrr;
#TITLETRANSLIT:;
#SUBTITLETRANSLIT:;
#ARTISTTRANSLIT:;
#GENRE:;
#CREDIT:;
#MUSIC:Stop a Gaben.ogg;
#BANNER:Stop a Gaben.png;
#BACKGROUND:Stop a Gaben-bg.png;
#CDTITLE:;
#SAMPLESTART:10.846;
#SAMPLELENGTH:15.234;
#SELECTABLE:YES;
#OFFSET:-0.224;
#BPMS:0.000=126.036;
#STOPS:60.750=0.060
,60.875=0.178
,77.000=0.238
,79.750=0.060
,79.875=0.178
,96.000=0.238
,98.750=0.060
,98.875=0.178
,115.000=0.238
,117.750=0.060
,117.875=0.178
,134.000=0.238
;
#DELAYS:3.500=0.238,
7.000=0.238,
17.500=0.238,
18.000=0.238,
18.500=0.238,
19.000=0.238,
20.500=0.238,
24.000=0.238,
27.500=0.238,
31.000=0.238,
34.500=0.238,
38.000=0.238,
41.500=0.238,
43.000=0.238,
44.500=0.238,
45.000=0.238,
45.500=0.238,
170.000=0.238,
173.500=0.238,
177.000=0.238,
180.500=0.238,
184.000=0.238,
187.500=0.238,
191.000=0.238,
192.500=0.238,
194.000=0.238,
194.500=0.238,
195.000=0.238,
195.500=0.238,
303.000=0.238,
303.500=0.238,
304.000=0.238,
304.500=0.238,
306.000=0.238,
307.500=0.238,
309.000=0.238,
310.500=0.238,
312.000=0.238,
313.500=0.238,
315.000=0.238,
316.500=0.238,
318.000=0.238,
319.500=0.238,
321.000=0.238,
322.500=0.238,
324.000=0.238,
325.500=0.238,
326.000=0.238,
326.500=0.238,
327.000=0.238,
327.250=0.119,
327.500=0.119,
328.000=0.476
;
#WARPS:61.000=16.000,
80.000=16.000,
99.000=16.000,
118.000=16.000,
134.500=15.500,
150.500=15.500,
198.000=16.000,
214.500=16.000,
234.000=16.000,
250.500=16.000,
270.000=16.000,
286.500=16.000,
328.000=16.000
;
#BGCHANGES:77.000=G.A.B.E.N.png=1.000=0=0=0=StretchNoLoop====,
77.250=Stop a Gaben-bg.png=1.000=0=0=0=StretchNoLoop====,
96.000=G.A.B.E.N.png=1.000=0=0=0=StretchNoLoop====,
96.250=Stop a Gaben-bg.png=1.000=0=0=0=StretchNoLoop====,
115.000=G.A.B.E.N.png=1.000=0=0=0=StretchNoLoop====,
115.250=Stop a Gaben-bg.png=1.000=0=0=0=StretchNoLoop====,
134.000=G.A.B.E.N.png=1.000=0=0=0=StretchNoLoop====,
134.250=Stop a Gaben-bg.png=1.000=0=0=0=StretchNoLoop====,
150.000=Stop a Gaben.png=1.000=0=0=0=StretchNoLoop====,
150.250=Stop a Gaben-bg.png=1.000=0=0=0=StretchNoLoop====,
166.000=Stop a Gaben.png=1.000=0=0=0=StretchNoLoop====,
166.250=Stop a Gaben-bg.png=1.000=0=0=0=StretchNoLoop====,
214.000=SNORT.png=1.000=0=0=0=StretchNoLoop====,
230.500=Stop a Gaben-bg.png=1.000=0=0=0=StretchNoLoop====,
250.000=SNORT.png=1.000=0=0=0=StretchNoLoop====,
266.500=Stop a Gaben-bg.png=1.000=0=0=0=StretchNoLoop====,
286.000=SNORT.png=1.000=0=0=0=StretchNoLoop====,
302.500=Stop a Gaben-bg.png=1.000=0=0=0=StretchNoLoop====,
327.999=Lord Gaben.png=1.000=0=0=0=StretchNoLoop====
;
#FGCHANGES:;

//--------------- dance-single - ----------------
#NOTEDATA:;
#STEPSTYPE:dance-single;
#DESCRIPTION:;
#DIFFICULTY:Beginner;
#METER:4;
#RADARVALUES:0,0,0,0,0;
#NOTES:
0000
0000
0000
0000
,
0000
0000
0000
0000
,
0000
0000
1000
0000
,
1000
0000
0001
0000
,
0001
0000
0000
0000
,
2000
3000
1100
0000
0000
0000
0000
0000
0000
0000
0200
0000
0000
0000
0000
0300
,
0110
0000
0000
0000
0000
0000
0000
0000
0020
0000
0000
0000
0000
0030
0011
0000
,
0000
0000
0000
0000
0000
0000
0002
0000
0000
0000
0000
0003
0101
0000
0000
0000
,
0000
0000
0000
0000
0200
0000
0000
0000
0000
0300
0110
0000
0000
0000
0000
0000
,
0000
0000
0020
0000
0000
0000
0000
0030
1010
0000
0000
0000
0000
0000
0000
0000
,
2000
0000
0000
0000
0000
3000
1001
0000
0000
0000
0000
0000
0001
0000
0000
0000
,
0000
0010
0100
1000
0000
0001
0000
0000
,
0000
0000
0010
0000
0000
0001
0000
0000
,
0000
0000
0100
0000
0000
0001
0000
0000
,
0000
0000
1000
0000
0000
0001
0000
0000
,
0000
0000
1001
1000
0000
0000
0000
0000
,
1001
0100
0000
0000
0000
0000
1001
0010
,
0000
0000
0000
0000
1001
0001
0000
0000
,
0000
0000
0000
0000
,
0000
0000
0000
1000
0000
0000
0000
0000
,
1001
0100
0000
0000
0000
0000
1001
0010
,
0000
0000
0000
0000
1001
0001
0000
0000
,
0000
0000
0000
0000
,
0000
0000
0000
0000
,
0000
0100
0000
0000
0000
0000
1001
0010
,
0000
0000
0000
0000
1001
0001
0000
0000
,
0000
0000
0000
0000
,
0000
0000
0000
0000
,
0000
0000
0000
0000
0000
0000
0000
0010
,
0000
0000
0000
0000
1001
0001
0000
0000
,
0000
0000
0000
0000
,
0000
0000
0000
0000
,
0000
0000
0000
0000
,
0000
0000
0000
0000
0000
0001
0000
0000
,
0000
0000
0000
0000
,
0000
0000
0000
0000
,
0000
0000
0000
0000
,
0000
0000
0000
0000
0000
0001
0000
0000
,
0000
0000
0000
0000
,
0000
0000
0000
0000
,
0000
0000
0000
0000
,
0000
0000
0000
0000
0000
0001
0000
0000
,
0000
0000
0000
0000
0000
0000
2000
3000
1010
0000
0000
0000
0000
0000
0000
0000
,
0020
0000
0000
0000
0000
0030
0110
0000
0000
0000
0000
0000
0000
0000
0200
0000
,
0000
0000
0000
0300
0101
0000
0000
0000
0000
0000
0000
0000
0002
0000
0000
0000
,
0000
0003
0011
0000
0000
0000
0000
0000
0000
0000
0020
0000
0000
0000
0000
0030
,
0110
0000
0000
0000
0000
0000
0000
0000
0200
0000
0000
0000
0000
0300
1100
0000
,
0000
0000
0000
0000
0000
0000
2000
0000
0000
0000
0000
3000
1001
0000
0000
0000
,
0000
0001
0000
0000
0100
0010
1000
0001
,
0000
0000
0000
0000
1001
0000
0000
0010
,
0000
0000
0000
0000
0000
0000
0000
0100
,
0000
0000
0000
0000
0000
0000
1000
0100
,
0010
0001
0000
0000
0000
0000
0000
0000
,
0000
0000
0000
0000
MMMM
MMMM
0000
0010
,
0000
0000
0000
0000
0000
0000
0000
0100
,
0000
0000
0000
0000
0000
0000
1000
0100
,
0010
0001
0000
0000
0000
0000
0000
0000
,
0000
0000
0000
0000
0000
0000
0000
0010
,
0000
0000
0000
0000
1001
0000
0000
0100
,
0000
0000
0000
0000
0000
0000
1000
0100
,
0010
0001
0000
0000
0000
0000
0000
0000
,
0000
0000
0000
0000
,
0000
0000
0000
0000
MMMM
MMMM
0000
0100
,
0000
0000
0000
0000
0000
0000
1000
0100
,
0010
0001
0000
0000
0000
0000
0000
0000
,
0000
0000
0000
0000
,
0000
0000
0000
0000
0000
0000
0000
0100
,
0000
0000
0000
0000
1001
0000
1000
0100
,
0010
0001
0000
0000
0000
0000
0000
0000
,
0000
0000
0000
0000
,
0000
0000
0000
0000
,
0000
0000
0000
0000
MMMM
MMMM
1000
0100
,
0010
0001
0000
0000
0000
0000
0000
0000
,
0000
0000
0000
0000
,
0000
0000
0000
0000
,
0000
0000
0000
0000
0000
0000
1000
0100
,
0010
0000
0001
0000
0000
0000
2000
3000
1100
0000
0000
0000
0000
0000
0200
0000
,
0000
0000
0000
0300
0101
0000
0000
0000
0000
0000
0002
0000
0000
0000
0000
0003
,
0011
0000
0000
0000
0000
0000
0020
0000
0000
0000
0000
0030
1010
0000
0000
0000
,
0000
0000
2000
0000
0000
0000
0000
3000
1001
0000
0000
0000
0000
0000
0002
0000
,
0000
0000
0000
0003
0101
0000
0000
0000
0000
0000
0200
0000
0000
0000
0000
0300
,
0110
0000
0000
0010
1000
0100
0010
0001
,
0000
1000
0000
0000
0000
0000
0000
0000
0000
0000
0000
0000
0000
0000
0000
0000
0000
0001
0000
0000
0000
0000
0000
0000
0000
0000
0000
0000
0000
0000
0000
0000
0000
1000
0000
0000
0000
0000
0000
0000
0000
0000
0000
0000
0000
0000
0000
0000
0000
0001
0000
0000
0000
0000
0000
0000
0000
0000
0000
0000
0000
0000
0000
0000
,
0000
1000
0000
0000
0000
0000
0000
0000
0000
0000
0000
0000
0000
0000
0000
0000
0000
0000
0000
0000
0000
0000
0000
0000
0000
0000
0000
0000
0000
0000
0000
0000
0000
0000
0000
0000
0000
0000
0000
0000
0000
0000
0000
0000
0000
0000
0000
0000
0000
0000
0000
0000
0000
0000
0000
0000
0000
0000
0000
0000
0000
0000
0000
0000
;

//--------------- dance-single - ----------------
#NOTEDATA:;
#STEPSTYPE:dance-single;
#DESCRIPTION:;
#DIFFICULTY:Easy;
#METER:5;
#RADARVALUES:0,0,0,0,0;
#NOTES:
0000
0000
0000
0000
,
0000
0000
0000
0000
,
0000
0000
1000
0001
,
1000
0000
0001
1000
,
0001
0000
0000
0000
0000
0000
2000
3000
,
0002
0003
0101
0000
0000
0000
0000
0000
0000
0000
0002
0000
0000
0000
0010
0003
,
0011
0000
0000
0000
0001
0000
0000
0000
2000
0000
0000
0000
0010
3000
1010
0000
,
0000
0000
0000
0000
0000
0000
2000
0000
0000
0000
0100
3000
1100
0000
0000
0000
,
0000
0000
0000
0000
0200
0000
0000
0000
0010
0300
0110
0000
0000
0000
0000
0000
,
0000
0000
0020
0000
0000
0000
0001
0030
0011
0000
0000
0000
0010
0000
0000
0000
,
0002
0000
0000
0000
1000
0003
1001
0000
0000
0000
0001
0000
1000
0000
0000
0000
,
1000
0100
0010
0001
0000
1000
0000
0100
,
0000
0000
0010
0000
0000
0001
0000
0100
,
0000
0000
0010
0000
0000
1000
0000
0010
,
0000
0000
0100
0000
0000
0001
0000
0010
,
0000
0000
1001
0001
0000
0001
0000
0000
,
1001
1000
0000
1000
0000
0000
1001
0001
,
0000
0001
0000
0000
1001
1000
0000
0000
,
0000
0000
0000
0000
,
0000
0000
0000
0001
0000
0001
0000
0000
,
1001
1000
0000
1000
0000
0000
1001
0001
,
0000
0001
0000
0000
1001
1000
0000
0000
,
0000
0000
0000
0000
,
0000
0000
0000
0000
,
00M0
1000
0000
1000
0000
0000
1001
0001
,
0000
0001
0000
0000
1001
1000
0000
0000
,
0000
0000
0000
0000
,
0000
0000
0000
0000
,
0000
0000
0000
0000
0000
0000
0M00
0001
,
0000
0001
0000
0000
1001
1000
0000
0000
,
0000
0000
0000
0000
,
0000
0000
0000
0000
,
0000
0000
0000
0000
,
0000
0000
0000
0000
0MM0
1000
0000
0000
,
0000
0000
0000
0000
,
0000
0000
0000
0000
,
0000
0000
0000
0000
,
0000
0000
0000
0000
0000
1000
0000
0000
,
0000
0000
0000
0000
,
0000
0000
0000
0000
,
0000
0000
0000
0000
,
0000
0000
0000
0000
0000
1000
0000
0000
,
0000
0000
0000
0000
0000
0000
2000
3000
1010
0000
0000
0000
0000
0000
0000
0000
,
2000
0000
0000
0000
0100
3000
1100
0000
0000
0000
1000
0000
0000
0000
0002
0000
,
0000
0000
0100
0003
0101
0000
0000
0000
0000
0000
0000
0000
0002
0000
0000
0000
,
0010
0003
0011
0000
0000
0000
0000
0000
0000
0000
0020
0000
0000
0000
0100
0030
,
0110
0000
0000
0000
0000
0000
0000
0000
0200
0000
0000
0000
1000
0300
1100
0000
,
0000
0000
0100
0000
0000
0000
2000
0000
0000
0000
0001
3000
1001
0000
0000
0000
,
1000
0001
0000
1000
0010
0100
0001
1000
,
0000
1000
0000
0000
1001
0000
0000
0001
,
0000
0001
0000
0000
1001
0000
0000
1000
,
0000
1000
0000
0000
1001
0000
0001
0010
,
0100
1000
0000
0000
0000
0000
0000
0000
,
0000
0000
0000
0000
MMMM
MMMM
0000
0001
,
0000
0001
0000
0000
1001
0000
0000
1000
,
0000
1000
0000
0000
1001
0000
0001
0010
,
0100
1000
0000
0000
0000
0000
0000
0000
,
0000
0000
0000
0000
0000
0000
0000
0001
,
0000
0001
0000
0000
1001
0000
0000
1000
,
0000
1000
0000
0000
1001
0000
0001
0010
,
0100
1000
0000
0000
0000
0000
0000
0000
,
0000
0000
0000
0000
,
0000
0000
0000
0000
MMMM
MMMM
0000
1000
,
0000
1000
0000
0000
1001
0000
0001
0010
,
0100
1000
0000
0000
0000
0000
0000
0000
,
0000
0000
0000
0000
,
0000
0000
0000
0000
0000
0000
0000
1000
,
0000
1000
0000
0000
1001
0000
0001
0010
,
0100
1000
0000
0000
0000
0000
0000
0000
,
0000
0000
0000
0000
,
0000
0000
0000
0000
,
0000
0000
0000
0000
MMMM
MMMM
0001
0010
,
0100
1000
0000
0000
0000
0000
0000
0000
,
0000
0000
0000
0000
,
0000
0000
0000
0000
,
0000
0000
0000
0000
0000
0000
0001
0010
,
0100
0000
1000
0000
0000
0000
0020
0030
1010
0000
0000
0000
1000
0000
0002
0000
,
0000
0000
0010
0003
0011
0000
0000
0000
0001
0000
2000
0000
0000
0000
0100
3000
,
1100
0000
0000
0000
1000
0000
0002
0000
0000
0000
0100
0003
0101
0000
0000
0000
,
0001
0000
0020
0000
0000
0000
0100
0030
0110
0000
0000
0000
0010
0000
0002
0000
,
0000
0000
1000
0003
1001
0000
0000
0000
0001
0000
0200
0000
0000
0000
0001
0300
,
0101
0000
0100
0010
1000
0100
0010
0001
,
0000
1000
0000
0000
0000
0000
0000
0000
0000
0010
0000
0000
0000
0000
0000
0000
0000
0100
0000
0000
0000
0000
0000
0000
0000
0001
0000
0000
0000
0000
0000
0000
0000
0010
0000
0000
0000
0000
0000
0000
0000
0001
0000
0000
0000
0000
0000
0000
0000
0100
0000
0000
0000
0000
0000
0000
0000
0010
0000
0000
0000
0000
0000
0000
,
0000
1000
0000
0000
0000
0000
0000
0000
0000
0000
0000
0000
0000
0000
0000
0000
0000
0000
0000
0000
0000
0000
0000
0000
0000
0000
0000
0000
0000
0000
0000
0000
0000
0000
0000
0000
0000
0000
0000
0000
0000
0000
0000
0000
0000
0000
0000
0000
0000
0000
0000
0000
0000
0000
0000
0000
0000
0000
0000
0000
0000
0000
0000
0000
;

//--------------- dance-single - ----------------
#NOTEDATA:;
#STEPSTYPE:dance-single;
#DESCRIPTION:;
#DIFFICULTY:Medium;
#METER:7;
#RADARVALUES:0,0,0,0,0;
#NOTES:
0000
0000
0000
0000
,
0000
0000
0000
0000
,
0000
0000
1000
1000
,
0001
0001
0000
0000
0001
0000
0001
0000
,
1000
1000
0000
0000
0000
0000
2000
3000
,
0002
0003
0101
0000
0000
0000
0001
0000
0000
0000
2000
0000
0000
0000
0010
3000
,
1010
0000
1000
0000
0001
0000
0000
0000
2000
0000
0000
0000
0100
3000
1100
0000
,
0000
0000
1000
0000
0000
0000
0002
0000
0000
0000
0010
0003
0011
0000
0000
0000
,
0001
0000
0000
0000
0200
0000
0000
0000
0010
0300
0110
0000
0000
0000
0100
0000
,
0000
0000
0002
0000
0000
0000
1000
0003
1001
0000
0001
0000
0010
0000
0000
0000
,
0200
0000
0000
0000
1000
0300
1100
0000
1000
0000
0000
0000
0001
0000
0000
0000
,
0001
0010
0100
1000
0000
0001
0000
0001
,
0010
0000
0100
1000
0000
1000
0000
1000
,
0010
0000
0100
0001
0000
0001
0000
0001
,
0100
0000
0010
1000
0000
1000
0000
1000
,
0100
0000
1001
0010
0000
0001
0000
0000
,
1001
0100
0000
0010
0000
0000
1001
1000
,
0000
0100
0000
0000
1001
1000
0000
0000
,
0000
0000
0000
0000
,
0000
0000
0000
0010
0000
0001
0000
0000
,
1001
0100
0000
0010
0000
0000
1001
1000
,
0000
0100
0000
0000
1001
1000
0000
0000
,
0000
0000
0000
0000
,
0000
0000
0000
0000
,
00M0
0100
0000
0010
0000
0000
1001
1000
,
0000
0100
0000
0000
1001
1000
0000
0000
,
0000
0000
0000
0000
,
0000
0000
0000
0000
,
0000
0000
0000
0000
0000
0000
0M00
1000
,
0000
0100
0000
0000
1001
1000
0000
0000
,
0000
0000
0000
0000
,
0000
0000
0000
0000
,
0000
0000
0000
0000
,
0000
0000
0000
0000
0MM0
1000
0000
0000
,
0000
0000
0000
0000
,
0000
0000
0000
0000
,
0000
0000
0000
0000
,
0000
0000
0000
0000
0000
1000
0000
0000
,
0000
0000
0000
0000
,
0000
0000
0000
0000
,
0000
0000
0000
0000
,
0000
0000
0000
0000
0000
1000
0000
0000
,
0000
0000
0000
0000
0000
0000
2000
3000
1010
0000
0000
0000
1000
0000
0000
0000
,
0002
0000
0000
0000
0100
0003
0101
0000
0001
0000
1000
0000
0000
0000
0002
0000
,
0000
0000
0010
0003
0011
0000
0000
0000
0001
0000
0000
0000
2000
0000
0000
0000
,
0100
3000
1100
0000
0000
0000
1000
0000
0000
0000
0020
0000
0000
0000
0100
0030
,
0110
0000
0000
0000
0010
0000
0000
0000
2000
0000
0000
0000
0001
3000
1001
0000
,
1000
0000
0100
0000
0000
0000
0020
0000
0000
0000
0001
0030
0011
0000
0001
0000
,
0000
1000
0000
1000
0100
0010
0001
0100
,
0000
0001
0000
0000
1001
0000
0000
0010
,
0000
0100
0000
0000
1001
0000
0000
1000
,
0000
0010
0000
0000
1001
0000
1000
0100
,
0010
0001
0000
0000
0000
0000
0000
0000
,
0000
0000
0000
0000
MMMM
MMMM
0000
0010
,
0000
0100
0000
0000
1001
0000
0000
1000
,
0000
0010
0000
0000
1001
0000
1000
0100
,
0010
0001
0000
0000
0000
0000
0000
0000
,
0000
0000
0000
0000
0000
0000
0000
0010
,
0000
0100
0000
0000
1001
0000
0000
1000
,
0000
0010
0000
0000
1001
0000
1000
0100
,
0010
0001
0000
0000
0000
0000
0000
0000
,
0000
0000
0000
0000
,
0000
0000
0000
0000
MMMM
MMMM
0000
1000
,
0000
0010
0000
0000
1001
0000
1000
0100
,
0010
0001
0000
0000
0000
0000
0000
0000
,
0000
0000
0000
0000
,
0000
0000
0000
0000
0000
0000
0000
1000
,
0000
0010
0000
0000
1001
0000
1000
0100
,
0010
0001
0000
0000
0000
0000
0000
0000
,
0000
0000
0000
0000
,
0000
0000
0000
0000
,
0000
0000
0000
0000
MMMM
MMMM
1000
0100
,
0010
0001
0000
0000
0000
0000
0000
0000
,
0000
0000
0000
0000
,
0000
0000
0000
0000
,
0000
0000
0000
0000
0000
0000
1000
0100
,
0010
0000
0001
0000
0000
0000
2000
3000
1010
0000
0000
0000
0001
0000
0020
0000
,
0000
0000
0001
0030
0011
0000
0001
0000
1000
0000
0200
0000
0000
0000
1000
0300
,
1100
0000
0000
0000
0001
0000
0200
0000
0000
0000
0001
0300
0101
0000
0000
0000
,
1000
0000
0002
0000
0000
0000
1000
0003
1001
0000
0000
0000
1000
0000
0200
0000
,
0000
0000
0010
0300
0110
0000
0100
0000
1000
0000
0010
0000
0000
0000
0001
0000
,
1000
0000
0000
0000
0100
0000
0001
0000
0010
0000
0100
0000
1000
0010
0100
0000
,
0000
0000
0000
0001
0000
0000
0000
0000
0000
0000
0000
0000
0000
0000
0000
0000
0000
0000
0000
0010
0000
0000
0000
0000
0000
0000
0000
0000
0000
0000
0000
0000
0000
0000
0000
1000
0000
0000
0000
0000
0000
0000
0000
0000
0000
0000
0000
0000
0000
0000
0000
0001
0000
0000
0000
0000
0000
0000
0000
0000
0000
0000
0000
0000
0000
0000
0000
0100
0000
0000
0000
0000
0000
0000
0000
0000
0000
0000
0000
0000
0000
0000
0000
0010
0000
0000
0000
0000
0000
0000
0000
0000
0000
0000
0000
0000
0000
0000
0000
0001
0000
0000
0000
0000
0000
0000
0000
0000
0000
0000
0000
0000
0000
0000
0000
0100
0000
0000
0000
0000
0000
0000
0000
0000
0000
0000
0000
0000
0000
0000
0000
1000
0000
0000
0000
0000
0000
0000
0000
0000
0000
0000
0000
0000
0000
0000
0000
0001
0000
0000
0000
0000
0000
0000
0000
0000
0000
0000
0000
0000
0000
0000
0000
0010
0000
0000
0000
0000
0000
0000
0000
0000
0000
0000
0000
0000
0000
0000
0000
0100
0000
0000
0000
0000
0000
0000
0000
0000
0000
0000
0000
0000
,
0000
0001
0000
0000
0000
0000
0000
0000
0000
0000
0000
0000
0000
0000
0000
0000
0000
0000
0000
0000
0000
0000
0000
0000
0000
0000
0000
0000
0000
0000
0000
0000
0000
0000
0000
0000
0000
0000
0000
0000
0000
0000
0000
0000
0000
0000
0000
0000
0000
0000
0000
0000
0000
0000
0000
0000
0000
0000
0000
0000
0000
0000
0000
0000
;

//--------------- dance-single - ----------------
#NOTEDATA:;
#STEPSTYPE:dance-single;
#DESCRIPTION:;
#DIFFICULTY:Hard;
#METER:10;
#RADARVALUES:0,0,0,0,0;
#NOTES:
0000
0000
0000
0000
,
0000
0000
0000
0000
,
0000
0000
0000
0000
1000
0001
1000
0000
,
0001
1000
0000
0000
0001
1000
0001
0000
,
1000
0001
0000
0000
0000
0000
2000
3000
,
0002
0003
1100
0000
0000
0000
1000
0000
0100
0000
0020
0000
0000
0000
0001
0030
,
0011
0000
0001
0000
0100
0000
0010
0000
0200
0000
0000
0000
0001
0300
0101
0000
,
0000
0000
0001
0000
0100
0000
0020
0000
0000
0000
1000
0030
1010
0000
0000
0000
,
1000
0000
0100
0000
0002
0000
0000
0000
0100
0003
1100
0000
0000
0000
1000
0000
,
0010
0000
2000
0000
0000
0000
0001
3000
1001
0000
0001
0000
0010
0000
0100
0000
,
0020
0000
0000
0000
0100
0030
0110
0000
0010
0000
0001
0000
1000
0000
0000
0000
,
1000
0100
0010
0001
1000
0001
0010
0001
,
0010
0000
0001
0100
0001
1000
0100
1000
,
0100
0000
1000
0100
1000
0001
0100
0001
,
0100
0000
0001
0010
0001
1000
0010
1000
,
0010
0000
1001
1000
0010
0100
0000
0000
,
1001
0001
0010
0100
0000
0000
1001
1000
,
0100
0010
0000
0000
1001
0002
0003
0000
,
0000
0000
0000
0000
,
0000
0000
0000
1000
0010
0100
0000
0000
,
1001
0001
0010
0100
0000
0000
1001
1000
,
0100
0010
0000
0000
1001
0002
0003
0000
,
0000
0000
0000
0000
,
0000
0000
0000
0000
,
0M00
0001
0010
0100
0000
0000
1001
1000
,
0100
0010
0000
0000
1001
0002
0003
0000
,
0000
0000
0000
0000
,
0000
0000
0000
0000
,
0000
0000
0000
0000
0000
0000
00M0
1000
,
0100
0010
0000
0000
1001
0002
0003
0000
,
0000
0000
0000
0000
,
0000
0000
0000
0000
,
0000
0000
0000
0000
,
0000
0000
0000
0000
0MM0
0002
0003
0000
,
0000
0000
0000
0000
,
0000
0000
0000
0000
,
0000
0000
0000
0000
,
0000
0000
0000
0000
0000
0002
0003
0000
,
0000
0000
0000
0000
,
0000
0000
0000
0000
,
0000
0000
0000
0000
,
0000
0000
0000
0000
0000
0002
0003
0000
,
0000
0000
0000
0000
0000
0000
2000
3000
0011
0000
0000
0000
0001
0000
0010
0000
,
0200
0000
0000
0000
1000
0300
1100
0000
1000
0000
0010
0000
0100
0000
0020
0000
,
0000
0000
1000
0030
1010
0000
0000
0000
1000
0000
0010
0000
0200
0000
0000
0000
,
0001
0300
0101
0000
0000
0000
0001
0000
0010
0000
2000
0000
0000
0000
0010
3000
,
0011
0000
0000
0000
0001
0000
0100
0000
0002
0000
0000
0000
1000
0003
1001
0000
,
1000
0000
0100
0000
0010
0000
0200
0000
0000
0000
0010
0300
0110
0000
0100
0000
,
1000
0001
0000
0001
0100
0010
1000
0001
,
0010
0100
0000
0000
1001
0000
0000
1000
,
0010
0100
0000
0000
1001
0000
0000
0001
,
0100
0010
0000
0000
1001
0000
1000
0100
,
0010
0001
0000
0000
0000
0000
0000
0000
,
0000
0000
0000
0000
MMMM
MMMM
0000
1000
,
0010
0100
0000
0000
1001
0000
0000
0001
,
0100
0010
0000
0000
1001
0000
1000
0100
,
0010
0001
0000
0000
0000
0000
0000
0000
,
0000
0000
0000
0000
0000
0000
0000
1000
,
0010
0100
0000
0000
1001
0000
0000
0001
,
0100
0010
0000
0000
1001
0000
1000
0100
,
0010
0001
0000
0000
0000
0000
0000
0000
,
0000
0000
0000
0000
,
0000
0000
0000
0000
MMMM
MMMM
0000
0001
,
0100
0010
0000
0000
1001
0000
1000
0100
,
0010
0001
0000
0000
0000
0000
0000
0000
,
0000
0000
0000
0000
,
0000
0000
0000
0000
0000
0000
0000
0001
,
0100
0010
0000
0000
1001
0000
1000
0100
,
0010
0001
0000
0000
0000
0000
0000
0000
,
0000
0000
0000
0000
,
0000
0000
0000
0000
,
0000
0000
0000
0000
MMMM
MMMM
1000
0100
,
0010
0001
0000
0000
0000
0000
0000
0000
,
0000
0000
0000
0000
,
0000
0000
0000
0000
,
0000
0000
0000
0000
0000
0000
1000
0100
,
0010
0000
0001
0000
0000
0000
2000
3000
0101
0000
0000
0000
0001
0000
2000
0000
,
0010
0000
0001
3000
0011
0000
0001
0000
1000
0000
0020
0000
0100
0000
1000
0030
,
1100
0000
0000
0000
1000
0000
0002
0000
0010
0000
1000
0003
1010
0000
0000
0000
,
1000
0000
0020
0000
0001
0000
1000
0030
1001
0000
0000
0000
0010
0000
0002
0000
,
0100
0000
0010
0003
0110
0000
0100
0000
1000
0000
0020
0000
0100
0000
1000
0030
,
1100
0000
0100
0000
0010
0000
0001
0000
0100
0000
0010
0000
1000
0100
0010
0000
,
0000
0001
0000
0000
0000
0100
0000
0000
0000
0010
0000
0000
0000
0001
0000
0000
0000
0010
0000
0000
0000
1000
0000
0000
0000
0001
0000
0000
0000
0010
0000
0000
0000
1000
0000
0000
0000
0010
0000
0000
0000
0001
0000
0000
0000
0100
0000
0000
0000
1000
0000
0000
0000
0100
0000
0000
0000
0001
0000
0000
0000
1000
0000
0000
,
0000
0100
0000
0000
0000
0000
0000
0000
0000
0000
0000
0000
0000
0000
0000
0000
0000
0000
0000
0000
0000
0000
0000
0000
0000
0000
0000
0000
0000
0000
0000
0000
0000
0000
0000
0000
0000
0000
0000
0000
0000
0000
0000
0000
0000
0000
0000
0000
0000
0000
0000
0000
0000
0000
0000
0000
0000
0000
0000
0000
0000
0000
0000
0000
;

//--------------- dance-single - ----------------
#NOTEDATA:;
#STEPSTYPE:dance-single;
#DESCRIPTION:;
#DIFFICULTY:Challenge;
#METER:13;
#RADARVALUES:0,0,0,0,0;
#NOTES:
0000
0000
0000
0000
,
0000
0000
0000
0000
,
0000
0000
0000
0000
0000
0000
0000
0000
1000
0000
0001
0000
1001
0000
0000
0001
,
1000
0001
0000
0000
0000
0000
0000
0000
0001
0000
1000
0000
1001
0000
0000
1000
,
0001
1000
0000
0000
0000
0000
0000
0000
0000
0000
0000
0000
2000
0000
3000
0000
,
0020
0000
0000
0000
0000
0000
0000
0030
0101
0000
0000
0000
0000
0000
0000
0000
0001
0000
0000
0000
0000
0000
0000
0000
0010
0000
0000
0000
0100
0000
0000
0000
0010
0000
0000
0000
0000
0000
0000
0000
0002
0000
0000
0000
0000
0000
0000
0000
0100
0000
0000
0000
0000
0000
0000
0000
1000
0000
0000
0000
0000
0000
0000
0003
,
1100
0000
0000
0000
0000
0000
0000
0000
0100
0000
0000
0000
0010
0000
0000
0000
0100
0000
0000
0000
0001
0000
0000
0000
0100
0000
0000
0000
0000
0000
0000
0000
2000
0000
0000
0000
0000
0000
0000
0000
0001
0000
0000
0000
0000
0000
0000
0000
0010
0000
0000
0000
0000
0000
0000
3000
0011
0000
0000
0000
0000
0000
0000
0000
,
0001
0000
0000
0000
0000
0000
0000
0000
0010
0000
0000
0000
1000
0000
0000
0000
0010
0000
0000
0000
0000
0000
0000
0000
0200
0000
0000
0000
0000
0000
0000
0000
0010
0000
0000
0000
0000
0000
0000
0000
1000
0000
0000
0000
0000
0000
0000
0300
1010
0000
0000
0000
0000
0000
0000
0000
0010
0000
0000
0000
0100
0000
0000
0000
,
0010
0000
0000
0000
0001
0000
0000
0000
0010
0000
0000
0000
0000
0000
0000
0000
2000
0000
0000
0000
0000
0000
0000
0000
0100
0000
0000
0000
0000
0000
0000
0000
0001
0000
0000
0000
0000
0000
0000
3000
0101
0000
0000
0000
0000
0000
0000
0000
0001
0000
0000
0000
0000
0000
0000
0000
0010
0000
0000
0000
1000
0000
0000
0000
,
0010
0000
0000
0000
0000
0000
0000
0000
0200
0000
0000
0000
0000
0000
0000
0000
0001
0000
0000
0000
0000
0000
0000
0000
1000
0000
0000
0000
0000
0000
0000
0300
1001
0000
0000
0000
0000
0000
0000
0000
1000
0000
0000
0000
0010
0000
0000
0000
0100
0000
0000
0000
1000
0000
0000
0000
0100
0000
0000
0000
0000
0000
0000
0000
,
0002
0000
0000
0000
0000
0000
0000
0000
0010
0000
0000
0000
0000
0000
0000
0000
0100
0000
0000
0000
0000
0000
0000
0003
0110
0000
0000
0000
0000
0000
0000
0000
0010
0000
0000
0000
0000
0000
0000
0000
1000
0000
0000
0000
0000
0000
0000
0000
0100
0000
0000
0000
0000
0000
0000
0000
0010
0000
0000
0000
0000
0000
0000
0000
,
0001
1000
0010
0001
0010
1000
0001
1000
,
0010
0000
1000
0100
0010
0001
1000
0001
,
0100
0000
0001
0010
0100
1000
0010
1000
,
0100
0000
1000
0010
0100
0001
0010
0001
,
0100
0000
1001
1000
0100
0001
0100
0000
,
1001
1000
0010
0001
0010
0000
1001
0001
,
0100
0000
0000
0000
0000
0000
1000
0000
0000
0000
0000
0000
0100
0000
0000
0000
0000
0000
0000
0000
0000
0000
0000
0000
1001
0000
0000
0000
0000
0000
1000
0000
0000
0000
0000
0000
0100
0000
0000
0010
0000
0000
0001
0000
0000
0000
0100
0000
,
0000
0010
0000
1000
0000
0000
0000
0000
0000
0000
0000
0000
0000
0000
0000
0000
0000
0000
0000
0000
0000
0000
0000
0000
,
0000
0000
0000
1000
0100
0001
0100
0000
,
1001
1000
0010
0001
0010
0000
1001
0001
,
0100
0000
0000
0000
0000
0000
1000
0000
0000
0000
0000
0000
0100
0000
0000
0000
0000
0000
0000
0000
0000
0000
0000
0000
1001
0000
0000
0000
0000
0000
1000
0000
0000
0000
0000
0000
0100
0000
0000
0010
0000
0000
0001
0000
0000
0000
0100
0000
,
0000
0010
0000
1000
0000
0000
0000
0000
0000
0000
0000
0000
0000
0000
0000
0000
0000
0000
0000
0000
0000
0000
0000
0000
,
0000
0000
0000
0000
,
0M00
1000
0010
0001
0010
0000
1001
0001
,
0100
0000
0000
0000
0000
0000
1000
0000
0000
0000
0000
0000
0100
0000
0000
0000
0000
0000
0000
0000
0000
0000
0000
0000
1001
0000
0000
0000
0000
0000
1000
0000
0000
0000
0000
0000
0100
0000
0000
0010
0000
0000
0001
0000
0000
0000
0100
0000
,
0000
0010
0000
1000
0000
0000
0000
0000
0000
0000
0000
0000
0000
0000
0000
0000
0000
0000
0000
0000
0000
0000
0000
0000
,
0000
0000
0000
0000
,
0000
0000
0000
0000
0000
0000
00M0
0001
,
0100
0000
0000
0000
0000
0000
1000
0000
0000
0000
0000
0000
0100
0000
0000
0000
0000
0000
0000
0000
0000
0000
0000
0000
1001
0000
0000
0000
0000
0000
1000
0000
0000
0000
0000
0000
0100
0000
0000
0010
0000
0000
0001
0000
0000
0000
0100
0000
,
0000
0010
0000
1000
0000
0000
0000
0000
0000
0000
0000
0000
0000
0000
0000
0000
0000
0000
0000
0000
0000
0000
0000
0000
,
0000
0000
0000
0000
,
0000
0000
0000
0000
,
0000
0000
0000
0000
0000
0000
0000
0000
0000
0000
0000
0000
0000
0000
0000
0000
0000
0000
0000
0000
0000
0000
0000
0000
0MM0
0000
0000
0000
0000
0000
1000
0000
0000
0000
0000
0000
0100
0000
0000
0010
0000
0000
0001
0000
0000
0000
0100
0000
,
0000
0010
0000
1000
0000
0000
0000
0000
0000
0000
0000
0000
0000
0000
0000
0000
0000
0000
0000
0000
0000
0000
0000
0000
,
0000
0000
0000
0000
,
0000
0000
0000
0000
,
0000
0000
0000
0000
0000
0000
0000
0000
0000
0000
0000
0000
0000
0000
0000
0000
0000
0000
0000
0000
0000
0000
0000
0000
0000
0000
0000
0000
0000
0000
1000
0000
0000
0000
0000
0000
0100
0000
0000
0010
0000
0000
0001
0000
0000
0000
0100
0000
,
0000
0010
0000
1000
0000
0000
0000
0000
0000
0000
0000
0000
0000
0000
0000
0000
0000
0000
0000
0000
0000
0000
0000
0000
,
0000
0000
0000
0000
,
0000
0000
0000
0000
,
0000
0000
0000
0000
0000
0000
0000
0000
0000
0000
0000
0000
0000
0000
0000
0000
0000
0000
0000
0000
0000
0000
0000
0000
0000
0000
0000
0000
0000
0000
1000
0000
0000
0000
0000
0000
0100
0000
0000
0010
0000
0000
0001
0000
0000
0000
0100
0000
,
0000
0000
0000
0000
0000
0000
0000
0000
0010
0000
0000
0000
0000
0000
0000
0000
0000
0000
0000
0000
0000
0000
0000
0000
1000
0000
0000
0000
0000
0000
0000
0000
0000
0000
0000
0000
0000
0000
0000
0000
0000
0000
0000
0000
0000
0000
0000
0000
0000
0000
0000
0000
0000
0000
0000
0000
0000
0000
0000
0000
0000
0000
0000
0000
0000
0000
0000
0000
0000
0000
0000
0000
0200
0000
0000
0000
0000
0000
0000
0000
0000
0000
0000
0000
0000
0000
0000
0000
0000
0000
0000
0000
0000
0300
0000
0000
1010
0000
0000
0000
0000
0000
0000
0000
0000
0000
0000
0000
0000
0000
0000
0000
0000
0000
0000
0000
0000
0000
0000
0000
1000
0000
0000
0000
0000
0000
0000
0000
0000
0000
0000
0000
0000
0000
0000
0000
0000
0000
0000
0000
0000
0000
0000
0000
0100
0000
0000
0000
0000
0000
0000
0000
0000
0000
0000
0000
0010
0000
0000
0000
0000
0000
0000
0000
0000
0000
0000
0000
0100
0000
0000
0000
0000
0000
0000
0000
0000
0000
0000
0000
0000
0000
0000
0000
0000
0000
0000
0000
0000
0000
0000
0000
,
2000
0000
0000
0000
0000
0000
0000
0000
0010
0000
0000
0000
0000
0000
0000
0000
0001
0000
0000
0000
0000
0000
0000
3000
0011
0000
0000
0000
0000
0000
0000
0000
0010
0000
0000
0000
0100
0000
0000
0000
0010
0000
0000
0000
1000
0000
0000
0000
0010
0000
0000
0000
0000
0000
0000
0000
0002
0000
0000
0000
0000
0000
0000
0000
,
1000
0000
0000
0000
0000
0000
0000
0000
0100
0000
0000
0000
0000
0000
0000
0003
1100
0000
0000
0000
0000
0000
0000
0000
1000
0000
0000
0000
0000
0000
0000
0000
0100
0000
0000
0000
0001
0000
0000
0000
0100
0000
0000
0000
0000
0000
0000
0000
0020
0000
0000
0000
0000
0000
0000
0000
0100
0000
0000
0000
0000
0000
0000
0000
,
0001
0000
0000
0000
0000
0000
0000
0030
0101
0000
0000
0000
0000
0000
0000
0000
0100
0000
0000
0000
0010
0000
0000
0000
0100
0000
0000
0000
1000
0000
0000
0000
0100
0000
0000
0000
0000
0000
0000
0000
0002
0000
0000
0000
0000
0000
0000
0000
0010
0000
0000
0000
0000
0000
0000
0000
1000
0000
0000
0000
0000
0000
0000
0003
,
1010
0000
0000
0000
0000
0000
0000
0000
1000
0000
0000
0000
0000
0000
0000
0000
0100
0000
0000
0000
0001
0000
0000
0000
0100
0000
0000
0000
0000
0000
0000
0000
0020
0000
0000
0000
0000
0000
0000
0000
1000
0000
0000
0000
0000
0000
0000
0000
0001
0000
0000
0000
0000
0000
0000
0030
1001
0000
0000
0000
0000
0000
0000
0000
,
0001
0000
0000
0000
0100
0000
0000
0000
0010
0000
0000
0000
0001
0000
0000
0000
0010
0000
0000
0000
0000
0000
0000
0000
2000
0000
0000
0000
0000
0000
0000
0000
0100
0000
0000
0000
0000
0000
0000
0000
0010
0000
0000
0000
0000
0000
0000
3000
0110
0000
0000
0000
0000
0000
0000
0000
0100
0000
0000
0000
0000
0000
0000
0000
,
0001
1000
0100
1000
0010
0100
0001
1000
,
0100
0000
0001
0000
0100
0000
0000
0000
1001
0000
0000
0000
1000
0001
1000
0000
,
0010
0000
0000
0001
0000
0000
0010
0000
0000
0000
0000
0000
1001
0000
0000
0000
0000
0000
1000
0001
1000
0001
0000
0000
,
0100
1000
0100
0000
1001
0000
0001
0010
,
0100
1000
0000
0000
0000
0000
0000
0000
,
0000
0000
0000
0000
0000
0000
0000
0000
MMMM
0000
MMMM
0000
1000
0001
1000
0000
,
0010
0000
0000
0001
0000
0000
0010
0000
0000
0000
0000
0000
1001
0000
0000
0000
0000
0000
1000
0001
1000
0001
0000
0000
,
0100
1000
0100
0000
1001
0000
0001
0010
,
0100
1000
0000
0000
0000
0000
0000
0000
,
0000
0000
0000
0000
0000
0000
0000
0000
0000
0000
0000
0000
1000
0001
1000
0000
,
0010
0000
0000
0001
0000
0000
0010
0000
0000
0000
0000
0000
1001
0000
0000
0000
0000
0000
1000
0001
1000
0001
0000
0000
,
0100
1000
0100
0000
1001
0000
0001
0010
,
0100
1000
0000
0000
0000
0000
0000
0000
,
0000
0000
0000
0000
,
0000
0000
0000
0000
0000
0000
0000
0000
0000
0000
0000
0000
MMMM
0000
0000
MMMM
0000
0000
1000
0001
1000
0001
0000
0000
,
0100
1000
0100
0000
1001
0000
0001
0010
,
0100
1000
0000
0000
0000
0000
0000
0000
,
0000
0000
0000
0000
,
0000
0000
0000
0000
0000
0000
0000
0000
0000
0000
0000
0000
0000
0000
0000
0000
0000
0000
1000
0001
1000
0001
0000
0000
,
0100
1000
0100
0000
1001
0000
0001
0010
,
0100
1000
0000
0000
0000
0000
0000
0000
,
0000
0000
0000
0000
,
0000
0000
0000
0000
,
0000
0000
0000
0000
MMMM
MMMM
0001
0010
,
0100
1000
0000
0000
0000
0000
0000
0000
,
0000
0000
0000
0000
,
0000
0000
0000
0000
,
0000
0000
0000
0000
0000
0000
0001
0010
,
0100
0000
0000
0000
0000
0000
0000
0000
1000
0000
0000
0000
0000
0000
0000
0000
0000
0000
0000
0000
0000
0000
0000
0000
0020
0000
0000
0000
0000
0000
0000
0030
0101
0000
0000
0000
0000
0000
0000
0000
0001
0000
0000
0000
0000
0000
0000
0000
0010
0000
0000
0000
0100
0000
0000
0000
2000
0000
0000
0000
0000
0000
0000
0000
,
0010
0000
0000
0000
0000
0000
0000
0000
0001
0000
0000
0000
0000
0000
0000
3000
0011
0000
0000
0000
0000
0000
0000
0000
0001
0000
0000
0000
0100
0000
0000
0000
0010
0000
0000
0000
1000
0000
0000
0000
0002
0000
0000
0000
0000
0000
0000
0000
0010
0000
0000
0000
0000
0000
0000
0000
1000
0000
0000
0000
0000
0000
0000
0003
,
1010
0000
0000
0000
0000
0000
0000
0000
1000
0000
0000
0000
0000
0000
0000
0000
0100
0000
0000
0000
0010
0000
0000
0000
0002
0000
0000
0000
0000
0000
0000
0000
0100
0000
0000
0000
0000
0000
0000
0000
1000
0000
0000
0000
0000
0000
0000
0003
1100
0000
0000
0000
0000
0000
0000
0000
1000
0000
0000
0000
0000
0000
0000
0000
,
0010
0000
0000
0000
0100
0000
0000
0000
0002
0000
0000
0000
0000
0000
0000
0000
0010
0000
0000
0000
0000
0000
0000
0000
0100
0000
0000
0000
0000
0000
0000
0003
0110
0000
0000
0000
0000
0000
0000
0000
0100
0000
0000
0000
0000
0000
0000
0000
1000
0000
0000
0000
0100
0000
0000
0000
0020
0000
0000
0000
0000
0000
0000
0000
,
0001
0000
0000
0000
0000
0000
0000
0000
1000
0000
0000
0000
0000
0000
0000
0030
1001
0000
0000
0000
0000
0000
0000
0000
1000
0000
0000
0000
0100
0000
0000
0000
0010
0000
0000
0000
0001
0000
0000
0000
1000
0000
0000
0000
0000
0000
0000
0000
0010
0000
0000
0000
0000
0000
0000
0000
0001
0000
0000
0000
0000
0000
0000
0000
,
1000
0000
0100
0000
0001
0000
1000
0000
0010
0000
0100
0000
0001
0010
0100
0000
,
0000
0000
0000
1000
0000
0000
0000
0000
0000
0000
0000
0010
0000
0000
0000
0000
0000
0000
0000
0100
0000
0000
0000
0000
0000
0000
0000
0001
0000
0000
0000
0000
0000
0000
0000
0010
0000
0000
0000
0000
0000
0000
0000
0100
0000
0000
0000
0000
0000
0000
0000
1000
0000
0000
0000
0000
0000
0000
0000
0010
0000
0000
0000
0000
0000
0000
0000
0100
0000
0000
0000
0000
0000
0000
0000
0001
0000
0000
0000
0000
0000
0000
0000
0010
0000
0000
0000
0000
0000
0000
0000
0100
0000
0000
0000
0000
0000
0000
0000
1000
0000
0000
0000
0000
0000
0000
0000
0100
0000
0000
0000
0000
0000
0000
0000
0010
0000
0000
0000
0000
0000
0000
0000
0001
0000
0000
0000
0000
0000
0000
0000
0100
0000
0000
0000
0000
0000
0000
0000
0010
0000
0000
0000
0000
0000
0000
0000
1000
0000
0000
0000
0000
0000
0000
0000
0100
0000
0000
0000
0000
0000
0000
0000
0010
0000
0000
0000
0000
0000
0000
0000
0001
0000
0000
0000
0000
0000
0000
0000
0100
0000
0000
0000
0000
0000
0000
0000
0010
0000
0000
0000
0000
,
0000
1000
0000
0000
0000
0000
0000
0000
0000
0000
0000
0000
0000
0000
0000
0000
0000
0000
0000
0000
0000
0000
0000
0000
0000
0000
0000
0000
0000
0000
0000
0000
0000
0000
0000
0000
0000
0000
0000
0000
0000
0000
0000
0000
0000
0000
0000
0000
0000
0000
0000
0000
0000
0000
0000
0000
0000
0000
0000
0000
0000
0000
0000
0000
;
