#VERSION:0.83;
#TITLE:Step Up;
#SUBTITLE:;
#ARTIST:Z-I-v Sound Team "Karl with a K";
#TITLETRANSLIT:;
#SUBTITLETRANSLIT:;
#ARTISTTRANSLIT:;
#GENRE:PSEUDO ULTRA JAZZFUNKTION;
#ORIGIN:;
#CREDIT:;
#BANNER:Step Up banner.png;
#BACKGROUND:Step Up bg.png;
#PREVIEWVID:;
#JACKET:Step Up jk.png;
#CDIMAGE:;
#DISCIMAGE:;
#LYRICSPATH:;
#CDTITLE:;
#MUSIC:Step Up.ogg;
#OFFSET:-0.025000;
#SAMPLESTART:100.900002;
#SAMPLELENGTH:15.000000;
#SELECTABLE:YES;
#BPMS:0.000=160.000;
#STOPS:;
#DELAYS:;
#WARPS:;
#TIMESIGNATURES:0.000=4=4;
#TICKCOUNTS:0.000=4;
#COMBOS:0.000=1;
#SPEEDS:0.000=1.000=0.000=0;
#SCROLLS:0.000=1.000;
#FAKES:;
#LABELS:0.000=Song Start;
#BGCHANGES:;
#KEYSOUNDS:;
#ATTACKS:
;

//---------------dance-single - XO DS- JA BU- STR[17*] JU HS----------------
#NOTEDATA:;
#CHARTNAME:;
#STEPSTYPE:dance-single;
#DESCRIPTION:XO DS- JA BU- STR[17*] JU HS;
#CHARTSTYLE:;
#DIFFICULTY:Challenge;
#METER:18;
#RADARVALUES:0.875364,1.144958,0.267333,0.408034,1.016568,871.000000,833.000000,38.000000,58.000000,0.000000,0.000000,0.000000,0.000000,0.000000,0.875364,1.144958,0.267333,0.408034,1.016568,871.000000,833.000000,38.000000,58.000000,0.000000,0.000000,0.000000,0.000000,0.000000;
#CREDIT:Karl with a K;
#NOTES:
// measure 0
0000
0000
0000
0000
,  // measure 1
0000
0000
0000
0000
,  // measure 2
0000
0000
0000
0000
,  // measure 3
0000
0000
0000
0000
,  // measure 4
0000
0000
0000
0000
,  // measure 5
0000
0000
0000
0000
,  // measure 6
0001
0000
0000
0010
0000
0000
0100
0000
1000
0000
0000
0010
0000
0000
0100
0000
,  // measure 7
0001
0000
0000
1000
0000
0000
0100
0000
0010
0000
0000
0001
0000
0000
0010
0000
,  // measure 8
0001
1000
0001
1000
0100
1000
0100
0010
0001
0010
0001
1000
0010
0100
0001
1000
,  // measure 9
0100
0000
1100
0000
0000
1000
0000
0000
1010
0000
0000
0010
0000
0000
0210
0000
,  // measure 10
0000
0000
0000
0000
0000
0000
0000
0000
0000
0000
0000
0000
0310
0000
0000
0000
0000
0000
1000
0000
0010
0000
1000
0000
0010
0000
0000
0000
1000
0000
0000
0000
0100
0000
0000
0000
0010
0000
0000
0001
0000
0000
0010
0000
0000
0100
0000
0000
,  // measure 11
1000
0000
0001
0000
0100
0000
0010
0000
0001
0020
0000
0230
0000
0000
0301
0000
,  // measure 12
0000
0000
0100
0000
0000
0000
0000
0000
0010
0000
1000
0010
1000
0000
0100
0000
,  // measure 13
0010
0001
0010
0000
0100
0000
1000
0000
0010
0000
0000
0100
0001
0000
0100
0000
,  // measure 14
0001
0000
0000
0000
0000
0000
1000
0100
0010
0000
0001
0000
0100
0000
0010
0000
,  // measure 15
0001
0010
0000
0001
0010
0000
0001
0010
0001
0000
0010
0000
0100
0000
1000
0000
,  // measure 16
0000
0000
0000
0000
0000
0000
0100
0000
0001
0020
0000
0000
0100
0000
0000
0000
,  // measure 17
0031
0010
0100
1000
0001
0100
0010
1000
0010
0000
0000
0100
0001
0000
0010
0000
,  // measure 18
0100
0000
1000
0000
0100
0000
0010
0001
0000
0100
0010
0000
0001
0000
0010
0000
,  // measure 19
0100
0000
0001
0000
0010
0000
0100
0000
0001
0200
0000
0320
0000
0000
0031
0000
,  // measure 20
0000
0000
0100
0000
1000
0000
0001
0000
0010
0000
1000
0100
1000
0000
0010
0000
,  // measure 21
0100
0001
0100
0000
0010
0000
1000
0000
0100
0000
0010
0001
0010
0000
0001
0000
,  // measure 22
0000
0000
0001
0000
0001
0000
1000
0010
0100
0000
0001
0000
0010
0000
0100
0000
,  // measure 23
0001
0100
0000
0001
0100
0000
0001
0100
0001
0000
0100
0000
0010
0000
1000
0000
,  // measure 24
0000
0000
1000
0010
0100
0000
0010
0000
0001
0200
0000
0000
0310
0100
0010
0100
,  // measure 25
0002
0000
0000
0203
0000
0000
0310
0000
1000
0000
0100
1000
0000
0000
0001
0000
,  // measure 26
0020
0000
0000
0230
0000
0000
1300
0001
1000
0000
0100
0020
0000
0000
0000
0000
,  // measure 27
0031
0000
0000
0011
0000
0000
0001
0000
0100
0000
0000
0110
0000
0000
0100
0000
,  // measure 28
0010
1000
0001
0020
0000
0000
0130
0000
1000
0000
0000
0000
1010
0000
0000
0000
,  // measure 29
0210
0301
0101
1000
,  // measure 30
1200
0000
1300
0000
0010
1000
0100
0000
,  // measure 31
0210
1300
1100
0001
,  // measure 32
0201
0000
0301
0000
0010
0001
0100
0000
,  // measure 33
1010
0000
1000
0100
0110
0000
1001
0000
,  // measure 34
0011
0000
0001
0100
1000
0100
1000
0100
,  // measure 35
0110
0000
0000
0000
0001
0000
0100
0000
0110
0000
0001
0000
0010
0100
1000
0000
,  // measure 36
0200
0000
0001
0000
,  // measure 37
0301
0100
1000
0100
0001
0100
1000
0010
,  // measure 38
0001
0010
1000
0010
0001
0010
1000
0100
,  // measure 39
0010
1000
0010
0001
0010
1000
0010
0001
,  // measure 40
0100
1000
0100
0001
0100
1000
0100
0001
,  // measure 41
1000
1000
0010
0010
0100
0100
0001
0001
,  // measure 42
0010
0000
0100
0000
1000
0000
0100
0000
0010
0100
0010
0100
0010
0100
0010
0100
,  // measure 43
2000
0010
0010
0010
,  // measure 44
3001
0010
0001
0010
0100
1000
0010
1000
0010
1000
0001
0100
2000
0000
3200
0000
,  // measure 45
0320
0000
1000
0001
0000
0000
0001
1000
0000
0000
1000
0001
0000
0000
0001
1000
,  // measure 46
0000
0000
1000
0100
0000
0000
0001
1000
0000
0000
0100
0001
0000
0000
0001
1000
,  // measure 47
0000
0000
1000
0100
0000
0000
0001
0100
0000
0000
1000
0100
0000
0000
0031
0100
,  // measure 48
0020
0000
1030
0100
0020
0000
0031
0100
0020
0000
1030
0100
0020
0000
0031
1000
,  // measure 49
0200
0000
1000
0001
0000
0000
0001
1000
0000
0000
1000
0001
0000
0000
0001
1000
,  // measure 50
0000
0000
1000
0010
0000
0000
0001
1000
0000
0000
0010
0001
0000
0000
0001
1000
,  // measure 51
0000
0000
1000
0010
0000
0000
0001
0010
0000
0000
1000
0010
0000
0000
0301
0010
,  // measure 52
0200
0000
1300
0010
0200
0000
0301
0010
0200
0000
1300
0010
0200
0000
0301
1000
,  // measure 53
0020
0000
1030
0001
0010
0000
1000
0010
0000
0001
0010
0000
0200
0000
1300
0001
,  // measure 54
0100
0000
1000
0100
0000
0001
0100
0000
0020
0000
1030
0001
0010
0000
1000
0010
,  // measure 55
0000
0001
0100
0000
1001
0000
0000
0101
0000
0000
1001
0000
0000
1100
0000
0000
,  // measure 56
0011
0000
0001
0100
0010
0000
0001
1000
0000
0100
0001
0000
1010
0000
1000
0100
,  // measure 57
0010
0000
0000
0000
0000
0000
1000
0000
0000
0001
0000
0000
0000
0000
0000
0100
0000
0000
1000
0000
0000
0000
0000
0000
0100
0000
0000
0000
0000
0000
0010
0000
0000
0001
0000
0000
0010
0000
0000
0000
0000
0000
0000
0000
1001
0000
0000
0000
,  // measure 58
0000
0101
0000
1010
0000
1001
0000
1100
0000
1010
0000
0101
,  // measure 59
0000
0000
0000
0000
0110
0000
0000
0000
0000
0000
0000
0000
1001
0000
0000
0000
0000
0000
0000
0000
0000
0000
0000
0000
1000
0000
0000
0000
0000
0000
0100
0000
0000
0000
0000
0000
0010
0000
0000
0000
0000
0000
0001
0000
0000
1000
0000
0000
,  // measure 60
0010
0000
0000
0000
1001
0000
0000
0000
0001
0000
0100
0000
0010
0000
1000
0001
,  // measure 61
0010
0000
0000
0000
0110
0000
0000
0000
0010
0000
0001
0000
0100
0000
0010
1000
,  // measure 62
0010
0000
0000
0000
0110
0000
0000
0000
0010
0000
1000
0000
0100
0000
0010
0001
,  // measure 63
0200
0000
0302
0023
0230
0000
2300
0000
,  // measure 64
3200
0000
2300
3020
0230
0000
0302
0000
,  // measure 65
0203
0000
0000
0000
0320
0000
2030
0000
3100
0000
0010
0000
0001
1000
0010
1000
,  // measure 66
0000
0000
0000
0000
0010
0000
0000
0000
0010
0000
0000
0000
0010
0000
0000
0000
0010
0000
0000
0000
0010
0000
0000
0000
0010
0000
0000
0000
0000
0000
0000
0000
0000
0000
0000
0000
0110
0000
0000
0000
0000
0000
0010
0000
0000
1000
0000
0000
,  // measure 67
0100
1000
0100
0010
0001
0000
1000
0100
0010
0001
1000
0001
0010
0001
1000
0001
,  // measure 68
1000
0010
0100
0001
1000
0100
0010
0001
0100
0010
0100
0010
1000
0100
0010
0001
,  // measure 69
0100
0010
1000
0001
0100
0010
1000
0001
0010
0100
1000
0010
1000
0010
0100
0001
,  // measure 70
1000
0100
0010
0001
1000
0001
0100
0010
1000
0010
0100
0001
1000
0010
1000
0010
,  // measure 71
1000
0000
0001
0000
1000
0000
0001
0000
1000
0000
0001
0000
0010
0000
0000
0001
0000
0000
0100
0000
0000
0001
0000
0000
1000
0000
0000
0010
0000
0000
0100
0000
0000
0001
0000
0000
1000
0000
0000
0100
0000
0000
0010
0000
0000
0001
0000
0000
,  // measure 72
1000
0010
0100
0001
0100
0010
1000
0100
1000
0100
0010
0001
1000
0010
1000
0001
,  // measure 73
0010
0001
0010
0001
1000
0100
0010
0001
1000
0010
0100
0001
1000
0100
0010
0100
,  // measure 74
1000
0001
0100
0010
0200
0000
0301
1000
0200
0000
0310
0001
0100
0010
0100
0010
,  // measure 75
0200
0000
0301
1000
0010
1000
0100
0010
0001
0100
0010
1000
0100
0010
0001
0100
,  // measure 76
0010
1000
0100
1000
0001
0100
0010
1000
0100
0010
0001
0100
0010
1000
0100
0010
,  // measure 77
0001
0100
0010
1000
0010
0100
1000
0100
0010
1000
0001
0010
0100
0001
0100
0010
,  // measure 78
0001
0100
0010
1000
0100
0001
1000
0010
0002
0000
0103
1000
0001
0020
1000
0000
,  // measure 79
0100
0000
0130
0001
1000
0100
0010
0001
0100
0010
1000
0100
0000
0002
0000
0000
,  // measure 80
0103
0000
1000
0000
0001
0100
0010
1000
0100
0010
0001
0100
0000
2000
0000
0000
,  // measure 81
3100
0000
0010
1000
0100
1000
0010
1000
0100
0010
0001
0100
0001
0010
0001
1000
,  // measure 82
0001
0010
1000
0010
0001
1000
0001
0100
1000
0100
0001
1000
0010
1000
0100
0010
,  // measure 83
0001
0100
0010
1000
0100
0001
1000
0010
0001
0000
0001
0010
0100
1000
0100
0010
,  // measure 84
0001
1000
0010
0001
0020
0000
0100
0000
1030
0001
1000
0000
0001
0000
1000
0000
,  // measure 85
0010
0000
0100
0000
1000
0200
0000
0320
0000
0000
1030
0000
0010
0000
1000
0000
,  // measure 86
0100
0000
1000
0000
0001
0000
0100
0001
0100
0001
1000
0000
0100
0000
0100
0000
,  // measure 87
0010
0000
0001
0000
0100
0010
0000
0010
1000
0000
0010
0000
1000
0000
0100
0000
,  // measure 88
0010
0000
0001
0010
0100
0000
1000
0000
0010
0000
0100
0000
1000
0100
0000
1000
,  // measure 89
0100
0000
1000
0100
1000
0000
0100
0000
0010
0000
0001
0000
1000
0000
0100
0000
,  // measure 90
0001
0000
0010
0000
0100
0010
0000
0010
0100
0010
0100
0000
1000
0100
0010
0001
,  // measure 91
1000
0010
0100
0001
0100
0010
0000
0010
1000
0000
0100
0000
0010
0000
0001
0000
,  // measure 92
0010
0000
0100
1000
0010
0100
0000
1001
0000
1000
0000
0100
0020
0000
0000
0000
,  // measure 93
0031
0000
0000
0000
;

//---------------dance-single - XO- DS JA- JU----------------
#NOTEDATA:;
#CHARTNAME:;
#STEPSTYPE:dance-single;
#DESCRIPTION:XO- DS JA- JU;
#CHARTSTYLE:;
#DIFFICULTY:Hard;
#METER:15;
#RADARVALUES:0.652251,0.850540,0.337683,0.274368,0.393964,649.000000,601.000000,48.000000,39.000000,0.000000,0.000000,0.000000,0.000000,0.000000,0.652251,0.850540,0.337683,0.274368,0.393964,649.000000,601.000000,48.000000,39.000000,0.000000,0.000000,0.000000,0.000000,0.000000;
#CREDIT:Karl with a K;
#NOTES:
0000
0000
0000
0000
,
0000
0000
0000
0000
,
0000
0000
0000
0000
,
0000
0000
0000
0000
,
0000
0000
0000
0000
,
0000
0000
0000
0000
,
1000
0100
0010
0001
,
1000
0010
0100
0001
,
0010
0100
1000
0100
0010
0001
0100
0010
,
0000
0000
1010
0000
0000
0001
0000
0000
0010
0000
0000
0100
0000
0000
2000
0000
,
0000
0000
0000
0000
0000
0000
0000
0000
0000
0000
0000
0000
3001
0000
0010
0000
0100
0000
1000
0000
0000
1000
0000
0000
,
0001
0000
0100
0000
0010
0000
0000
0000
2000
0000
0000
3200
0000
0000
1300
0000
,
0000
0000
0100
0000
0000
0000
0000
0000
0010
0000
0001
1000
0001
0000
0100
0000
,
0010
0000
1000
0000
0100
0000
1000
0000
0001
0000
0000
0100
0000
0000
0001
0000
,
0000
0000
0000
0000
0000
0000
1000
0010
1000
0000
0100
0000
0010
0000
0001
0000
,
1000
0000
0000
1000
0000
0000
1000
0001
1000
0000
0010
0000
0100
0000
0001
0000
,
0000
0000
0000
0010
2000
0000
0000
0000
,
3010
0000
0001
0000
1000
0010
1000
0000
0001
0000
0000
0100
0000
0000
0002
0000
,
0000
0000
0103
0000
0010
0000
0000
1000
0000
0000
0100
0000
0010
0000
0001
0000
,
1000
0000
0100
0000
0010
0000
0000
0000
0002
0000
0000
0203
0000
0000
0301
0000
,
0000
0000
0100
0000
0000
0000
0000
0000
0010
0000
1000
0001
1000
0000
0100
0000
,
0010
0000
0001
0000
0100
0000
0001
0000
1000
0000
0000
0100
0000
0000
1000
0000
,
0000
0000
0000
0000
0000
0000
0001
0010
0001
0000
0100
0000
0010
0000
1000
0000
,
0001
0000
0000
0001
0000
0000
0001
1000
0001
0000
0010
0000
0100
0000
1000
0000
,
0000
0000
0000
0100
0020
0000
0000
0130
,
0010
0000
0000
0001
0000
0000
1000
0000
0100
0000
0000
1000
0000
0000
0010
0000
,
0001
0000
0000
0010
0000
0000
1000
0000
0001
0000
0000
0020
0000
0000
0000
0000
,
1030
0000
0010
2000
0000
0000
3010
0000
0001
0000
1000
0002
0000
0000
0013
0000
,
0100
0000
0001
0200
0000
0000
0310
0000
0001
0000
0000
0000
0101
0000
0000
0000
,
2001
0100
0010
3100
,
1002
0100
0010
0103
,
0021
0100
1000
0031
,
1020
0100
0001
1030
,
1000
0100
0010
0001
1000
0010
1000
0001
,
0010
0010
0001
0100
0010
1000
0001
1000
,
0010
0100
0001
0010
0100
1000
0001
0100
,
0010
0000
1000
0000
,
0001
0100
0010
0100
0001
0100
0010
0100
,
0001
0010
0100
0010
0001
0010
0100
0010
,
0001
1000
0100
0010
0100
1000
0100
0010
,
0001
1000
0010
0100
0010
1000
0001
0100
,
0001
0010
0100
1000
0001
0010
0100
1000
,
0010
0000
0010
0000
0100
0000
0100
0000
0001
0100
0001
0100
0001
1000
0001
1000
,
0002
0000
0000
0000
,
1003
0100
0010
0001
1000
0000
0001
0100
0010
1000
0001
0000
1001
0000
0000
0000
,
1100
0100
0110
0010
0011
0001
1001
1000
,
1010
0010
0110
0100
0101
0001
1001
1000
,
1001
0001
0101
0001
0011
0001
1001
1000
,
1010
1000
1010
1000
1010
1000
1010
1000
,
1100
0100
0110
0100
0101
0100
0110
0100
,
1001
1000
1010
0010
0110
0010
0011
0010
,
0110
0100
1001
1000
1100
0100
0110
0010
,
0110
0100
1100
0100
0110
0100
0101
0100
,
0010
0000
0100
0000
0001
0000
0100
0010
0000
0000
0001
0000
0201
0000
0000
0000
,
0310
0000
0001
0010
0000
0000
0100
0000
0120
0000
0000
0000
0130
0000
1000
0100
,
0000
0000
0001
0000
1000
0000
0000
0100
0000
0000
0001
0000
0000
0100
0000
0000
,
1000
0000
0010
0100
1000
0000
0100
0010
0000
0000
1000
0000
1200
0000
0000
0000
,
0310
0000
0000
0000
0000
0000
1000
0000
0000
0010
0000
0000
0000
0000
0000
0000
0000
0000
0100
0000
0000
0000
0000
0000
0120
0000
0000
0000
0000
0000
0000
0000
0000
0000
0000
0000
0130
0000
0000
0000
0000
0000
0000
0000
0001
0000
0000
0000
,
0000
0100
0000
1000
0000
0010
0000
0100
0000
0010
0000
0100
,
0000
0001
0000
1000
0000
0000
0100
0000
0000
0010
0000
0000
,
0001
1000
0010
0100
,
0001
1000
0100
0010
,
0001
1000
0010
0100
,
0001
0002
0013
0020
,
0130
0200
1300
2000
,
3010
0100
0010
0100
0010
0100
0001
0010
,
0000
0100
1000
0100
1000
0100
1000
0000
0000
1001
0000
0000
,
1001
0000
0000
0000
1000
0000
0100
0010
0001
0000
1000
0000
0010
0100
0001
0000
,
1000
0000
0001
0000
1000
0100
1000
0100
0010
0000
0001
0000
1000
0000
0000
0000
,
1010
0000
0000
0000
0010
1000
0001
0000
0010
0100
1000
0000
0001
0000
0100
0000
,
0010
0000
0100
0000
0001
0000
0010
0000
0100
0000
1000
0000
0010
0100
0010
0000
,
1000
0001
1000
0001
1000
0100
0010
0000
0001
0000
0010
0000
0001
0010
0100
0000
,
1000
0000
0010
0000
1000
0010
1000
0000
0001
0000
1000
0000
0001
0000
0000
0000
,
0110
0000
1000
0100
0010
0001
0100
0010
,
1000
0000
0100
0000
0010
0000
0001
1000
0001
0000
1000
0010
0100
0000
0100
0000
,
0100
0000
0000
0000
0010
1000
0000
0010
1000
0000
0010
1000
0000
0010
1000
0000
,
0010
0000
1000
0100
0010
0001
0000
0010
0001
0000
0010
0001
0000
0010
0001
0000
,
0010
0000
0001
0000
0010
0001
0000
1000
0010
0000
1000
0001
0000
0010
0001
0000
,
1000
0000
0100
0000
1000
0100
0010
0001
1000
0000
0001
0100
0010
2000
0000
0000
,
3002
0000
0000
0000
1003
0100
1000
0100
1000
0100
0000
0010
0000
0002
0000
0000
,
1003
0000
0001
0000
1000
0010
1000
0010
1000
0010
0000
0100
0000
0002
0000
0000
,
1003
0000
1000
0000
0001
0000
0100
0010
0000
0000
1000
0000
0100
0010
0000
0000
,
0001
0000
0100
0010
0000
0000
1000
0000
0100
0000
0100
0000
1000
0000
0100
0010
,
0000
0000
0001
0000
0010
0100
0000
0000
1000
0000
0010
0100
0000
0000
2000
0000
,
3200
0302
0023
0031
1001
0000
1000
0010
,
0100
0000
0000
0000
0002
0000
0000
0023
0000
0000
0031
0000
0000
0000
0010
0000
,
0000
0000
0000
0000
0100
0000
1000
0001
1000
0000
0010
0000
0100
0000
0001
0000
,
0010
0000
0001
0000
1000
0000
0000
0010
0000
0000
1000
0000
0000
0000
0000
0000
,
0000
0000
0001
0100
0001
0000
0010
0000
0100
0000
1000
0000
0001
0000
0000
0001
,
0000
0000
0001
1000
0001
0000
0100
0000
0010
0000
1000
0000
0200
0000
0000
0000
,
0300
0100
0002
0000
0000
0000
0103
1000
,
0001
0100
0001
0000
1000
0000
0000
0010
0000
0000
2000
0000
0000
0000
3010
0000
,
0100
0000
0000
0001
0000
0010
0000
0100
0000
1000
0000
0010
0200
0000
0000
0000
,
0301
0000
0000
0000
;

//---------------dance-single - XO- DS- JA- JU-----------------
#NOTEDATA:;
#CHARTNAME:;
#STEPSTYPE:dance-single;
#DESCRIPTION:XO- DS- JA- JU-;
#CHARTSTYLE:;
#DIFFICULTY:Medium;
#METER:12;
#RADARVALUES:0.466325,0.556122,0.147736,0.119596,0.158289,464.000000,443.000000,21.000000,17.000000,0.000000,0.000000,0.000000,0.000000,0.000000,0.466325,0.556122,0.147736,0.119596,0.158289,464.000000,443.000000,21.000000,17.000000,0.000000,0.000000,0.000000,0.000000,0.000000;
#CREDIT:Karl with a K;
#NOTES:
0000
0000
0000
0000
,
0000
0000
0000
0000
,
0000
0000
0000
0000
,
0000
0000
0000
0000
,
0000
0000
0000
0000
,
0000
0000
0000
0000
,
1000
0100
0010
0000
,
0001
0100
0010
0000
,
1000
0100
1000
0000
0001
0100
0001
0000
,
0000
1001
0000
0000
0110
0000
0000
2002
,
0000
0000
0000
0000
3003
0000
0000
0000
1000
0000
0000
0100
0000
0000
0000
0000
,
1000
0000
0000
0000
0100
0000
0000
0000
0010
0000
0000
0010
0000
0000
0001
0000
,
0000
0100
0000
0000
0010
0000
1000
0000
,
0001
0000
0000
0000
0100
0000
0000
0000
0010
0000
0000
1000
0000
0000
0100
0000
,
0000
0000
0000
0010
0010
0000
0010
0000
,
0001
0000
0000
0001
0000
0000
0000
0000
0001
0000
0100
0000
0010
0000
1000
0000
,
0000
0000
0000
1000
0020
0000
0000
0000
,
1030
0000
0001
0000
0010
0000
0000
0000
0001
0000
0000
0001
0000
0000
2000
0000
,
0000
0000
3100
0000
0010
0000
0000
0001
0000
0000
0001
0000
0100
0000
0000
0000
,
0001
0000
0000
0000
0100
0000
0000
0000
0010
0000
0000
0010
0000
0000
1000
0000
,
0000
0100
0000
0000
0010
0000
0001
0000
,
1000
0000
0000
0000
0100
0000
0000
0000
0010
0000
0000
0001
0000
0000
0100
0000
,
0000
0000
0000
0010
0010
0000
0010
0000
,
1000
0000
0000
1000
0000
0000
0000
0000
1000
0000
0100
0000
0010
0000
0001
0000
,
0000
0000
0000
0001
0020
0000
0001
0000
,
0031
0000
0010
0000
0001
0000
0100
0010
,
1000
0000
0010
0000
1000
0001
0100
0000
,
0001
0000
0000
0011
0000
0000
0000
0000
1000
0000
0000
1010
0000
0000
0000
0000
,
1001
0000
0000
1001
0000
0000
0000
0000
0110
0000
0000
0000
0110
0000
0000
0000
,
2001
0000
0100
0000
,
3002
0000
0100
0000
,
2003
0000
0100
0000
,
3002
0000
0100
0000
,
1003
0100
0010
0000
0001
0100
0010
0000
,
1000
0001
1000
0000
0001
1000
0001
0000
,
1000
0010
0100
0000
0001
0010
0100
0000
,
1000
0000
0000
0000
,
0001
0100
0001
0000
1000
0100
1000
0000
,
0001
0100
0001
0000
1000
0100
1000
0000
,
0010
0100
0010
0000
1000
0100
1000
0000
,
0001
0100
0001
0000
0010
0100
0010
0000
,
0001
1000
0001
1000
0001
1000
0001
1000
,
0100
0010
0001
0100
0010
1000
0100
0010
,
0002
0000
0000
0000
,
1003
1000
0001
0100
0100
0010
0110
0000
,
1100
0000
0010
0001
0100
0001
0010
0001
,
0100
0000
0010
1000
0100
1000
0010
1000
,
0100
0000
0010
0001
0100
0001
0010
0001
,
1000
0100
1000
0010
1000
0100
1000
0010
,
1000
0000
0010
1000
0100
1000
0010
1000
,
0100
0000
0010
0001
0100
0001
0010
0001
,
0100
0000
0010
1000
0100
1000
0010
1000
,
0001
0100
0001
0010
0001
0100
0001
0010
,
0001
0000
0000
0000
0010
0000
0000
0010
0000
0000
0001
0000
1000
0000
0000
0000
,
0010
0000
0000
0010
0000
0000
1000
0000
0001
0000
0000
0000
0010
0000
0000
0010
,
0000
0000
0100
0000
1000
0000
0000
0100
0000
0000
0010
0000
0000
0001
0000
0000
,
1000
0000
0000
0000
0100
0000
0000
0100
0000
0000
1000
0000
0001
0000
0000
0000
,
0100
0000
0000
0000
0000
0000
0000
0000
0000
0100
0000
0000
0000
0000
0000
0000
0000
0000
0001
0000
0000
0000
0000
0000
1000
0000
0000
0000
0000
0000
0000
0000
0000
0000
0000
0000
0100
0000
0000
0000
0000
0000
0000
0000
0100
0000
0000
0000
,
0000
0010
0000
0001
0000
0001
0000
0001
0000
1000
0000
0010
,
0000
0100
0000
0001
0000
0000
0100
0000
0000
0010
0000
0000
,
0000
1000
0100
0010
,
0000
0001
0100
0010
,
0000
1000
0100
0010
,
0001
0100
0101
0000
,
1000
0100
1100
0000
,
0001
0010
0011
1001
,
0000
1000
0000
0001
0000
0000
1001
0000
0000
1001
0000
0000
,
0110
0000
1000
0100
0010
0001
1000
0000
,
0001
0000
1000
0010
0100
0001
1000
0000
,
1001
0000
0001
0100
0001
0000
1000
0100
,
1000
0000
0100
0010
0001
0100
0010
1000
,
0001
0001
1000
0100
1000
0000
0010
0100
,
0010
0000
1000
0100
1000
0000
0010
0100
,
0001
0010
0001
0100
0010
1000
0010
0100
,
0001
1000
0001
0010
0100
1000
0001
0000
,
1001
0000
0000
0000
1000
0000
0000
1000
0000
0000
1000
0000
0000
1000
0000
0000
,
1000
0000
0000
0000
0001
0000
0000
0001
0000
0000
0001
0000
0000
0001
0000
0000
,
0001
0000
0000
0000
0010
0000
0000
0010
0000
0000
0010
0000
0000
0010
0000
0000
,
0010
0000
0100
1000
0010
0100
0001
0010
,
0002
0000
0000
0000
1003
0000
0001
0000
1000
0000
0001
1000
0000
0020
0000
0000
,
0030
0000
0010
0000
1000
0000
0001
0000
1000
0000
0001
1000
0000
0200
0000
0000
,
0300
0100
0010
0001
0100
0010
1000
0100
,
0010
0001
0100
0010
1000
0100
0001
0100
,
1000
0001
0100
1000
0100
0001
1000
0100
,
0010
0001
2000
0000
0010
0000
3100
0000
,
0010
0000
0000
0000
0100
0000
0000
0100
0000
0000
1000
0000
0000
0000
0010
0000
,
0000
0100
0001
1000
,
0010
0000
0000
0000
0100
0000
0000
0001
0000
0000
0010
0000
0000
0000
0000
0000
,
0000
0000
0100
0000
0100
0000
0000
0000
0100
0000
0000
0000
1000
0000
0000
1000
,
0000
0000
1000
0010
0100
0001
0000
0000
,
0000
0001
0200
0000
0000
0000
0301
1000
,
0100
0000
0000
0000
1000
0000
0000
1000
0000
0000
0002
0000
0000
0000
0013
0000
,
0100
0000
0000
1000
0000
0010
0000
1000
0000
0010
0000
0100
0002
0000
0000
0000
,
1003
0000
0000
0000
;

//---------------dance-single - ----------------
#NOTEDATA:;
#CHARTNAME:;
#STEPSTYPE:dance-single;
#DESCRIPTION:;
#CHARTSTYLE:;
#DIFFICULTY:Easy;
#METER:10;
#RADARVALUES:0.327633,0.587252,0.344718,0.154772,0.049245,326.000000,277.000000,49.000000,22.000000,0.000000,0.000000,0.000000,0.000000,0.000000,0.327633,0.587252,0.344718,0.154772,0.049245,326.000000,277.000000,49.000000,22.000000,0.000000,0.000000,0.000000,0.000000,0.000000;
#CREDIT:Karl with a K;
#NOTES:
0000
0000
0000
0000
,
0000
0000
0000
0000
,
0000
0000
0000
0000
,
0000
0000
0000
0000
,
0000
0000
0000
0000
,
0000
0000
0000
0000
,
0001
0000
0001
0000
,
0100
0000
0100
0000
,
0010
0000
0010
0000
,
0000
1000
0000
0000
1000
0000
0000
2000
,
0000
0000
0000
0000
,
3001
0000
0000
0000
0010
0000
0000
0100
,
0000
0000
1000
0001
,
1000
0010
0100
0001
,
0100
0000
0001
0001
,
1000
0000
0000
0000
0100
0000
0000
0010
,
0000
0000
0001
0001
,
0001
0100
0010
1000
,
0100
0000
0010
0110
,
1000
0000
0000
0000
0010
0000
0000
0100
,
0000
0000
0001
1000
,
0001
0010
0100
1000
,
0100
0000
1000
1000
,
0001
0000
0000
0000
0100
0000
0000
0010
,
0000
0000
1000
1000
,
1000
0100
0010
0001
,
0100
0010
1000
0001
,
1001
0000
0110
0000
,
1001
0000
0110
0110
,
2002
0000
0000
3003
,
0220
0000
0000
0330
,
2002
0000
0000
3003
,
0220
0000
0000
0330
,
2020
0000
0000
3030
,
0202
0000
0000
0303
,
0022
0000
0000
0033
,
1100
0000
0000
0000
,
1000
1000
1000
1000
,
0100
0100
0100
0100
,
0010
0010
0010
0010
,
0001
0001
0100
0100
,
0010
1000
0100
0010
,
0001
0100
0010
1000
,
0200
0000
0000
0000
,
0310
0010
0010
0110
,
0001
1001
0001
1001
,
1000
1001
1000
1001
,
0001
1001
0001
1001
,
1000
0100
0010
0001
,
1000
1001
0001
1001
,
1000
1001
0001
1001
,
1000
1001
0001
1001
,
0001
0100
0010
1000
,
0001
0100
0110
0010
,
1000
0110
1000
0100
,
0110
1001
0110
1001
,
0110
0011
1010
0110
,
0101
1100
0110
1001
,
0000
0000
0000
1000
0000
1000
0000
1000
0000
0001
0000
0001
,
0000
0001
0000
0200
0000
0000
0000
0000
0000
0010
0000
0000
,
0000
0302
0000
0010
,
0000
2003
0000
0001
,
0000
3200
0000
0010
,
0310
0001
1000
0001
,
1000
0010
1000
0001
,
0010
0001
1000
0001
,
0000
1000
0000
0000
0000
0000
1000
0000
0000
1001
0000
0000
,
1001
0001
0100
0010
,
0100
0001
0010
0100
,
1100
1000
0100
0010
,
0001
0100
0010
1000
,
1010
0010
1000
0100
,
0010
0001
0100
0010
,
0110
1001
0001
0010
,
0100
0001
0100
0010
,
0001
0100
0100
0010
,
0010
1000
1000
0010
,
0010
0100
0100
0001
,
0001
0000
0000
0000
0010
0000
0000
0000
0010
0000
0000
0000
0000
0100
0000
0000
,
0100
0000
0000
0000
1000
0000
0100
0000
1000
0000
0000
0000
0000
0002
0000
0000
,
0000
0000
0000
0000
1003
0000
0010
0000
1000
0000
0000
0000
0000
0002
0000
0000
,
0000
0000
0000
0000
1003
0000
0000
1000
0000
0000
1000
0000
0000
1000
0000
0000
,
1000
0000
0000
1000
0000
0000
1000
0000
0000
0000
0000
0000
0001
0000
0000
0001
,
0000
0000
0001
0000
0000
0001
0000
0000
0001
0000
0000
0001
0000
0000
0001
0000
,
0000
0000
0000
1000
,
0000
0000
0100
0000
0000
0010
0000
0000
,
0000
0001
1000
0001
,
0100
0010
1000
0010
,
0000
1000
1000
0001
,
0000
0000
0010
0000
0000
0100
0000
0000
,
0000
1000
1000
1000
,
0010
0100
0001
0010
,
0000
0100
0110
1001
;

//---------------dance-single - ----------------
#NOTEDATA:;
#CHARTNAME:;
#STEPSTYPE:dance-single;
#DESCRIPTION:;
#CHARTSTYLE:;
#DIFFICULTY:Beginner;
#METER:5;
#RADARVALUES:0.155777,0.228376,0.028140,0.042210,0.000000,155.000000,151.000000,4.000000,6.000000,0.000000,0.000000,0.000000,0.000000,0.000000,0.155777,0.228376,0.028140,0.042210,0.000000,155.000000,151.000000,4.000000,6.000000,0.000000,0.000000,0.000000,0.000000,0.000000;
#CREDIT:Karl with a K;
#NOTES:
0000
0000
0000
0000
,
0000
0000
0000
0000
,
0000
0000
0000
0000
,
0000
0000
0000
0000
,
0000
0000
0000
0000
,
0000
0000
0000
0000
,
1000
0000
0000
0000
,
0100
0000
0000
0000
,
0010
0000
0000
0000
,
0000
0001
0000
0000
0000
0000
0000
1001
,
0000
0000
0000
0000
,
1000
0000
0100
0000
,
1000
0000
0000
0000
,
0001
0000
0100
0000
,
0001
0000
0000
0000
,
1000
0000
0010
0000
,
1000
0000
0000
0000
,
0001
0000
0010
0000
,
0001
0000
0000
0000
,
1000
0000
0100
0000
,
1000
0000
1000
0000
,
0001
0000
0100
0000
,
0001
0000
0001
0000
,
1000
0000
0010
0000
,
1000
0000
1000
0000
,
0001
0000
0010
0000
,
0001
0000
0010
0000
,
0100
0000
1000
0000
,
0010
0000
1000
0000
,
2002
0000
0000
0000
,
0000
0000
0000
0000
,
0000
0000
0000
0000
,
0000
0000
3003
0000
,
1000
0000
1000
0000
,
0001
0000
0001
0000
,
1000
0000
1000
0000
,
0001
0000
0000
0000
,
1000
0000
0100
0000
,
0010
0000
0001
0000
,
0100
0000
0010
0000
,
1000
0000
1000
0000
,
0100
0000
0010
0000
,
0001
0000
0100
0000
,
0020
0000
0030
0000
,
0200
0000
0300
0000
,
0001
0001
0001
0000
,
1000
1000
1000
0000
,
0001
0001
0001
0000
,
0100
0100
0100
0000
,
0010
0010
0010
0000
,
0100
0100
0100
0000
,
0010
0010
0010
0000
,
1000
1000
1000
0000
,
0100
0000
0000
0100
,
0000
0000
0100
0000
,
0000
0100
0000
0000
,
0010
0000
0000
0010
,
0000
0000
0010
0000
,
0000
0010
0000
0000
,
0000
0002
0000
0000
,
0000
0000
0000
0000
,
0000
0000
0000
0000
,
0000
0000
0000
0003
,
2000
0000
0000
0000
,
0000
0000
0000
0000
,
0000
0000
0000
0000
,
3000
0000
0001
0001
,
0001
0001
0000
1000
,
0000
0100
0000
0010
,
0000
0001
0000
0100
,
0000
0010
0000
1000
,
0000
1001
0000
0001
,
0000
0100
0000
0010
,
0000
1000
0000
0100
,
0000
0010
0000
0001
,
0000
1000
0001
1000
,
0000
0001
1000
0001
,
0000
1000
0001
1000
,
0000
0001
1000
0000
,
0001
0100
0010
0100
,
0000
0010
0100
0010
,
0000
0000
0100
0000
0000
0010
0000
0000
,
0100
0000
0000
0010
0000
0000
1000
0000
,
0000
0100
0000
0000
0010
0000
0000
0001
,
0000
0000
0000
1000
,
0000
0010
0000
1000
,
0000
0000
0000
0001
,
0000
0010
0000
0001
,
0000
0000
0000
1000
,
0000
0100
0000
1000
,
0000
0000
0000
0001
,
0000
0100
0000
0001
,
0000
0000
0000
1001
;

//---------------dance-single - UP+----------------
#NOTEDATA:;
#CHARTNAME:;
#STEPSTYPE:dance-single;
#DESCRIPTION:UP+;
#CHARTSTYLE:;
#DIFFICULTY:Edit;
#METER:19;
#RADARVALUES:0.791948,1.144958,0.000000,0.429139,0.935664,788.000000,788.000000,0.000000,61.000000,0.000000,0.000000,0.000000,0.000000,0.000000,0.791948,1.144958,0.000000,0.429139,0.935664,788.000000,788.000000,0.000000,61.000000,0.000000,0.000000,0.000000,0.000000,0.000000;
#CREDIT:^arl with a ^;
#NOTES:
0000
0000
0000
0000
,
0000
0000
0000
0000
,
0000
0000
0000
0000
,
0000
0000
0000
0000
,
0000
0000
0000
0000
,
0000
0000
0000
0000
,
0010
0000
0000
0010
0000
0000
0010
0000
0010
0000
0000
0010
0000
0000
0010
0000
,
0010
0000
0000
0010
0000
0000
0010
0000
0010
0000
0000
0010
0000
0000
0010
0000
,
0010
0010
0010
0010
0010
0010
0010
0010
0010
0010
0010
0010
0010
0010
0010
0010
,
0010
0000
0010
0000
0000
0010
0000
0000
0010
0000
0000
0010
0000
0000
0020
0000
,
0000
0000
0000
0000
0000
0000
0000
0000
0000
0030
0000
0000
0010
0000
0000
0000
0000
0000
0010
0000
0010
0000
0010
0000
0010
0000
0000
0000
0010
0000
0000
0000
0010
0000
0000
0000
0010
0000
0000
0010
0000
0000
0010
0000
0000
0010
0000
0000
,
0010
0000
0010
0000
0010
0000
0010
0000
0010
0020
0030
0020
0000
0030
0010
0000
,
0000
0000
0010
0000
0000
0000
0000
0000
0010
0000
0010
0010
0010
0000
0010
0000
,
0010
0010
0010
0000
0010
0000
0010
0000
0010
0000
0000
0010
0010
0000
0010
0000
,
0010
0000
0000
0000
0000
0000
0010
0010
0010
0000
0010
0000
0010
0000
0010
0000
,
0010
0010
0000
0010
0010
0000
0010
0010
0010
0000
0010
0000
0010
0000
0010
0000
,
0000
0000
0000
0000
0000
0000
0010
0000
0010
0020
0000
0030
0010
0000
0000
0000
,
0010
0010
0010
0010
0010
0010
0010
0010
0010
0000
0000
0010
0010
0000
0010
0000
,
0010
0000
0010
0000
0010
0000
0010
0010
0000
0010
0010
0000
0010
0000
0010
0000
,
0010
0000
0010
0000
0010
0000
0010
0000
0010
0020
0030
0020
0000
0030
0010
0000
,
0000
0000
0010
0000
0010
0000
0010
0000
0010
0000
0010
0010
0010
0000
0010
0000
,
0010
0010
0010
0000
0010
0000
0010
0000
0010
0000
0010
0010
0010
0000
0010
0000
,
0000
0000
0010
0000
0010
0000
0010
0010
0010
0000
0010
0000
0010
0000
0010
0000
,
0010
0010
0000
0010
0010
0000
0010
0010
0010
0000
0010
0000
0010
0000
0010
0000
,
0000
0000
0010
0010
0010
0000
0010
0000
0010
0020
0000
0030
0010
0010
0010
0010
,
0020
0000
0030
0020
0000
0030
0010
0000
0010
0000
0010
0010
0000
0000
0010
0000
,
0020
0000
0030
0020
0000
0030
0010
0010
0010
0000
0010
0020
0000
0000
0000
0030
,
0010
0000
0000
0010
0000
0000
0010
0000
0010
0000
0000
0010
0000
0000
0010
0000
,
0010
0010
0010
0020
0000
0030
0010
0000
0010
0000
0000
0000
0010
0000
0000
0000
,
0020
0030
0010
0000
0010
0000
0010
0000
,
0020
0030
0010
0000
0010
0010
0010
0000
,
0020
0030
0010
0000
0010
0000
0010
0000
,
0020
0030
0010
0000
0010
0010
0010
0000
,
0010
0000
0010
0010
0010
0000
0010
0000
,
0010
0000
0010
0010
0010
0010
0010
0010
,
0010
0000
0000
0000
0010
0000
0010
0000
0010
0000
0000
0000
0010
0010
0010
0000
,
0020
0000
0000
0030
0010
0000
0000
0000
,
0010
0010
0010
0010
0010
0010
0010
0010
,
0010
0010
0010
0010
0010
0010
0010
0010
,
0010
0010
0010
0010
0010
0010
0010
0010
,
0010
0010
0010
0010
0010
0010
0010
0010
,
0010
0010
0010
0010
0010
0010
0010
0010
,
0010
0000
0010
0000
0010
0000
0010
0000
0010
0010
0010
0010
0010
0010
0010
0010
,
0020
0030
0010
0000
0010
0000
0010
0000
,
0010
0010
0010
0010
0010
0010
0010
0010
0010
0010
0010
0010
0020
0030
0020
0030
,
0020
0000
0000
0000
,
0000
0000
0000
0000
,
0000
0000
0000
0000
0000
0000
0000
0030
,
0020
0030
0010
0010
0020
0030
0010
0010
0020
0030
0010
0010
0020
0030
0010
0010
,
0020
0000
0000
0000
,
0000
0000
0000
0000
,
0000
0000
0000
0000
0000
0000
0000
0030
,
0020
0030
0010
0010
0020
0030
0010
0010
0020
0030
0010
0010
0020
0030
0010
0010
,
0020
0030
0010
0010
0010
0000
0010
0010
0000
0010
0010
0000
0020
0030
0010
0010
,
0010
0000
0010
0010
0000
0010
0010
0000
0020
0030
0010
0010
0010
0000
0010
0010
,
0000
0010
0010
0000
0020
0030
0010
0010
0010
0000
0010
0010
0000
0010
0010
0000
,
0020
0030
0010
0010
0010
0000
0010
0010
0000
0010
0010
0000
0020
0030
0010
0010
,
0010
0000
0000
0000
0000
0000
0010
0000
0000
0010
0000
0000
0000
0000
0000
0010
0000
0000
0010
0000
0000
0000
0000
0000
0010
0000
0000
0000
0000
0000
0010
0000
0000
0010
0000
0000
0010
0000
0000
0000
0000
0000
0000
0000
0010
0000
0000
0000
,
0000
0010
0000
0010
0000
0010
0000
0010
0000
0010
0000
0010
,
0000
0000
0000
0000
0010
0000
0000
0000
0000
0000
0000
0000
0010
0000
0000
0000
0000
0000
0000
0000
0000
0000
0000
0000
0010
0000
0000
0000
0000
0000
0010
0000
0000
0000
0000
0000
0010
0000
0000
0000
0000
0000
0010
0000
0000
0010
0000
0000
,
0010
0000
0000
0000
0010
0000
0000
0000
0010
0000
0010
0000
0010
0000
0010
0010
,
0010
0000
0000
0000
0010
0000
0000
0000
0010
0000
0010
0000
0010
0000
0010
0010
,
0010
0000
0000
0000
0010
0000
0000
0000
0010
0000
0010
0000
0010
0000
0010
0010
,
0020
0000
0000
0030
0020
0030
0020
0030
0020
0000
0000
0030
0020
0000
0000
0030
,
0020
0000
0000
0030
0020
0030
0020
0030
0020
0000
0000
0030
0020
0000
0000
0030
,
0020
0000
0000
0030
0020
0030
0020
0030
0010
0000
0010
0000
0010
0010
0010
0010
,
0000
0000
0000
0000
0010
0000
0000
0000
0010
0000
0000
0000
0010
0000
0000
0000
0010
0000
0000
0000
0010
0000
0000
0000
0010
0000
0000
0000
0000
0000
0000
0000
0000
0000
0000
0000
0010
0000
0000
0000
0000
0000
0010
0000
0000
0010
0000
0000
,
0010
0010
0010
0010
0010
0000
0010
0010
0010
0010
0010
0010
0010
0010
0010
0010
,
0010
0010
0010
0010
0010
0010
0010
0010
0010
0010
0010
0010
0010
0010
0010
0010
,
0010
0010
0010
0010
0010
0010
0010
0010
0010
0010
0010
0010
0010
0010
0010
0010
,
0010
0010
0010
0010
0010
0010
0010
0010
0010
0010
0010
0010
0010
0010
0010
0010
,
0010
0000
0010
0000
0010
0000
0010
0000
0010
0000
0010
0000
0010
0000
0000
0010
0000
0000
0010
0000
0000
0010
0000
0000
0010
0000
0000
0010
0000
0000
0010
0000
0000
0010
0000
0000
0010
0000
0000
0010
0000
0000
0010
0000
0000
0010
0000
0000
,
0010
0010
0010
0010
0010
0010
0010
0010
0010
0010
0010
0010
0010
0010
0010
0010
,
0010
0010
0010
0010
0010
0010
0010
0010
0010
0010
0010
0010
0010
0010
0010
0010
,
0010
0010
0010
0010
0020
0030
0010
0010
0020
0030
0010
0010
0010
0010
0010
0010
,
0020
0030
0010
0010
0010
0010
0010
0010
0010
0010
0010
0010
0010
0010
0010
0010
,
0010
0010
0010
0010
0010
0010
0010
0010
0010
0010
0010
0010
0010
0010
0010
0010
,
0010
0010
0010
0010
0010
0010
0010
0010
0010
0010
0010
0010
0010
0010
0010
0010
,
0010
0010
0010
0010
0010
0010
0010
0010
0020
0030
0010
0010
0020
0030
0010
0000
,
0010
0000
0010
0010
0010
0010
0010
0010
0010
0010
0010
0010
0000
0020
0000
0030
,
0010
0000
0010
0000
0010
0010
0010
0010
0010
0010
0010
0010
0000
0020
0000
0030
,
0010
0000
0010
0010
0010
0010
0010
0010
0010
0010
0010
0010
0010
0010
0010
0010
,
0010
0010
0010
0010
0010
0010
0010
0010
0010
0010
0010
0010
0010
0010
0010
0010
,
0010
0010
0010
0010
0010
0010
0010
0010
0010
0010
0010
0010
0010
0010
0010
0010
,
0010
0010
0010
0010
0020
0030
0010
0000
0010
0010
0010
0000
0010
0000
0010
0000
,
0010
0000
0010
0000
0010
0020
0030
0020
0000
0030
0010
0000
0010
0000
0010
0000
,
0010
0000
0010
0000
0010
0000
0010
0010
0010
0010
0010
0000
0010
0000
0010
0000
,
0010
0000
0010
0000
0010
0010
0000
0010
0010
0000
0010
0000
0010
0000
0010
0000
,
0010
0000
0010
0010
0010
0000
0010
0000
0010
0000
0010
0000
0010
0010
0000
0010
,
0010
0000
0010
0010
0010
0000
0010
0000
0010
0000
0010
0000
0010
0000
0010
0000
,
0010
0000
0010
0000
0010
0010
0000
0010
0010
0010
0010
0000
0010
0010
0010
0010
,
0010
0010
0010
0010
0010
0010
0000
0010
0010
0000
0010
0000
0010
0000
0010
0000
,
0010
0000
0010
0010
0010
0010
0000
0010
0000
0010
0000
0010
0020
0000
0000
0030
,
0010
0000
0000
0000
;
