#VERSION:0.83;
#TITLE:Stay;
#SUBTITLE:;
#ARTIST:The Kid LAROI, Justin Bieber;
#TITLETRANSLIT:;
#SUBTITLETRANSLIT:;
#ARTISTTRANSLIT:;
#GENRE:;
#CREDIT:;
#MUSIC:Stay.ogg;
#BANNER:;
#BACKGROUND:;
#CDTITLE:;
#SAMPLESTART:45.543;
#SAMPLELENGTH:15.000;
#SELECTABLE:YES;
#OFFSET:-0.366;
#BPMS:0.000=170.000
,190.000=85.000
,194.000=170.000
,277.000=85.000
,291.000=170.000
;
#STOPS:124.000=0.706
,246.000=0.706
,276.000=1.059
,291.000=0.353
;
#BGCHANGES:;
#FGCHANGES:;

//--------------- dance-single - eataninja ----------------
#NOTEDATA:;
#STEPSTYPE:dance-single;
#DESCRIPTION:eataninja;
#DIFFICULTY:Beginner;
#METER:4;
#RADARVALUES:0,0,0,0,0;
#NOTES:
0000
0000
0000
0000
,
0000
0000
0000
0000
,
0000
0000
0000
0000
,
0000
0000
0000
0000
,
0000
0000
0000
0000
,
0000
0000
0000
0000
,
0000
0000
0000
0000
,
0000
0000
0000
0000
,
1000
0000
1001
0000
,
0001
0000
0000
0000
,
0001
0000
1001
0000
,
1000
0000
0000
0000
,
1000
0000
1001
0000
,
0001
0000
0000
0000
,
0001
0000
1001
0000
,
0010
0000
0000
0000
,
0100
0100
0100
0000
,
0001
0000
0000
0000
,
0010
0010
0010
0000
,
0100
0000
0000
0000
,
1000
1000
1000
0000
,
0001
0000
0000
0000
,
0100
0000
1000
0000
,
0100
0000
0001
0000
,
2000
0000
0000
3100
,
0000
0000
0000
0000
,
0002
0000
0000
0013
,
0000
0000
0000
0000
,
2000
0000
3000
0000
,
0002
0000
0003
0000
,
0100
0100
0100
0000
,
0000
0000
0001
0000
,
1001
0000
1000
0000
,
0100
0000
1000
0000
,
1001
0000
0001
0000
,
0100
0000
0001
0000
,
1001
0000
1000
0000
,
0100
0000
0010
0000
,
0001
0000
0100
0000
,
0010
0000
1000
0000
,
1001
0000
0010
0000
,
0100
0000
0001
0000
,
1001
0000
0010
0000
,
0100
0000
1000
0000
,
1001
0000
0010
0000
,
0100
0000
0001
0000
,
1000
0000
0100
0000
,
0010
0000
0000
0000
,
0000
0000
0001
0001
,
0100
0000
0001
0000
,
0000
0000
1000
1000
,
0100
0000
1000
0000
,
0000
0000
0001
0001
,
0010
0000
0001
0000
,
1000
0000
0000
0010
,
0000
0100
0100
0000
,
0001
0000
0000
0010
,
0000
0100
0100
0000
,
1000
0000
0001
0000
,
0100
0000
1000
0000
,
0100
0000
0001
0000
,
0000
0000
1001
0000
,
2000
0000
0000
3010
,
0000
0000
0000
0000
,
0002
0000
0000
0103
,
0000
0000
0000
0000
,
2000
0000
3000
0000
,
0002
0000
0003
0000
,
0010
0010
0010
0000
,
0000
1001
0000
0100
,
0000
1001
0000
0000
,
0000
1001
0000
0010
,
0000
1001
0000
0000
,
0000
0000
0001
0000
,
1001
0000
0010
0010
,
0010
0000
1000
0000
,
1001
0000
0010
0010
,
0010
0000
0001
0000
,
1001
0000
0100
0100
,
0100
0000
0010
0000
,
1000
0000
0001
0000
,
0010
0000
0200
0000
,
0000
0300
0100
0000
,
0000
0000
2000
0000
,
0000
3000
1000
0000
,
0000
0000
0020
0000
,
0000
0030
0010
0000
,
0000
0000
0100
0000
,
0001
0000
0010
0000
,
0100
0000
0000
0000
;

//--------------- dance-single - eataninja ----------------
#NOTEDATA:;
#STEPSTYPE:dance-single;
#DESCRIPTION:eataninja;
#DIFFICULTY:Easy;
#METER:7;
#RADARVALUES:0,0,0,0,0;
#NOTES:
0000
0000
0000
0000
,
0000
0000
0000
0000
,
0000
0000
0000
0000
,
0000
0000
0000
0000
,
0000
0000
0000
0000
,
0000
0000
0000
0000
,
0000
0000
0000
0000
,
0000
0000
0000
0000
,
1000
0000
1100
0000
,
0001
0001
0010
0000
,
0001
0000
0101
0000
,
1000
1000
0010
0000
,
1000
0000
1100
0000
,
0001
0001
1000
0000
,
0010
0000
0000
0100
0000
0000
0001
0000
,
0000
1000
0000
0000
0100
0000
0000
0000
,
0010
0001
0100
0000
,
0001
0001
1000
1000
,
0010
1000
0100
0000
,
1000
1000
0001
0001
,
0010
0100
1000
0000
,
0001
0001
1000
1000
,
0010
0001
0010
1000
,
0001
0001
0010
0000
,
0200
0000
0000
0310
,
0002
0000
2003
0000
,
3020
0000
0000
0130
,
0002
0000
2003
0000
,
3200
0000
0301
0000
,
0200
0000
1300
0000
,
0001
0001
1000
1000
,
0000
0000
0010
0100
,
1001
0000
0001
0001
,
1000
1000
0100
0010
,
1001
0000
1000
1000
,
0001
0001
0100
0010
,
1001
0000
0001
0001
,
0010
0000
0010
0000
0100
0000
0000
1000
,
0000
0000
0001
0000
0000
0100
0000
0000
,
0010
0000
0100
0010
,
1001
1000
0100
0100
,
0010
0000
0010
0100
,
1001
0001
0100
0100
,
0010
0000
0100
0010
,
1001
0001
1000
1000
,
0100
0000
0010
0000
0001
0000
0000
1000
,
0000
0000
0010
0000
0000
0100
0000
0000
,
0001
0000
0000
0000
,
0000
0000
0001
0010
,
1000
0010
0100
0200
,
0000
1300
0001
0001
,
0100
0010
1000
0100
,
1000
0000
0001
0100
,
1000
0100
0010
0020
,
0000
1030
0001
0010
,
0011
0000
1000
0001
,
1000
0010
0000
0100
,
0001
0001
0010
0100
,
0001
0100
1000
0000
,
0002
0003
0200
0300
,
0020
0030
1000
0001
,
0000
0010
0100
0000
,
2000
0000
0000
3001
,
0020
0000
0230
0000
,
2300
0000
0000
3001
,
0200
0000
0320
0000
,
0230
0000
1300
0000
,
0200
0000
0301
0000
,
1000
1000
0001
0001
,
0000
1001
0000
1100
,
0000
1001
0000
0000
,
0000
1001
0000
0101
,
0000
1001
0000
0000
,
0000
0000
1000
0010
,
1001
0001
0010
0010
,
0100
1000
0010
0100
,
1001
0001
0100
0100
,
0010
0010
1000
0100
,
1001
0001
0010
1000
,
0010
0000
0100
0000
1000
0000
0000
0001
,
0000
0000
0100
0000
0000
0010
0000
0000
,
1000
0000
0000
0000
0001
0000
0000
0010
,
0000
0100
1000
0000
,
0000
0000
0000
0000
1000
0000
0000
0010
,
0000
0100
0001
0000
,
0000
0000
0000
0000
0001
0000
0000
1000
,
0000
0100
0010
0000
,
0000
0000
0000
0000
0001
0000
0000
1000
,
0000
0000
0010
0000
0000
1000
0000
0000
,
0100
0000
0000
0001
0000
0000
0000
0000
;

//--------------- dance-single - eataninja ----------------
#NOTEDATA:;
#STEPSTYPE:dance-single;
#DESCRIPTION:eataninja;
#DIFFICULTY:Medium;
#METER:10;
#RADARVALUES:0,0,0,0,0;
#NOTES:
0000
0000
0000
0000
,
0000
0000
0000
0000
,
0000
0000
0000
0000
,
0000
0000
0000
0000
,
0000
0000
0000
0000
,
0000
0000
0000
0000
,
0000
0000
0000
0000
,
0000
0000
0000
0000
,
1000
0001
1000
0010
0000
0000
0100
0000
,
0001
0000
0001
0000
0010
0100
1000
0000
,
0001
1000
0001
0100
0000
0000
0010
0000
,
0100
0000
0100
0000
0001
0010
0100
0000
,
1000
0001
1000
0010
0000
0000
0100
0000
,
0010
0000
1000
0000
0001
0010
0100
0000
,
1000
0001
1000
0100
0000
0000
0010
0001
,
1000
0010
0000
0000
0200
0000
0000
0301
,
1000
1100
0001
1000
,
0010
0001
0010
1000
,
0001
0101
1000
0100
,
0001
0000
0100
0000
0010
0010
0001
0000
,
1000
1010
0001
0100
,
1000
0100
0001
0001
,
0010
0110
1000
1001
,
0001
0100
0001
0100
1000
0000
0100
0000
,
0020
0000
0000
1000
0000
0000
0130
0000
,
0001
0010
1000
0010
,
0200
0000
0000
1000
0000
0000
0310
0000
,
0001
0100
1000
0100
,
0020
0000
0000
1030
0000
0000
0000
0000
,
2000
0000
0000
3001
0000
0000
0000
0000
,
0010
0110
1000
1001
,
0000
0000
1000
0000
0010
0100
0010
2000
,
0000
3001
0010
0100
,
0001
0100
1000
0000
0100
0010
0100
2000
,
0000
3001
1000
1000
,
0010
0100
0001
0000
0010
0100
0010
0002
,
0000
1003
0010
0100
,
1000
0100
0001
0000
0010
0100
0010
0002
,
0000
0000
1003
0010
0100
2000
0000
0000
,
3100
0000
0001
0000
1000
0100
0010
0002
,
0000
1003
0010
0100
,
1000
0100
0001
0000
1000
0010
0100
0002
,
0000
1003
0001
0001
,
0010
0100
1000
0000
0001
0100
0010
2000
,
0000
3010
1000
0100
,
0001
0100
1000
0000
0001
0010
0001
0200
,
0000
0000
0301
0100
0010
0002
0000
0000
,
0013
0100
0000
0000
,
0000
0000
1001
1001
0001
0000
0100
0000
,
1000
0100
1000
0000
0100
0010
2000
0000
,
0001
3010
1000
0001
,
0010
0100
0010
0000
0001
1000
0010
0000
,
0100
0001
1000
0001
,
0010
0001
0010
0000
0001
1000
0020
0000
,
0100
0000
1030
0000
0001
0010
0000
1000
,
0000
0010
0000
0100
1000
0000
0001
0000
,
1001
0110
0100
0001
,
1000
0100
1000
0000
0100
0000
0001
0000
,
0100
0000
1000
0000
0010
0000
0100
1000
,
0000
0100
0001
0100
0000
0001
0010
0001
,
0000
1000
0100
0010
0000
0001
1000
0000
,
0010
0100
0000
0001
,
0020
0100
0001
0130
,
1000
0010
0001
0010
,
0200
0010
0001
0310
,
1000
0100
0001
0100
,
0020
0000
0000
0031
0000
0000
0000
0000
,
0002
0000
0000
1003
0000
0000
0000
0000
,
0010
0110
1000
1001
,
0000
1001
0000
0110
,
0110
1001
0000
0000
,
1001
0110
0000
0110
,
0110
2002
0000
3003
,
0100
0100
0100
0000
0001
1000
0001
0020
,
0000
0130
0010
0000
0001
0000
1000
0000
,
0010
0100
0001
0000
1000
0001
1000
0020
,
0000
0130
0010
0000
1000
0000
0100
0000
,
0001
0100
0010
0000
0001
1000
0010
0200
,
0000
0310
1000
0000
0001
0000
0001
0000
,
0010
0100
1000
0000
0001
1000
0001
0200
,
0000
0000
0310
1000
0100
0002
0000
0000
,
0103
0010
0001
0000
2000
0000
0000
0010
,
0000
0000
3100
0000
1000
0000
0010
0001
,
0000
0000
0010
0000
0200
0000
0000
0001
,
0000
0310
0100
0001
,
0010
0000
0100
0000
2000
0000
0000
0100
,
0000
0000
3010
0000
1000
0000
0100
0001
,
0000
0000
0100
0000
0010
0001
1000
0020
,
0000
0000
1030
0010
0100
1000
0000
0000
,
0002
0000
0000
0013
0000
0000
0000
0000
;

//--------------- dance-single - eataninja ----------------
#NOTEDATA:;
#STEPSTYPE:dance-single;
#DESCRIPTION:eataninja;
#DIFFICULTY:Hard;
#METER:12;
#RADARVALUES:0,0,0,0,0;
#NOTES:
0000
0000
0000
0000
,
0000
0000
0000
0000
,
0000
0000
0000
0000
,
0000
0000
0000
0000
,
0000
0000
0000
0000
,
0000
0000
0000
0000
,
0000
0000
0000
0000
,
0000
0000
0000
0000
,
1000
0010
1000
0200
0000
0000
0310
0000
,
0001
1000
0001
0100
1000
0100
0001
0000
,
1000
0100
1000
0020
0000
0000
0130
0000
,
0001
1000
0100
0001
0001
0100
1000
0000
,
0001
0010
0001
0200
0000
0000
0310
0000
,
1000
0001
1000
0010
0001
0010
1000
0000
,
0001
0100
0001
0020
0000
0000
0130
1000
,
0010
0001
0000
0000
0020
0000
0000
0130
,
0001
1000
1100
0000
0101
0000
1000
0010
,
0000
0100
0000
0010
1000
0000
0001
0000
,
0010
0100
1100
0000
0101
0000
1000
0010
,
0000
0100
0000
0010
1000
0000
0100
0000
,
0010
0001
0011
0000
1010
0000
0001
1000
,
0000
0010
0000
1000
0100
0000
0010
0000
,
0001
0100
1000
0000
1000
0100
0001
0000
,
0010
0100
1000
1000
0010
0000
0100
0000
,
1002
0000
0000
1000
0000
0000
0013
0000
,
0100
0010
0001
0000
1000
0010
0100
0000
,
2001
0000
0000
0001
0000
0000
3100
0000
,
0010
0100
1000
0000
0010
0100
0001
0000
,
1002
0000
0000
0010
0000
0000
0103
0000
,
2001
0000
0000
0100
0000
0000
3010
0000
,
1000
0100
0001
0000
0001
0100
1000
0000
,
0000
0001
0001
0100
0010
1000
0100
0002
,
0000
0000
0103
0010
0010
0001
0001
1000
,
0010
0100
0001
0000
0100
0001
0010
2000
,
0000
0000
3010
0100
0100
1000
1000
0001
,
0100
0010
1000
0000
0001
1000
0010
0002
,
0000
0000
0013
0100
0100
0001
0001
1000
,
0100
0001
0100
0010
0001
1000
0010
0002
,
0000
0013
0100
0001
0010
2000
0000
3001
,
0200
0000
1300
0001
0010
0001
0100
2000
,
0000
3100
0001
1000
1000
0100
0100
0010
,
0001
1000
0010
0100
0001
1000
0100
0002
,
0000
0103
0010
0001
0001
1000
1000
0010
,
0100
0010
1000
0000
0100
1000
0010
0002
,
0000
0013
0100
0001
0001
1000
1000
0100
,
0001
0100
1000
0010
0100
0001
0010
2000
,
0000
3010
0100
1000
0010
0002
0000
1003
,
0200
0000
0301
1000
0100
0000
0000
0000
,
0000
0000
1001
1001
0010
0001
0100
0000
,
0010
1000
0100
0100
0010
0001
2000
0000
,
0010
0000
3100
0000
0010
0001
1000
0000
,
0010
0100
0001
0001
1000
0100
0010
0000
,
0001
1000
0001
0000
0100
0010
1000
1000
,
0001
0010
0100
0100
1000
0001
0002
0000
,
0010
0000
0103
0000
0001
0100
1000
0001
,
0000
0010
0100
0100
0001
0000
1000
0100
,
0110
0000
1001
0000
1000
0100
0001
0100
,
0010
0001
1000
1000
0010
0000
0110
0000
,
0001
0000
1000
0000
0001
0010
0100
0002
,
0000
0103
0010
0002
0000
0103
1000
0200
,
0000
0310
1000
0001
0010
0000
1001
0000
,
1000
0010
0100
0000
0000
0001
0001
0000
,
2001
0000
0100
0000
3001
0010
0100
0000
,
1000
0010
0001
0000
1000
0100
0010
0000
,
1002
0000
0010
0000
1003
0100
0010
0000
,
0001
0100
1000
0000
0001
0010
0100
0000
,
2001
0000
0000
0100
0000
0000
3010
0000
,
1002
0000
0000
0010
0000
0000
0103
0000
,
0001
0010
1000
0000
1000
0010
0001
0000
,
0000
1001
0000
1100
,
1100
1001
0000
0000
,
0101
2001
3010
1010
,
1010
1002
0010
0003
,
0010
0010
0100
0100
1000
0001
0100
2000
,
0000
3100
0010
0010
1000
1000
0001
0010
,
1000
0010
0100
0010
0001
1000
0010
0002
,
0000
0013
0100
0100
0001
0001
0010
0100
,
0001
0100
1000
0000
0001
1000
0010
0002
,
0000
0013
0100
0100
0001
1000
0100
0010
,
1000
0010
0100
1000
0010
1000
0100
0002
,
0000
0103
1000
0010
0001
2000
0000
3100
,
0020
0000
1030
0001
0010
0100
1000
0020
,
0000
0000
0001
0000
0130
0000
0010
1000
,
0000
0000
1100
0000
0100
0010
0001
0200
,
0000
0000
1000
0000
0310
0000
1000
0001
,
0010
0100
1000
0000
0010
0100
0001
0020
,
0000
0000
1000
0000
0130
0000
0010
0001
,
0000
0000
0011
0000
1000
0010
0001
2000
,
0000
0000
3100
0001
0010
2000
0000
0000
,
3200
0000
0000
0301
0000
0000
0000
0000
;
