#TITLE:Starian (E Version);
#ARTIST:Duke;
#BANNER:Starian (E Version).png;
#BACKGROUND:Starian (E Version)-bg.png;
#JACKET:Starian (E Version)-jacket.png;
#CDTITLE:./CDTITLES/KOREAN DANCE MUSIC.PNG;
#MUSIC:Starian (E Version).ogg;
#SAMPLESTART:52.805;
#SAMPLELENGTH:15;
#DISPLAYBPM:135;
#BPMS:0=134.93;

//---------------dance-single - t7r----------------
#NOTES:
     dance-single:
     t7r:
     Beginner:
     2:
     :
0000
0000
0000
0000
,
0000
0000
0000
0000
,
0000
0000
0000
0000
,
0000
0000
0000
0000
,
0000
0000
0000
0000
,
1000
0000
0000
0000
,
1000
0000
0000
0000
,
0001
0000
0000
0000
,
0001
0000
0000
0000
,
0100
0000
0000
0000
,
0000
0000
0000
0000
,
0010
0000
0000
0000
,
0000
0000
0000
0000
,
1000
0000
1000
0000
,
1000
0000
0000
0000
,
0001
0000
0001
0000
,
0001
0000
0000
0000
,
0100
0000
0100
0000
,
0100
0000
0000
0000
,
0010
0000
0010
0000
,
0010
0000
0000
0000
,
1000
0000
0000
0000
,
0100
0000
0000
0000
,
0010
0000
0000
0000
,
0001
0000
0000
0000
,
0100
0000
0000
0000
,
0010
0000
0000
0000
,
1000
0000
0000
0000
,
0001
0000
0000
0000
,
0110
0000
0000
0000
,
1000
0000
0000
0000
,
0001
0000
0000
0000
,
0100
0000
0000
0000
,
0010
0000
0000
0000
,
1000
0000
0000
0000
,
0001
0000
0000
0000
,
0010
0000
0000
0000
,
0100
0000
0000
0000
,
0010
0000
0010
0000
,
0010
0000
0010
0000
,
0001
0000
0001
0000
,
0001
0001
0001
0000
,
1000
0000
0000
0000
,
0000
0000
0000
0000
,
0000
0000
0000
0000
,
0000
0000
0000
0000
,
0010
0000
0000
0000
,
0000
0000
0000
0000
,
0000
0000
0000
0000
,
0000
0000
0000
0000
,
0100
0000
0000
0000
,
0100
0000
0000
0000
,
0010
0000
0000
0000
,
0010
0000
0000
0000
,
1000
0000
0000
0000
,
1000
0000
0000
0000
,
0001
0000
0000
0000
,
0001
0000
0000
0010
,
0010
0000
0000
0010
,
0010
0000
0010
0000
,
0010
0000
0000
0000
,
0000
0000
0000
0000
,
0001
0000
1000
0000
,
0001
0000
0000
0000
,
0100
0000
0010
0000
,
0100
0000
0000
0000
,
0110
0000
0000
0000
;

//---------------dance-single - t7r----------------
#NOTES:
     dance-single:
     t7r:
     Easy:
     6:
     :
0000
0000
0000
0000
,
0000
0000
0000
0000
,
0000
0000
0000
0000
,
0000
0000
0000
0000
,
0000
0000
0000
0000
,
1000
0000
0000
2000
0000
0000
3001
0000
,
0100
0000
0000
0200
0000
0000
0310
0000
,
1000
0000
0000
2000
0000
0000
3001
0000
,
0010
0000
0000
0020
0000
0000
0130
0000
,
1000
0000
0000
1000
0000
0000
1000
0000
,
0001
0000
0000
0001
0000
0000
0001
0000
,
0100
0000
0000
0100
0000
0000
0100
0000
,
0010
0000
0000
0010
0000
0000
0010
0000
,
1000
0100
0010
0001
,
1000
0100
0010
0001
,
1000
0100
0010
0001
,
1000
0010
0100
0001
,
0010
0100
1000
0001
,
0010
0100
1000
0001
,
0010
0100
1000
0001
,
0010
0100
0010
1001
,
0002
0100
1003
0010
,
2000
0100
3001
0010
,
0002
0100
0013
0001
,
2000
0010
3100
0010
,
0002
0100
1003
0001
,
2000
0100
3001
1000
,
0002
0010
0103
0001
,
2000
0010
3100
0010
,
2002
0000
0000
3003
,
0001
0000
1000
0100
,
0010
0000
0000
0010
0000
0000
0010
0000
0000
0000
0000
0000
0000
0000
0000
0000
,
1001
0000
0001
0100
,
0010
0000
0000
0010
0000
0000
0010
0000
0000
0000
0000
0000
1000
0000
0000
0000
,
0001
0000
1000
0100
,
1000
0000
0000
1000
0000
0000
1000
0000
0000
0000
0000
0000
0000
0000
0000
0000
,
1001
0000
0001
0010
,
0100
0000
0000
0100
0000
0000
0100
0000
0000
0000
0000
0000
0000
0000
0000
0000
,
2000
0010
0010
0010
,
0001
0001
3001
1001
,
0001
0010
0010
0100
,
1000
1000
1000
1000
2000
0000
3000
0000
,
2002
0000
0000
0000
,
0000
0000
0000
0000
,
3003
0000
0000
0000
,
0000
0000
0000
0000
,
0001
0000
0000
0000
,
0100
0000
0000
0000
,
0010
0000
0000
0000
,
1000
0000
0000
0000
,
1100
0000
0100
1000
,
1010
0000
0100
0001
,
0011
0000
0001
1000
,
0010
0100
0010
1000
,
1001
0000
0001
0010
,
1100
0000
1000
0010
,
0101
0000
0010
0100
,
1001
0001
0010
0001
,
0102
0000
0000
1000
,
1000
1000
1000
0010
,
2003
0010
0000
0001
,
3200
0001
0010
1300
,
0001
0000
0100
0000
0001
0001
0000
1000
,
1000
0000
0100
0000
0000
0000
0000
1000
,
1000
0000
0001
0000
0100
0100
0000
0001
,
0001
0000
1000
0000
0000
0010
0010
0000
,
2002
0000
0000
0000
,
0000
0000
0000
0000
,
3003
0000
0000
0000
;

//---------------dance-single - t7r----------------
#NOTES:
     dance-single:
     t7r:
     Medium:
     10:
     :
0000
0000
0000
0000
,
0000
0000
0000
0000
,
0000
0000
0000
0000
,
0000
0000
0000
0000
,
0000
0000
0000
0000
,
2000
0000
3001
0010
0000
0001
1000
0000
,
0002
0000
1003
0010
0000
1000
0001
0000
,
2000
0000
3100
1000
0000
0001
1000
0000
,
0002
0000
0103
0001
0000
1000
0010
0100
,
0010
0000
1000
1000
0000
0001
0001
0000
,
0010
0000
0001
0001
0000
1000
1000
0000
,
1001
0000
0010
0010
0000
0100
0100
0000
,
0110
0000
0001
0001
0000
1000
1000
0001
,
0010
0000
0001
0000
1000
0000
0000
0100
0000
0000
0000
0000
1000
0000
0010
0000
,
0100
0000
0001
0000
1000
0000
0000
0001
0000
0000
0000
0000
0010
0000
0001
0000
,
1000
0000
0010
0000
0100
0000
0000
0010
0000
0000
0000
0000
1000
0000
0001
0000
,
0010
0000
0100
0000
1000
0000
0000
0010
0000
0000
0000
0000
0100
0000
0001
0000
,
1000
0100
1000
1000
0001
0100
0001
0001
,
1000
0000
0000
0010
0000
0000
0100
0000
0001
0000
1000
0000
0001
0000
0000
0000
,
0010
0000
0000
0100
0000
0000
1000
0000
0001
0000
0100
0000
0010
0000
0000
0000
,
0100
0000
0000
0001
0000
0000
1000
0000
0010
0000
0100
0000
0010
0000
0010
0000
,
2000
0000
0100
0000
3001
0010
0001
1000
,
0002
0000
0100
0000
1003
0010
1000
0001
,
0020
0000
0001
0000
0130
0020
0000
0031
,
2000
0000
3010
0200
0000
0301
1000
0000
,
1002
0000
0010
0000
1003
0100
1000
0001
,
2000
0000
0010
0000
3001
0100
0001
1000
,
0200
0000
1000
0000
0310
0200
0000
1300
,
0002
0000
0103
0020
0000
1030
0001
0000
,
2002
0000
3003
0001
,
2000
0000
3100
0000
1000
1000
0010
1000
,
0001
0000
0000
0010
0000
0000
0100
0000
0020
0000
0000
0000
0031
0000
1000
0000
,
0002
0000
0103
0000
0001
0001
0010
0001
,
2000
0000
3010
2000
0000
3001
0010
0100
,
2000
0000
3010
0000
1000
1000
0100
1000
,
0001
0000
0000
0100
0000
0000
0010
0000
0200
0000
0000
0000
0301
0000
1000
0000
,
0002
0000
0013
0000
0100
0100
0010
0001
,
2000
0000
3010
0002
0000
0013
1000
0001
,
1000
1000
0100
0010
0001
0001
0100
0010
,
1000
1000
0010
0100
0001
0000
1001
0000
,
0001
0001
0010
0100
1000
1000
0010
0100
,
0001
0100
1000
0100
0020
0100
0100
0130
,
0002
0000
0000
0000
,
0000
0000
0000
0000
,
0003
0000
0000
0000
,
0000
0000
0000
0000
,
1000
0100
0010
0000
,
0001
0100
0010
0000
,
1000
0010
0100
0000
,
0001
0000
0010
0000
0100
1000
1000
1000
,
0002
0000
0103
0001
1000
0100
0001
0100
,
2000
0000
3010
1000
0001
0100
1000
0100
,
0002
0000
0013
0001
1000
0002
0000
0010
,
2003
0000
0010
3002
0000
0100
1003
0000
,
2001
0000
3100
0001
0100
0010
0100
1000
,
0002
0000
0103
1000
0100
0010
0100
0001
,
2000
0000
3100
0010
0001
0200
0000
1000
,
0320
0000
0001
0230
0000
0000
0301
0000
,
2001
0000
0000
0000
0000
0000
3010
1000
,
0010
0000
0000
0010
0000
0000
0020
0000
0000
0000
1030
0000
0001
0000
0010
0000
,
0002
0100
1000
0010
,
1000
0000
0100
0000
0010
0000
1003
0001
,
0001
1000
0001
0001
1000
1000
0001
0100
,
0100
0010
0100
0100
0001
1000
0100
1000
,
1000
0100
0010
0010
0100
0100
0001
0100
,
0100
0010
0100
0100
1000
0010
0010
0000
,
2002
0000
0000
0000
,
0000
0000
0000
0000
,
3003
0000
0000
0000
;

//---------------dance-single - t7r----------------
#NOTES:
     dance-single:
     t7r:
     Hard:
     13:
     :
0000
0000
0000
0000
,
0000
0000
0000
0000
,
0000
0000
0000
0000
,
0000
0000
0000
0000
,
0000
0000
0000
0000
,
0012
0000
1003
0020
0100
1030
0100
0100
,
2000
0000
3010
0200
0001
0310
0100
0100
,
0002
0000
0013
0200
1000
0310
0001
0001
,
2000
0000
3010
0200
1000
0310
1000
1000
,
0001
0000
0010
0001
0010
0000
0002
0000
0000
0000
0103
0000
0001
0000
0001
0000
,
1000
0000
0010
1000
0010
0000
2000
0000
0000
0000
3001
0000
0010
0000
0010
0000
,
0001
0000
1000
0100
1000
0000
0001
0000
1000
0000
0001
0100
0001
0000
1000
0000
,
0001
0000
1000
0010
1000
0000
0001
0000
1000
0000
0001
0010
0001
0000
1000
0001
,
1000
0000
0100
0000
0010
0000
0100
2000
0001
0000
0000
0000
3100
0000
1000
0000
,
0001
0000
0100
0000
0010
0000
0100
0002
1000
0000
0000
0000
0013
0000
0001
0000
,
1000
0000
0010
0000
0100
0000
0001
0020
0100
0000
0000
0000
0031
1000
0000
0001
,
0100
0000
1000
0000
0100
0000
0010
2000
0001
0000
0000
0000
3010
0000
1000
0000
,
0001
0000
0100
0001
0100
0000
0001
0000
1000
0000
0100
0000
0010
0000
0100
0000
,
0001
0000
0100
0010
0000
0000
0100
0000
1000
0000
0010
0000
0110
0000
0000
0000
,
0001
0000
0100
0010
0000
0100
1000
0000
0001
0000
0010
0000
1000
0001
0000
0000
,
1000
0100
0000
0010
0000
0100
0000
0001
0100
0000
0010
0000
0011
0000
0000
0000
,
2001
0000
0000
0000
3100
0000
1000
0000
0001
0000
0010
0000
0001
0000
0100
0002
,
1000
0000
0000
0000
0013
0000
0001
0000
1000
0000
0010
0000
0100
0000
0010
2000
,
0001
0000
3010
1000
0001
0200
0010
0301
,
2000
0100
3001
0020
1000
0100
0031
1000
,
1002
0000
0000
0000
0013
0000
0001
0000
1000
0000
0100
0000
1000
0000
0010
2000
,
0001
0000
0000
0000
3100
0000
1000
0000
0001
0000
0100
0000
0010
0000
0100
0002
,
1000
0000
0103
0001
1000
0020
0100
1030
,
0002
0010
1003
0200
0001
0010
1300
0001
,
2002
0000
0000
0000
0000
0000
0000
0000
3003
0000
0000
0000
0001
0000
0010
0100
,
2000
0000
3010
1000
1000
0001
0100
0010
,
0200
0000
0000
1300
0100
0000
0020
0000
0100
0000
0000
0000
1030
0000
0010
0100
,
0002
0000
0013
0001
0001
1000
0100
0010
,
0200
0000
0000
0301
0100
0000
0020
0000
0000
0000
0130
0000
1000
0000
0001
2000
,
0100
0000
3001
0100
0100
0010
0001
0010
,
0200
0000
0000
0301
1000
0000
0200
0000
0010
0000
0000
0000
1300
0000
0100
0010
,
0002
0000
1003
0010
0010
0100
1000
0100
,
0020
0000
0000
1030
0001
0000
2000
0000
0100
0000
3002
0000
0023
0000
0032
0000
,
1003
0010
1000
0000
0001
0010
0001
0000
1000
0000
0100
1000
0001
0000
0100
0000
,
1000
0000
0100
0000
0001
0000
0010
0100
1000
0000
0000
0000
1001
0000
0000
0000
,
0001
0010
0001
0000
1000
0010
1000
0000
0001
0000
0010
0100
1000
0000
0100
0000
,
0001
0100
1000
0010
0200
0010
0010
0310
,
0220
0000
0000
0000
,
0000
0000
0000
0000
,
0330
0000
0000
0000
,
0000
0000
0000
0000
,
1001
0000
0000
0000
1000
0000
0100
1000
0000
0000
0000
0000
0001
0000
0000
0000
,
0100
0000
0000
0000
0001
0000
0010
0001
0000
0000
0000
0000
1000
0000
0000
0000
,
0010
0000
0000
0000
0100
0000
0010
1000
0000
0000
0000
0000
0001
0000
0000
0000
,
0010
0000
0000
0000
0100
0000
0010
0001
0000
0000
1000
0000
1000
0000
1000
0000
,
1001
0000
0000
0000
0001
0000
0100
0000
0010
0000
0001
0000
0010
0000
0100
0002
,
1000
0000
0000
0000
0103
0000
0001
0000
1000
0000
0100
0000
0010
0000
1000
0020
,
0100
0000
1030
0010
0001
0200
1000
0310
,
2000
0100
3001
0020
1000
0100
0031
0000
,
1001
0000
0000
0000
1000
0000
0010
0000
0100
0000
1000
0000
0100
0000
0010
2000
,
0001
0000
0000
0000
3010
0000
1000
0000
0001
0000
0010
0000
0100
0000
0001
0200
,
0010
0000
0301
0100
1000
0020
0001
0130
,
0002
0000
0010
0000
1003
0000
0200
0000
0001
0000
0010
0000
1300
0000
0001
1000
,
0020
0000
0001
0000
0100
0000
1030
0001
,
0020
0000
0030
0020
0000
0030
0020
0000
0030
0000
0020
0000
2030
0000
3020
0000
,
0032
0100
0010
1000
,
0100
0000
0000
0000
0010
0000
0000
0000
1003
0000
0001
0000
0100
0000
0001
1000
,
0001
0000
0100
0000
0001
1000
0001
0000
1000
0100
1000
0000
0100
0000
0010
1000
,
0010
0000
0100
0000
0010
0001
0010
0000
0001
0100
0010
0000
1000
0100
1000
0001
,
1000
0000
0010
0000
1000
0001
1000
0000
0001
0010
0001
0000
0010
0100
1000
0000
,
0010
0000
0001
0000
0010
0100
0001
0000
1000
0001
0010
0000
0001
0000
1001
0000
,
2002
0000
0000
0000
,
0000
0000
0000
0000
,
3003
0000
0000
0000
;

//---------------dance-double - t7r----------------
#NOTES:
     dance-double:
     t7r:
     Easy:
     7:
     :
00000000
00000000
00000000
00000000
,
00000000
00000000
00000000
00000000
,
00000000
00000000
00000000
00000000
,
00000000
00000000
00000000
00000000
,
00000000
00000000
00000000
00000000
,
10000000
00000000
00000000
20000000
00000000
00000000
30010000
00000000
,
00100000
00000000
00000000
00200000
00000000
00000000
00301000
00000000
,
00010000
00000000
00000000
00020000
00000000
00000000
00030100
00000000
,
00001000
00000000
00000000
00002000
00000000
00000000
00003001
00000000
,
00000010
00000000
00000000
00000010
00000000
00000000
00000001
00000000
,
00000100
00000000
00000000
00000100
00000000
00000000
00001000
00000000
,
00010000
00000000
00000000
00010000
00000000
00000000
01000000
00000000
,
00100000
00000000
00000000
00100000
00000000
00000000
00010000
00000000
,
10000000
00100000
01000000
00010000
,
10000000
01000000
00010000
00000000
,
00000100
00001000
00000010
00000100
,
00000001
00000010
00001000
00010000
,
00001000
00001000
00010000
00010000
,
01000000
01000000
00100000
00100000
,
00010000
10000000
00100000
01100000
,
10000000
01000000
00010000
00001000
,
00021000
00000000
00030100
00001000
,
00000002
00000000
00000103
00001000
,
00020000
00000000
00031000
00100000
,
00010000
10000000
00010000
00100000
,
20010000
01000000
30010000
00100000
,
00002000
00010000
01003000
00001000
,
00020000
00001000
00030100
00010000
,
00001000
00000100
00000001
00000010
,
00002002
00000000
00000000
00003003
,
00000001
00000000
00000100
00000010
,
00001000
00000000
00000000
00001000
00000000
00000000
00001000
00000000
00000000
00000000
00000000
00000000
00000000
00000000
00000000
00000000
,
00001100
00000000
00000100
00010000
,
00001000
00000000
00000000
00001000
00000000
00000000
00001000
00000000
00000000
00000000
00000000
00000000
00010000
00000000
00000000
00000000
,
00011000
00000000
00001000
01000000
,
00100000
00000000
00000000
00100000
00000000
00000000
00100000
00000000
00000000
00000000
00000000
00000000
00000000
00000000
00000000
00000000
,
10010000
00000000
10000000
01000000
,
00100000
00000000
00000000
00100000
00000000
00000000
00100000
00000000
00000000
00000000
00000000
00000000
00001000
00000000
00000000
00000000
,
00020000
00001000
00000100
00001000
,
00000100
00000100
00031000
00011000
,
00002000
00010000
01000000
00013000
,
00001000
00001000
00001000
00001000
00002000
00000000
00003000
00000000
,
00022000
00000000
00000000
00000000
,
00000000
00000000
00000000
00000000
,
00033000
00000000
00000000
00000000
,
00000000
00000000
00000000
00000000
,
00000001
00000000
00000000
00000000
,
00000100
00000000
00000000
00000000
,
00001000
00000000
00000000
00000000
,
00010000
00000000
00000000
00000000
,
01100000
00000000
10000000
00100000
,
01010000
00000000
00001000
00010000
,
00011000
00000000
00000100
00000010
,
00000001
00000100
00001000
00010000
,
00011000
00000000
01000000
00010000
,
00110000
00000000
00001000
00010000
,
00011000
00000000
00000010
00000100
,
00001001
00000001
00000010
00001000
,
00021000
00000000
00000000
00000100
,
00000100
00001000
00001000
00000100
,
00032000
00000000
00000000
00000000
,
01000000
01000000
00010000
00013000
,
00001000
00000000
00010000
00000000
01000000
01000000
00000000
10000000
,
10000000
00000000
00010000
00010000
00000000
00000000
00000000
00100000
,
00100000
00000000
00001000
00000000
00010000
00010000
00000000
00000010
,
00000010
00000000
00001000
00001000
00000000
00000001
00000001
00000000
,
00002002
00000000
00000000
00000000
,
00000000
00000000
00000000
00000000
,
00003003
00000000
00000000
00000000
;

//---------------dance-double - t7r----------------
#NOTES:
     dance-double:
     t7r:
     Medium:
     10:
     :
00000000
00000000
00000000
00000000
,
00000000
00000000
00000000
00000000
,
00000000
00000000
00000000
00000000
,
00000000
00000000
00000000
00000000
,
00000000
00000000
00000000
00000000
,
20000000
00000000
31000000
10000000
00000000
00010000
10000000
00000000
,
02000000
00000000
03100000
00010000
00000000
00100000
00001000
00000000
,
00020000
00000000
00031000
00010000
00000000
00000100
00001000
00000000
,
00000002
00000000
00000013
00000001
00000000
00001000
00000001
00000000
,
00000100
00000000
00001000
00001000
00000000
00010000
00010000
00000000
,
00001000
00000000
00010000
00010000
00000000
01000000
01000000
00000000
,
10000000
00000000
00010000
00010000
00000000
00100000
00100000
00000000
,
00001000
00000000
00010000
00010000
00000000
00000010
00000010
00000000
,
00001000
00000000
00000001
00000000
00000100
00000000
00000000
00000001
00000000
00000000
00000000
00000000
00001000
00000000
00000000
00000000
,
00000001
00000000
00000010
00000000
00000100
00000000
00000000
00001000
00000000
00000000
00000000
00000000
00000001
00000000
00000000
00000000
,
00000100
00000000
00001000
00000000
00010000
00000000
00000000
00001000
00000000
00000000
00000000
00000000
00010000
00000000
00000000
00000000
,
00001000
00000000
01000000
00000000
00010000
00000000
00000000
10000000
00000000
00000000
00000000
00000000
00010000
00000000
00000000
00000000
,
10000000
01000000
00100000
00000000
00010000
00000000
00001000
00000000
,
00000010
00000000
00000000
00000100
00000000
00000000
00000001
00000000
00001000
00000000
00000100
00000000
00001000
00000000
00000000
00000000
,
00000001
00000000
00000000
00000010
00000000
00000000
00000100
00000000
00001000
00000000
00000000
00000000
00010000
00000000
00000000
00000000
,
10000000
00000000
00000000
00100000
00000000
00000000
01000000
00000000
00010000
00000000
00000000
00000000
00001000
00000000
00000000
00000000
,
00001002
00000000
00000010
00000000
00001003
00000100
00001000
00000000
,
00000001
00000000
00000100
00000000
00001000
00010000
00001000
00000000
,
00020000
00000000
00001000
00000000
00030100
00020000
00000000
00031000
,
00020000
00000000
00130000
01000000
00000000
00010000
10000000
00000000
,
20010000
00000000
01000000
00000000
30010000
00100000
00010000
00000000
,
10000000
00000000
00100000
00000000
00010000
00001000
00010000
00000000
,
00002000
00000000
00010000
00000000
00103000
00002000
00000000
00013000
,
00002000
00000000
00003100
00000020
00000000
00001030
00000001
00000000
,
00002002
00000000
00003003
00000001
,
00002000
00000000
00003100
00000000
00000010
00000010
00000001
00000000
,
00001000
00000000
00000000
00000010
00000000
00000000
00001000
00000000
00000200
00000000
00000000
00000000
00010300
00000000
00001000
00000000
,
00020000
00000000
00031000
00000000
01000000
01000000
00100000
00000000
,
20000000
00000000
30100000
00020000
00000000
00031000
00010000
00000000
,
00012000
00000000
00013000
00000000
01000000
01000000
10000000
00000000
,
00010000
00000000
00000000
00100000
00000000
00000000
00001000
00000000
00020000
00000000
00000000
00000000
00031000
00000000
00010000
00000000
,
00000200
00000000
00001300
00000000
00000001
00000001
00000100
00000000
,
00000002
00000000
00000013
00002000
00000000
00013000
00001000
00010000
,
01000000
00000000
10000000
10000000
00100000
00000000
01000000
00000000
,
00010000
00000000
00001000
00001000
00000100
00000000
00000110
00000000
,
00000001
00000001
00000010
00000000
00001000
00001000
00010000
00000000
,
00100000
10000000
01000000
00100000
00002000
00010000
00010000
00013000
,
00022000
00000000
00000000
00000000
,
00000000
00000000
00000000
00000000
,
00033000
00000000
00000000
00000000
,
00000000
00000000
00000000
00000000
,
00000001
00000100
00000010
00000000
,
00001000
00000100
00010000
00000000
,
00001000
01000000
00100000
00000000
,
10000000
00000000
01000000
00000000
00010000
00001000
00001000
00001000
,
00020000
00000000
00031000
00000000
00000100
00000010
00000100
00000001
,
00002000
00000000
00003100
00000000
00000010
00000001
00001000
00000010
,
00020000
00000000
00031000
00000000
01000000
00020000
00000000
00100000
,
20030000
00000000
00100000
30020000
00000000
01030000
00001000
00000000
,
00012000
00000000
00013000
00000000
00100000
01000000
00100000
10000000
,
00020000
00000000
00130000
00000000
01000000
10000000
00010000
01000000
,
00002000
00000000
00013000
00000000
00000010
00002000
00000000
00000100
,
00003002
00000000
00000100
00002003
00000000
00003010
00010000
00000000
,
00012000
00000000
00000000
00000000
00000000
00000000
00103000
00010000
,
00100000
00000000
00000000
00100000
00000000
00000000
00200000
00000000
00000000
00000000
00310000
00000000
10000000
00000000
00100000
00000000
,
00020000
00001000
00000100
00001000
,
00000010
00000000
00001000
00000000
00000100
00000000
00031000
00010000
,
00010000
00000100
00001000
00001000
00000001
00000001
00000000
00000100
,
00000100
00001000
00010000
00010000
00000000
00001000
00010000
01000000
,
10000000
00010000
00010000
00100000
00001000
00001000
00000000
00010000
,
00000010
00000010
00001000
00001000
00000000
00000100
00000100
00000000
,
00022000
00000000
00000000
00000000
,
00000000
00000000
00000000
00000000
,
00033000
00000000
00000000
00000000
;

//---------------dance-double - t7r----------------
#NOTES:
     dance-double:
     t7r:
     Hard:
     13:
     :
00000000
00000000
00000000
00000000
,
00000000
00000000
00000000
00000000
,
00000000
00000000
00000000
00000000
,
00000000
00000000
00000000
00000000
,
00000000
00000000
00000000
00000000
,
20100000
00000000
30010000
00200000
00010000
01300000
00100000
00100000
,
00002000
00000000
00013000
00000200
00001000
00000310
00000001
00000001
,
00000200
00000000
00000301
00002000
00000100
00003010
00001000
00001000
,
00000200
00000000
00010300
00002000
00010000
01003000
00100000
00100000
,
10000000
00000000
01000000
00100000
01000000
00000000
00200000
00000000
00000000
00000000
00301000
00000000
00010000
00000000
00001000
00000000
,
00000100
00000000
00000001
00001000
00000001
00000000
00000020
00000000
00000000
00000000
00000031
00000000
00000100
00000000
00001000
00000000
,
00010000
00000000
00001000
00010000
00001000
00000000
00010000
00000000
00000100
00000000
00010000
00001000
00010000
00000000
00001000
00000000
,
01000000
00000000
00010000
10000000
00010000
00000000
10000000
00000000
01000000
00000000
00010000
00000000
00001000
00000000
00000010
00000001
,
00000010
00000000
00000001
00000000
00000100
00000000
00000001
00002000
00000100
00000000
00000000
00000000
00003001
00000000
00000100
00000000
,
00001000
00000000
00010000
00000000
00100000
00000000
01000000
00020000
10000000
00000000
00000000
00000000
00130000
00000000
00010000
00000000
,
10000000
00000000
01000000
00000000
00100000
00000000
00010000
02000000
00100000
00000000
00000000
00000000
03010000
00000000
10000000
00000000
,
00100000
00000000
00010000
00000000
00001000
00000000
00000100
00000002
00001000
00000000
00000000
00000000
00000013
00000000
00000001
00000000
,
00001000
00000000
00000100
00001000
00000100
00000000
00001000
00000000
00000001
00000000
00000100
00000000
00000010
00000000
00001000
00000000
,
00010000
00000000
00100000
00010000
00000000
00000000
10000000
00000000
00100000
00000000
01000000
00000000
01100000
00000000
00000000
00000000
,
10000000
00000000
01000000
00010000
00000000
00001000
00010000
00000000
00001000
00000000
00000100
00000000
00000101
00000000
00000000
00000000
,
00000001
00000010
00000000
00001000
00000000
00010000
00000000
00001000
00010000
00000000
00100000
00000000
10100000
00000000
00000000
00000000
,
20010000
00000000
00000000
00000000
31000000
00000000
10000000
00000000
01000000
00000000
00100000
00000000
00010000
00000000
00001000
00000020
,
00000100
00000000
00000000
00000000
00001030
00000000
00000001
00000000
00000010
00000000
00001000
00000000
00010000
00000000
01000000
00200000
,
00010000
00000000
01300000
10000000
00010000
02000000
00100000
03010000
,
10000000
01000000
00010000
00001000
00000100
00000001
00000010
00000001
,
00001002
00000000
00000000
00000000
00000103
00000000
00000001
00000000
00000100
00000000
00000010
00000000
00001000
00000000
00010000
00200000
,
01000000
00000000
00000000
00000000
00310000
00000000
10000000
00000000
00100000
00000000
00010000
00000000
00001000
00000000
00000100
00000020
,
00001000
00000000
00000130
00000001
00001000
00000200
00000010
00001300
,
00000001
00000100
00001000
00010000
00100000
10000000
00010000
10000000
,
20020000
00000000
00000000
00000000
00000000
00000000
00000000
00000000
30030000
00000000
00000000
00000000
10000000
00000000
01000000
00100000
,
00020000
00000000
10030000
01000000
01000000
00100000
00010000
00001000
,
00000020
00000000
00000000
00000130
00000001
00000000
00000200
00000000
00000010
00000000
00000000
00000000
00000301
00000000
00000010
00000100
,
00002000
00000000
00003001
00000010
00000010
00000100
00001000
00010000
,
02000000
00000000
00000000
03100000
10000000
00000000
00020000
00000000
00000000
00000000
00130000
00000000
00010000
00000000
01000000
00200000
,
10000000
00000000
01300000
00010000
10000000
10000000
01000000
00010000
,
00002000
00000000
00000000
00003100
00000001
00000000
00000020
00000000
00001000
00000000
00000000
00000000
00000130
00000000
00001000
00000001
,
00000200
00000000
00000301
00000010
00001000
00001000
00010000
00100000
,
20000000
00000000
00000000
30100000
01000000
00000000
00020000
00000000
00100000
00000000
20030000
00000000
32000000
00000000
03020000
00000000
,
00031000
00010000
00001000
00000000
01000000
00010000
01000000
00000000
00001000
00000000
00010000
00001000
00010000
00000000
00001000
00000000
,
00000100
00000000
00000001
00000000
00000010
00000000
00001000
00010000
00001000
00000000
00000000
00000000
00011000
00000000
00000000
00000000
,
00010000
00001000
00010000
00000000
00000100
00001000
00000100
00000000
00010000
00000000
00001000
00010000
00001000
00000000
00010000
00000000
,
01000000
10000000
00100000
00010000
00002000
00010000
00010000
00013000
,
00022000
00000000
00000000
00000000
,
00000000
00000000
00000000
00000000
,
00033000
00000000
00000000
00000000
,
00000000
00000000
00000000
00000000
,
10000000
00000000
00000000
00000000
01000000
00000000
00100000
00010000
00000000
00000000
00000000
00000000
10000000
00000000
00000000
00000000
,
00100000
00000000
00000000
00000000
01000000
00000000
00001000
00010000
00000000
00000000
00000000
00000000
00001000
00000000
00000000
00000000
,
00010000
00000000
00000000
00000000
00000100
00000000
00000010
00000001
00000000
00000000
00000000
00000000
00001000
00000000
00000000
00000000
,
00000010
00000000
00000000
00000000
00010000
00000000
00001000
00010000
00000000
00000000
00001000
00000000
00001000
00000000
00001000
00000000
,
00012000
00000000
00000000
00000000
00013000
00000000
01000000
00000000
00100000
00000000
01000000
00000000
10000000
00000000
00100000
02000000
,
00010000
00000000
00000000
00000000
03100000
00000000
10000000
00000000
01000000
00000000
00100000
00000000
00001000
00000000
00010000
00000200
,
00000010
00000000
00001300
00000001
00000100
00000020
00001000
00000130
,
00000002
00000010
00001003
00000001
00000100
00001000
00010000
00000000
,
00021000
00000000
00000000
00000000
00031000
00000000
00000010
00000000
00000100
00000000
00000010
00000000
00000001
00000000
00000100
00000020
,
00001000
00000000
00000000
00000000
00000130
00000000
00000001
00000000
00000010
00000000
00000100
00000000
00010000
00000000
00001000
00200000
,
01000000
00000000
00310000
10000000
00100000
02000000
00010000
03100000
,
20000000
00000000
01000000
00000000
30010000
00000000
10000000
00000000
00100000
00000000
00010000
00000000
00001000
00000000
00010000
00000010
,
00000200
00000000
00001000
00000000
00000010
00000000
00000301
00001000
,
00000002
00000000
00000003
00000002
00000000
00000003
00000002
00000000
00000003
00000000
00000001
00000000
00000010
00000000
00001000
00000000
,
00020000
01000000
00000100
01000000
,
00001000
00000000
00000000
00000000
00000010
00000000
00000000
00000000
00001000
00000000
00000000
00000000
00130000
00000000
10000000
00010000
,
10000000
00000000
01000000
00000000
00010000
00001000
00010000
00000000
00001000
00010000
00001000
00000000
00010000
00000000
00000100
00001000
,
00000100
00000000
00001000
00000000
00000001
00001000
00000001
00000000
00000100
00000000
00001000
00000000
00010000
00000000
01000000
10000000
,
01000000
00000000
10000000
00000000
00100000
10000000
00100000
00000000
10000000
00010000
10000000
00000000
00010000
00000000
00100000
00001000
,
00100000
00000000
00001000
00000000
00010000
00001000
00010000
00000000
00001000
00000000
00000010
00000000
00000100
00000000
00000110
00000000
,
00002002
00000000
00000000
00000000
,
00000000
00000000
00000000
00000000
,
00003003
00000000
00000000
00000000
;
