#TITLE:Star Trail;
#SUBTITLE:;
#ARTIST:Nhato;
#TITLETRANSLIT:StarTrail;
#SUBTITLETRANSLIT:;
#ARTISTTRANSLIT:;
#GENRE:;
#CREDIT:;
#MUSIC:Star Trail.ogg;
#BANNER:Star Trail.png;
#BACKGROUND:Star Trail-bg.png;
#CDTITLE:;
#SAMPLESTART:16.216;
#SAMPLELENGTH:14.960;
#SELECTABLE:YES;
#OFFSET:0.000;
#BPMS:0.000=74.000
,20.000=148.000
,164.000=74.000
,172.000=148.000
;
#STOPS:;
#DISPLAYBPM:74.000:148.000;
#BGCHANGES:0.000=Star Trail.avi=1.000=0=0=0=StretchNoLoop====,
99999.000=-nosongbg-=1.000=0=0=0=StretchNoLoop====
;
#FGCHANGES:;

//--------------- dance-single - ----------------
#NOTES:
     dance-single:
     :
     Beginner:
     5:
     0,0,0,0,0:
0000
0000
0000
0000
,
0000
0000
0000
0000
,
0000
0000
0000
0000
,
2000
0000
3000
0000
,
0002
0000
0003
0000
,
1000
1000
0100
0000
,
0010
0010
0001
0000
,
0001
0001
0100
0000
,
0020
0000
0030
0000
,
1000
1000
0010
0000
,
0100
0100
0001
0000
,
1000
0000
0001
0000
,
2002
0000
3003
0000
,
0010
0001
1000
0000
,
0001
1000
0100
0000
,
0010
0010
0010
0000
,
0002
0000
1003
0000
,
0100
1000
0001
0000
,
0010
0001
1000
0000
,
0010
0010
0010
0000
,
2002
0000
3003
0000
,
1000
0100
1000
0000
,
1000
0010
1000
0000
,
0001
0010
0001
0000
,
0001
0100
0001
0000
,
0010
0010
0010
0000
,
0100
0100
0100
0000
,
0010
0010
0010
0000
,
0002
0000
2003
0000
,
3001
0010
0001
0000
,
0001
0100
0001
0000
,
1000
0010
1000
0000
,
1000
0100
1000
0000
,
0020
0000
0130
0000
,
0200
0000
0310
0000
,
2000
0000
3001
0000
,
0001
0001
0001
0000
,
2000
0000
3100
0000
,
0010
0000
0001
0000
,
0020
0000
0130
0000
,
1000
0000
0001
0000
,
0200
0301
0010
0100
,
2000
3001
0100
0010
,
1000
1000
1000
0010
,
0100
0001
0200
0000
,
0301
0001
0001
0010
,
0100
1000
0200
0000
,
1300
1000
1000
0001
,
0100
0010
2000
0000
,
3001
0001
0001
1000
,
0100
0010
0001
0000
,
2002
0000
3003
0000
,
0001
1000
0001
0000
,
1000
0100
1000
0000
,
0002
0000
2003
0000
,
3020
0000
0130
0010
,
0100
0000
0001
1000
,
0001
0001
0100
0100
,
0020
0000
0030
0000
,
2000
0000
0000
0000
,
3002
0000
0000
0000
,
0203
0000
0000
0000
,
0000
0000
0000
0000
,
0020
0000
0000
0000
,
0000
0000
0000
0000
,
0000
0000
0000
0000
,
0330
0000
0000
0000
;

//--------------- dance-single - ----------------
#NOTES:
     dance-single:
     :
     Easy:
     9:
     0,0,0,0,0:
0000
0000
0000
0000
,
0000
0000
0000
0000
,
0000
0000
0000
0000
,
1000
1000
0100
0100
,
0010
0010
2002
3003
,
0001
0000
0100
0000
0010
0000
1000
0001
,
0100
0000
0010
0000
1000
0001
1000
0000
,
0100
0000
0010
0000
0001
0000
1000
0010
,
0100
0000
0100
0000
0010
0100
0010
0000
,
1000
0000
0100
0000
0010
0000
0001
1000
,
0100
1000
0010
0010
,
0100
0001
0010
0000
0100
1000
0010
0000
,
2002
0000
0000
3003
,
0002
0000
0203
0000
0310
1000
0001
0000
,
2000
0000
3200
0000
0310
0001
1000
0000
,
0010
0100
0010
0100
0020
0000
0230
0000
,
0302
0010
2000
3003
,
2000
0000
3200
0000
1300
0010
0100
0000
,
0002
0000
0023
0000
0031
0100
0010
0000
,
0100
0100
0010
0010
0200
0000
0310
0000
,
2002
0000
0000
3003
,
1000
0000
0000
0100
0000
0000
0010
0000
0000
0001
0000
0000
1000
0000
0001
0000
,
0100
0000
0000
0010
0000
0000
1000
0000
0000
0001
0000
0000
0100
0000
0001
0000
,
1000
0000
0000
0100
0000
0000
0010
0000
0000
0001
0000
0000
1000
0000
0010
0000
,
0100
0000
0000
0010
0000
0000
1000
0000
0000
0001
0000
0000
0100
0000
0001
0000
,
0010
0000
0010
0000
0001
1000
0100
1000
,
0010
0000
0010
0000
1000
0001
0100
0001
,
0010
0010
0100
0100
0010
0000
0001
1000
,
0200
0000
0020
0330
,
0001
0000
0000
0100
0000
0000
1000
0000
0000
0100
0000
0000
0001
0000
1000
0000
,
0100
0000
0000
0001
0000
0000
0100
0000
0000
1000
0000
0000
0010
0000
0100
0000
,
0001
0000
0000
0010
0000
0000
1000
0000
0000
0010
0000
0000
0001
0000
1000
0000
,
0010
0000
0000
0001
0000
0000
0010
0000
0000
1000
0000
0000
0001
0000
0100
0000
,
0010
1000
0010
1000
0001
0000
0101
0000
,
0001
0000
0010
0000
0000
0010
0000
0000
0001
0000
0000
0000
1100
0000
0000
0000
,
1000
0010
0100
0001
1000
0000
0100
0010
,
0100
0000
0100
0000
0000
0100
0000
0000
0010
0000
0002
0000
0000
0000
0000
0000
,
2003
0010
0001
0000
,
0100
0001
0100
0000
,
3002
0010
1000
0000
,
0100
1000
0100
0000
,
1003
0100
0110
0000
0001
0001
1001
0000
,
0100
0010
0110
0000
1000
0001
0010
0100
,
1000
0010
1000
0000
0010
0000
0001
0000
,
0010
1000
0001
0000
0100
0001
1000
0000
,
0001
0010
0001
0000
0010
0000
1000
0000
,
0010
0001
1000
0000
0100
1000
0001
0000
,
0100
0010
0100
0000
1000
0000
0100
0000
,
0001
0100
0010
0000
0100
0001
0010
0000
,
0100
1000
0100
0000
0010
0000
0001
0000
,
0100
0010
1000
0001
1000
0000
0001
0000
,
2002
0000
0000
0000
3003
0000
0000
0000
0110
0000
0000
0010
0000
0000
0010
0000
,
2000
3020
0230
0302
,
1003
0000
1000
0000
1000
0000
0100
0000
1000
0000
0000
0010
0000
0000
0100
0000
,
0002
0000
0000
2003
0000
0000
3001
0000
,
0110
0000
1001
0000
1000
0100
0010
0001
,
1000
0000
0000
0000
0010
0000
0000
0000
0100
0000
0000
0100
0000
0000
0100
0000
,
0010
0000
1000
0000
0001
1000
0100
1000
,
0002
0000
0000
0000
0003
0000
0100
0010
,
0200
0000
0000
0000
0302
0000
0000
0023
,
0000
0000
0000
0000
0000
0000
0000
0130
,
2000
0000
0000
0000
3200
0000
0000
0320
,
0000
0000
0000
0000
0000
0031
0100
0002
,
2000
0000
0000
0000
,
0000
0000
0000
0000
,
0000
0000
0000
0000
,
3003
0000
0000
0000
;

//--------------- dance-single - ----------------
#NOTES:
     dance-single:
     :
     Medium:
     13:
     0,0,0,0,0:
0000
0000
0000
0000
,
0000
0000
0000
0000
,
0000
0000
0000
0000
,
0002
0000
0000
0000
0000
0000
0000
0000
2003
0000
0000
0000
0000
0000
0000
0000
3100
0000
0100
0000
0000
0010
0000
0000
0001
0000
0000
0010
0000
0000
0100
0000
,
2000
0000
0000
0000
0000
0000
0000
0000
3020
0000
0000
0000
0000
0000
0000
0000
0130
0000
0100
0000
0000
0001
0000
0000
0010
0000
0000
0000
1001
0000
0000
0000
,
1000
0000
0010
0000
1000
0000
0010
0000
1000
0000
0001
0000
0010
0000
0100
1000
,
0100
1000
0001
0100
0001
0020
0032
2003
,
3010
0000
0100
0000
0010
0000
0100
0000
0001
0000
1000
0000
0010
0000
0100
0001
,
0100
0000
0001
0000
1000
0000
0100
0000
0010
0100
0020
0000
0230
0000
2300
0000
,
3001
0000
0010
0000
0001
0000
0010
0000
0001
0000
1000
0000
0010
0000
0100
0010
,
0100
0000
0001
0000
1000
0000
0100
0000
2000
0000
0000
3020
0000
0000
0230
0000
,
0301
0010
0001
0000
1000
0000
0100
1000
0100
0000
0010
0001
0010
0000
0001
0000
,
2002
0000
0000
3003
,
0001
0000
0100
0000
0001
0000
0100
0000
0010
0000
0100
0001
0000
0010
0000
0001
,
1000
0000
0100
0000
1000
0000
0100
0000
0010
0000
0100
1000
0000
0001
0000
1000
,
0010
0000
0000
0000
0000
0000
0000
0000
0010
0000
0000
0000
0100
0000
0000
0000
0000
0000
0000
0000
0100
0000
0000
0000
0010
0000
0000
0000
0000
0000
1000
0000
0000
0100
0000
0000
0000
0000
0000
1000
0000
0000
0000
0000
0000
0001
0000
0000
,
0200
0010
0320
0100
0130
0110
1001
0000
,
1000
0000
0100
0000
1000
0000
0100
0000
0001
0000
0100
1000
0000
0001
0000
1000
,
0001
0000
0100
0000
0001
0000
0100
0000
1000
0000
0100
0001
0000
1000
0000
0001
,
0010
0100
0010
0000
0100
0010
0100
0000
0010
0000
0001
0010
0000
0100
0000
1000
,
0002
0000
0000
0000
0000
0000
0000
0000
0000
0000
0000
0000
0013
0100
0010
0000
,
0100
0000
0000
1000
0000
0000
0010
0000
0000
0001
0000
0000
0010
0000
0100
0010
,
0100
0000
0000
0001
0000
0000
0010
0000
0000
1000
0000
0000
0010
0000
0001
0010
,
0001
0000
0000
0100
0000
0000
0010
0000
0000
0001
0000
0000
1000
0000
0100
0010
,
0100
0000
0000
0001
0000
0000
0010
0000
0000
1000
0000
0000
0001
0000
0100
0000
,
1000
0000
0100
0000
1000
0000
0010
0000
0100
0000
0010
1000
0000
1000
0000
0010
,
0100
0000
0001
0000
0100
0000
0001
0000
0010
0000
0001
1000
0000
1000
0000
0100
,
0020
0000
0230
0000
0320
0000
0230
0000
0320
0000
0031
1000
0000
0100
0000
1000
,
0020
0000
0000
0000
0100
0000
0100
0000
0230
0000
0000
0000
0310
0100
0010
0000
,
0100
0000
0000
0001
0000
0000
0010
0000
0000
1000
0000
0000
0010
0000
0100
0010
,
0100
0000
0000
1000
0000
0000
0010
0000
0000
0001
0000
0000
0010
0000
1000
0010
,
1000
0000
0000
0100
0000
0000
0010
0000
0000
1000
0000
0000
0001
0000
0100
0010
,
0100
0000
0000
1000
0000
0000
0010
0000
0000
0001
0000
0000
1000
0000
0100
0000
,
0001
0100
0001
0000
0001
0100
0001
0000
0100
0000
0010
0100
0000
0010
0000
0010
,
1000
0000
0001
0000
0000
1000
0000
0000
0100
0000
0010
0100
0000
1000
0000
1000
,
0010
1000
0010
0000
0100
0001
0100
0000
0010
0000
0100
0010
0000
1000
0000
0001
,
0010
0000
0010
0000
0001
0100
0001
0000
1000
0000
0100
0000
0020
0000
0000
0000
,
0230
0000
1300
0010
1000
0010
1000
0100
,
0010
0100
1000
0010
0001
0010
1000
0010
,
2000
0000
3001
0010
0001
0100
0001
1000
,
0100
0010
0100
0010
0001
0100
1000
0100
,
0002
0000
0000
0000
0013
0000
0001
0000
1001
0000
0000
0000
1000
0000
0100
0000
0010
0000
0010
0000
0000
0001
0000
0000
0110
0000
0001
0000
1000
0000
0001
0000
,
2000
0000
0000
0000
3010
0000
1000
0000
1001
0000
0000
0000
0001
0000
0100
0000
0010
0000
1000
0000
0000
1000
0000
0000
0220
0000
0000
0000
0330
0000
0000
0000
,
2000
3200
2300
3200
2300
3002
0023
0032
,
2003
3200
0320
0230
2300
3002
0103
0001
,
0020
0230
2300
3200
0320
0032
2003
3020
,
0230
0000
2300
0000
3200
0000
0302
0000
0013
0100
0010
0000
0100
0000
0010
0000
,
0002
0203
0302
0203
0302
2003
3020
2030
,
3002
0203
0320
0230
0302
2003
3100
1000
,
0020
0230
0302
0203
0320
2030
3002
0023
,
0230
0302
0203
0320
0230
2300
3020
0230
,
0320
0000
0000
0000
0000
0000
0000
0000
1030
0000
0000
0001
0000
0000
0100
0010
,
0000
1000
0010
0000
0100
0000
0001
0010
0100
0000
0010
0000
0001
0000
1000
0000
,
0100
1000
0001
0000
1000
0000
0010
0000
0100
0000
0100
0010
0000
0000
1000
0000
,
0001
0000
0000
0000
0000
0000
0000
0000
0000
0010
0000
0000
0000
0000
0000
0000
0000
0000
0100
0000
0000
0000
0000
0000
0000
0000
0000
1000
0000
0000
0000
0000
0000
0000
0000
0000
0100
0000
0000
0000
0010
0000
0000
0000
0100
0000
0000
0000
,
0010
0000
0000
0000
1001
0000
0000
0000
0001
0000
0010
0001
0000
1000
0010
0000
,
0100
0000
0100
0000
0010
1000
0001
0000
0200
0000
0301
0020
0000
0031
0200
0000
,
0310
0000
0010
0000
1000
0000
0001
0000
0010
0000
0100
1000
0100
1000
0000
0020
,
0000
0000
0000
0000
0000
0000
0000
0000
0000
0000
0000
0000
1030
0100
1000
0100
,
2000
0000
0000
0000
0002
3000
0000
0200
,
0000
0000
0000
0000
0000
0000
0000
0000
0000
0000
0003
0000
0000
0000
0310
1000
,
0020
0000
0000
0000
2000
0030
0000
0200
,
0000
0000
0000
3000
0000
0310
0001
2000
,
0002
0000
0000
0000
,
0000
0000
0000
0000
,
0000
0000
0000
0000
,
3003
0000
0000
0000
;

//--------------- dance-single - ----------------
#NOTES:
     dance-single:
     :
     Hard:
     16:
     0,0,0,0,0:
0000
0000
0000
0000
,
0000
0000
0000
0000
,
0000
0000
0000
0000
,
2000
0000
0000
0000
0000
0000
0000
0000
3002
0000
0000
0000
0000
0000
0000
0103
0010
0000
0010
0000
0000
0100
0000
0000
0002
0000
0013
0200
0000
1300
0002
0000
,
0203
0000
0000
0000
0000
0000
0000
0000
0320
0000
0000
0000
0000
0000
0000
1030
0001
0000
0001
0000
0000
0100
0000
0000
0010
0000
1000
0010
0100
0000
0001
0000
,
1000
0000
0100
0000
1000
0000
0100
0000
1000
0000
0010
0000
0100
0001
0000
0100
,
0010
1000
0010
1000
0002
0023
0230
2300
,
3001
0000
0100
0000
0001
0000
0100
0000
0001
0000
0010
0000
0100
1000
0000
0001
,
0200
0000
0000
0000
0320
0000
0000
0000
0130
0001
0100
0001
1000
0100
1000
0100
,
0010
0000
0001
0000
0010
0000
0001
0000
1000
0000
0010
0000
0100
0010
0000
1000
,
0100
0000
0010
0000
0100
0000
0010
0000
0002
0000
0103
0020
0000
1030
0200
0000
,
1300
0010
1000
0010
0100
0000
0001
0010
0100
0000
1000
0100
0010
0000
0001
2000
,
0002
0000
0000
3003
,
2000
0000
3200
0000
2300
0000
3020
0000
2030
0000
0100
0100
0000
3010
0000
0010
,
0200
0000
0302
0000
2003
0000
3002
0000
0203
0000
0010
0010
0000
0301
0000
0001
,
1000
0000
0000
0000
0100
0000
0000
0000
0010
0000
0000
0000
0001
0000
0000
0000
0100
0000
0000
0000
0010
0000
0000
0000
1000
0000
0000
0000
0000
0000
0010
0000
0000
0100
0000
0000
0000
0000
0000
0100
0000
0000
0000
0000
0000
0010
0000
0000
,
2000
0000
0001
0000
0001
0000
3001
0000
0010
0001
1000
0000
0220
0000
0330
0000
,
0002
0000
0203
0000
2300
0000
3200
0000
0302
0000
0010
0010
0000
1003
0000
1000
,
0200
0000
0302
0000
0203
0000
2300
0000
3020
0000
0100
0100
0000
1030
0000
1000
,
0001
0010
0001
0010
0100
1000
0100
1000
0001
0000
0100
0010
0000
0010
0000
1000
,
0002
0000
0000
0000
0000
0000
0000
0000
0000
0000
0000
0000
1003
0100
0010
0001
,
2000
0000
3010
0200
0000
0310
2000
0000
3001
0020
0000
0130
0010
0000
0001
1000
,
0002
0000
0103
0020
0000
0130
0002
0000
1003
0200
0000
0310
0001
0000
1001
0000
,
2000
0000
3100
0020
0000
0130
2000
0000
3010
0200
0000
0301
0020
0000
0031
1000
,
0002
0000
0103
0020
0000
0130
2000
0000
3100
0020
0000
0130
0001
0000
0001
0000
,
0001
0010
0002
0000
1003
0010
2000
0000
3001
0100
0010
1000
0000
1001
0000
0001
,
1000
0100
2000
0000
3001
0100
0002
0000
1003
0100
0010
0001
0000
1001
0000
0001
,
0100
0000
1001
0000
0100
0000
1001
0000
0100
0000
0010
1000
0000
0100
0000
1000
,
0020
0000
0130
0001
0100
0001
0100
0001
0020
0000
0000
0000
0130
1000
0100
0010
,
0002
0000
0013
0200
0000
0310
0002
0000
1003
0020
0000
0130
0010
0000
1000
0001
,
2000
0000
3100
0020
0000
0130
2000
0000
3001
0200
0000
0310
1000
0000
1001
0000
,
0002
0000
0103
0020
0000
0130
0002
0000
0013
0200
0000
1300
0020
0000
1030
0001
,
2000
0000
3100
0020
0000
0130
0002
0000
0103
0020
0000
0130
1000
0000
1000
0000
,
1000
0010
1000
0010
0100
0010
1000
0010
1000
0000
0001
0100
0000
0001
0000
1000
,
0200
0000
0010
0000
0000
0010
0000
0000
0310
0000
0100
1000
0000
0001
0000
0100
,
0010
1000
0010
0100
0001
1000
0010
0100
0001
0000
1000
0100
0000
0010
0000
0001
,
2000
0000
0001
0000
0000
0001
0000
0000
3001
0000
0100
0000
0010
1000
0010
1000
,
0001
0000
0100
0000
0001
0000
0100
0010
1000
0000
0100
0000
1000
0000
0100
0010
,
0001
0000
0100
0000
0001
0000
0100
0010
1000
0000
0001
0000
1001
0000
0000
0000
,
1000
0000
0010
0000
1000
0000
0010
0100
0001
0000
0010
0000
0001
0000
0010
0100
,
1000
0000
0010
0000
1000
0000
0010
0100
0001
0000
0010
0000
0110
0000
0000
0000
,
1002
0000
0000
0000
0103
0000
0010
0000
1010
0000
0000
0000
1000
0000
0100
1000
0100
0000
0010
0001
0000
1000
0010
0000
0110
0000
0000
0000
0100
0000
0010
0000
,
2001
0000
0000
0000
3100
0000
0010
0000
0011
0000
0000
0000
0001
0000
0100
0001
0100
0000
0010
1000
0000
0010
1000
0000
0002
0000
0000
0000
0013
0100
0010
0100
,
1000
0000
0001
0100
0010
0000
1000
0100
1000
0001
0010
0001
0010
0000
0100
0000
,
0010
0000
0001
1000
0010
1000
0010
0000
1000
0001
0100
0001
0100
0000
0010
0000
,
2000
0000
3100
0010
0002
0000
0103
0010
2000
0000
3001
0010
0001
0010
0100
1000
,
0100
1000
0002
0000
0103
0001
2000
0000
3100
0010
0100
0000
0110
0000
1001
0000
,
0001
0000
1000
0100
0010
0000
0001
0100
0001
1000
0010
1000
0010
0000
0100
0000
,
0010
0000
1000
0001
0010
0001
0010
0000
0001
1000
0100
1000
0100
0000
0010
0000
,
0002
0000
0103
0010
2000
0000
3100
0010
0002
0000
1003
0010
1000
0010
0100
0001
,
0100
0001
1000
0010
0100
0001
1000
0010
1000
0100
0010
0001
1000
0100
0010
0001
,
0200
0000
0000
0000
0000
0000
0300
0000
1001
0000
1000
0010
0000
0100
0001
0010
,
0001
0100
0020
0000
1030
0100
2000
0000
3001
0100
0010
0200
0000
0310
1000
0000
,
0001
0010
0100
0010
0002
0000
1003
0010
0200
0000
0310
1000
0001
0000
0010
0000
,
0011
0000
0000
0000
0000
0000
0000
0000
0000
0101
0000
0000
0000
0000
0000
0000
0000
0000
1001
0000
0000
0000
0000
0000
1000
0000
0000
0000
0000
0000
0010
0000
0000
0000
0000
0000
0100
0000
0000
0000
0010
0000
0000
0000
1000
0000
0000
0000
,
0001
0100
0010
0000
0110
0000
0010
0000
1000
0000
0001
0020
0000
0130
1000
0100
,
2000
0000
3010
0100
0001
0100
0001
0010
0002
0000
1003
0200
0000
1300
0020
0000
,
0130
0000
0100
0000
0010
0000
1000
0000
0001
0000
0010
0001
0010
0100
1000
0002
,
0000
0000
0000
0000
0000
0000
0000
0000
0000
0000
0000
0000
0103
0010
0100
0010
,
2000
0000
0000
0000
0100
0000
0000
0010
,
0000
0000
0000
0000
0000
0000
0000
0000
0000
0000
0000
0000
0000
0000
3001
0010
,
0200
0000
0000
0000
1000
0000
0000
0001
,
0000
0000
0000
0000
0000
0310
0001
1000
,
2002
0000
0000
0000
,
0000
0000
0000
0000
,
0000
0000
0000
0000
,
3003
0000
0000
0000
;

//--------------- dance-single - ----------------
#NOTES:
     dance-single:
     :
     Challenge:
     18:
     0,0,0,0,0:
0000
0000
0000
0000
,
0000
0000
0000
0000
,
0000
0000
0000
0000
,
0002
0000
0000
0000
0000
0000
0000
0000
2003
0000
0000
0000
0000
0000
0000
3100
0010
0000
0010
0000
0000
0100
0000
0000
2000
0000
3010
0200
0000
0301
2000
0000
,
3200
0000
0000
0000
0000
0000
0000
0000
0320
0000
0000
0000
0000
0000
0000
0130
1000
0000
1000
0000
0000
0001
0000
0000
1001
0000
1000
0010
1000
0010
0100
0001
,
1000
0000
0100
0000
1000
0000
0100
0000
1000
0000
0010
0000
1000
0010
0100
0001
,
0010
0000
0001
0000
0010
0000
0001
0000
0200
0000
0301
0010
0200
0000
0320
0000
,
0031
0000
0100
0000
0001
0000
0100
0000
0010
0000
1000
0000
0100
1000
0100
0010
,
0002
0000
0000
0000
2003
0000
0000
0000
3001
0100
0001
0010
0001
0100
0001
0010
,
0001
0000
0100
0000
0001
0000
0100
0000
0010
0000
1000
0000
0010
1000
0010
0100
,
0001
0000
1000
0000
0001
0000
1000
0000
0200
0000
0310
0002
0000
1003
0020
0000
,
0130
0100
0001
1000
0200
0000
1300
0001
0200
0000
0310
0010
0200
0000
0301
1000
,
0002
0000
0000
0000
0000
0000
0000
0000
0000
0010
0000
0000
0010
0000
0000
0000
0000
0000
2003
0000
0000
0000
0000
0000
0000
0000
0000
0010
0000
0000
0010
0000
0000
0000
0000
0000
3010
0000
0000
0000
0000
0000
1000
0000
0001
0000
1000
0000
,
0002
0000
0100
0000
0023
0000
0100
0000
0032
0000
0103
0010
0000
1001
0000
1000
,
0200
0000
0010
0000
2300
0000
0010
0000
3200
0000
0310
0001
0000
1001
0000
1000
,
0010
0000
0000
0000
0010
0000
0000
0000
0010
0000
0000
0000
0100
0000
0000
0000
0100
0000
0000
0000
0100
0000
0000
0000
0010
0000
0000
1000
0000
0000
0001
0000
0000
0010
0000
0000
0000
0000
0000
0110
0000
0000
0000
0000
0000
0100
0000
0000
,
2000
0000
0010
0000
0010
0000
0010
0000
3002
0010
0000
0000
0010
0010
0000
0000
,
2003
0000
0100
0000
3020
0000
0100
0000
2030
0000
3100
0010
0000
1001
0000
0001
,
0200
0000
0010
0000
0302
0000
0010
0000
0203
0000
0310
1000
0000
1001
0000
0001
,
0100
0010
0100
0001
0010
0100
0010
0001
0100
0000
0010
1000
0000
1001
0000
0001
,
0020
0000
0000
0000
0000
0000
0000
0000
0000
0000
0000
0000
0130
1000
0100
0010
,
0002
0000
0013
0200
0000
1300
0020
0000
0031
0020
0000
1030
0200
0000
0310
0001
,
0020
0000
0130
0002
0000
0103
2000
0000
3010
0200
0000
0310
0002
0000
0013
1000
,
0020
0000
0130
2000
0000
3100
0002
0000
0013
2000
0000
3010
0200
0000
1300
0100
,
2000
0000
3010
0002
0000
1003
0200
0000
0301
0020
0000
0130
2000
0000
0010
0000
,
3001
0100
0001
0010
0100
0010
0001
0100
0010
0100
0001
0010
0000
1100
0000
0100
,
1000
0010
0100
0010
1000
0100
0010
0100
1000
0010
0100
0010
0000
0101
0000
0001
,
2001
0000
3010
0000
1002
0000
0013
0000
0100
1000
0001
0100
0000
0110
0000
0010
,
2000
0000
3001
0010
0100
0010
0100
1000
0002
0000
0000
0000
0103
0001
0100
0010
,
2000
0000
3010
0200
0000
0301
0020
0000
1030
0020
0000
0031
0200
0000
0310
1000
,
0020
0000
0130
2000
0000
3100
0002
0000
0013
0200
0000
0310
2000
0000
3010
0001
,
0020
0000
0130
0002
0000
0103
2000
0000
3010
0002
0000
0013
0200
0000
0301
0100
,
0002
0000
0013
2000
0000
3001
0200
0000
1300
0020
0000
0130
0001
0100
0001
0100
,
0001
0010
0100
1000
0001
0010
0100
1000
0001
0000
0100
0010
0000
0110
0000
0100
,
0001
0000
0011
0000
0000
0101
0000
0000
1001
0000
1000
0010
0000
0110
0000
0010
,
1000
0100
0010
0001
1000
0100
0010
0001
1000
0000
0010
1000
0000
1010
0000
1000
,
0100
0000
1100
0000
0000
0110
0000
0000
0011
0000
1002
0000
1003
0010
0100
0001
,
2000
0000
0000
0000
3001
0000
0100
0010
0000
0100
0001
0010
0000
0100
0010
0100
,
0000
1000
0010
0100
0000
0010
1000
0001
0000
1000
0100
0010
0001
0010
0100
1000
,
0002
0000
0000
0000
1003
0000
0100
0010
0000
0100
1000
0010
0000
0100
0010
0100
,
0000
0001
0010
0100
0000
0010
0001
1000
0000
0001
0100
0010
1000
0010
0100
0001
,
2000
0000
0000
0000
3001
0000
0010
0200
0000
1300
0001
2000
0000
3010
0100
0020
0000
0130
0001
2000
0000
3100
0010
0002
0000
0103
0010
1000
0010
1000
0001
0010
,
0200
0000
0000
0000
0310
0000
0001
2000
0000
3010
0100
0020
0000
0130
0001
0100
0001
0010
0100
1000
0100
1000
0001
0100
0020
0000
0000
0000
1030
0001
1000
0001
,
1000
0010
1000
0010
1000
0100
0010
0001
0010
0001
0100
0001
1000
0100
1000
0010
,
0100
0001
0100
0010
1000
0010
1000
0010
0100
0001
0010
0100
2000
0000
3200
0000
,
0310
0001
1000
0100
1000
0010
1000
0100
1000
0001
0100
0010
1000
0001
1000
0001
,
0010
0100
0010
0100
0010
0100
0010
0100
0010
0001
0100
0010
0100
0010
0100
0000
,
0010
1000
0001
0100
0001
0100
0001
0010
0001
1000
0100
1000
0100
0010
0100
1000
,
0001
0100
0001
0100
0001
1000
0100
1000
0010
1000
0001
0100
0001
0100
0001
0100
,
0010
1000
0001
0010
0001
0100
0001
0010
0001
1000
0010
1000
0100
1000
0010
1000
,
0100
0000
0000
1000
0000
0000
0010
0000
0000
0100
0000
0000
0001
0000
0000
0100
0000
0000
0001
0000
0100
0000
0001
0000
0100
0000
0000
0010
0000
0000
1000
0000
0000
0001
0000
0000
0010
0000
0000
0100
0000
0000
1000
0000
0000
0001
0000
0000
,
0020
0000
0000
0000
0000
0000
0000
0030
1001
0000
1000
0020
0000
0130
0001
0100
,
0010
1000
0010
1000
0002
0000
0013
0100
1000
0100
2000
0000
3020
0000
0130
0001
,
0100
0001
0010
0100
2000
0000
3002
0000
0203
0000
0310
2000
0000
3100
2000
0000
,
3020
0000
0000
0000
0000
0000
0000
0000
0000
0230
0000
0000
0000
0000
0000
0000
0000
0000
0302
0000
0000
0000
0000
0000
1003
0000
0100
0000
1000
0000
0100
0000
1000
0000
0100
0000
0010
0000
0000
0000
0001
0000
0000
0000
0001
0000
0000
0000
,
0200
0020
0000
0330
1001
0000
2000
0000
3020
0000
0130
0001
0010
0001
0100
0020
,
0000
1030
0100
1000
0010
0100
0001
0100
0020
0000
0130
2000
0000
3100
0002
0000
,
0013
0000
0001
0000
1000
0000
0010
0000
0100
0000
0001
0100
0001
1000
0100
0020
,
0000
0000
0000
0000
0000
0000
0000
0000
0000
0000
0000
0000
0031
1000
0010
0100
,
0002
0000
0000
0000
0100
0000
0000
0010
,
0000
0000
0000
0000
0000
0000
0000
0000
0000
0000
0000
0000
0000
0000
1003
0010
,
0200
0000
0000
0000
1000
0000
0000
0001
,
0000
0000
0000
0000
0000
0310
1000
0001
,
2002
0000
0000
0000
,
0000
0000
0000
0000
,
0000
0000
0000
0000
,
3003
0000
0000
0000
;
