#TITLE:Stairway Generation;
#SUBTITLE:;
#ARTIST:nc;
#TITLETRANSLIT:;
#SUBTITLETRANSLIT:;
#ARTISTTRANSLIT:;
#GENRE:;
#CREDIT:Braeden;
#MUSIC:Stairway Generation.ogg;
#BANNER:SC2023-bn.png;
#BACKGROUND:SC2023-bg.png;
#CDTITLE:;
#SAMPLESTART:53.239;
#SAMPLELENGTH:15.000;
#SELECTABLE:YES;
#OFFSET:0.000;
#BPMS:0.000=153.000
,132.000=229.500
,133.000=143.000
,134.000=153.000
;
#STOPS:132.000=0.459
,132.500=0.436
;
#DISPLAYBPM:153.000;
#JACKET:SC2023-jacket.png;
#BGCHANGES:;
#FGCHANGES:;

//--------------- dance-single - ----------------
#NOTES:
     dance-single:
     :
     Beginner:
     4:
     0,0,0,0,0:
0000
0000
0000
0000
,
0000
0000
0000
0000
,
0000
0000
0000
0000
,
0000
0000
0000
0000
,
1000
0100
0010
0001
,
1000
0000
0001
0000
,
0100
0000
0010
0000
,
1000
0000
0001
0000
,
1000
0000
0010
0000
,
1001
0000
1000
0000
,
0100
0000
0010
0000
,
0001
0000
0100
0000
,
0010
0000
1000
0000
,
0001
0000
1000
0000
,
0010
0000
0100
0000
,
0001
0000
1000
0000
,
0001
0000
1000
0000
,
1001
0000
0001
0000
,
1000
0000
0100
0000
,
0010
0000
0001
0000
,
0100
0000
0010
0000
,
1000
0000
0001
0000
,
1000
0000
0010
0000
,
1000
0000
0001
0000
,
0010
0000
0100
0000
,
1001
0000
0001
0000
,
1000
0100
0010
0001
,
1000
0000
0000
0000
,
0001
0010
0100
1000
,
0010
0000
0000
0000
,
1000
0100
0010
0001
,
1000
0000
0000
0000
,
0001
0000
0100
0000
,
0001
0000
1001
0000
,
1000
0000
0001
0000
,
0100
0000
0010
0000
,
1000
0000
0001
0000
,
1000
0000
1001
0000
,
0001
0000
0010
0000
,
0001
0000
1001
0000
,
1000
0000
0001
0000
,
1000
0100
0010
0001
,
0000
1000
0000
0001
,
0000
0100
0000
0010
,
0000
1000
0000
0001
,
0000
0000
1001
0000
,
1000
0000
0010
0000
,
0100
0000
0001
0000
,
1000
0000
0100
0000
,
1000
0000
0001
0000
,
0010
0000
0000
0000
0100
0000
0000
1000
,
0000
0001
0000
0000
,
1000
0000
0000
0000
0001
0000
0000
0010
,
0000
0100
0000
1000
,
0000
0010
0000
0100
,
0000
1001
0000
1000
,
0000
0001
0010
0100
,
1000
0000
0000
0000
;

//--------------- dance-single - ----------------
#NOTES:
     dance-single:
     :
     Easy:
     7:
     0,0,0,0,0:
0000
0000
0000
0000
,
0000
0000
0000
0000
,
0000
0000
0000
0000
,
0000
0000
0000
1001
,
0001
0010
0100
1000
,
1001
0001
1000
0010
,
0100
0001
0010
0100
,
1000
0100
0010
0001
,
1000
0000
1001
0000
,
0001
1000
0010
0100
,
0001
0010
0100
1000
,
0001
0100
0010
0100
,
0001
0010
0100
1000
,
0001
0100
0001
1000
,
0001
0010
0100
1000
,
0001
0100
0010
0100
,
0001
1000
0100
0010
,
1001
0001
1000
0010
,
0100
0001
0010
0100
,
1000
0001
0100
0010
,
1000
0100
0010
0001
,
1000
0010
0100
0001
,
1000
0100
0010
0001
,
0010
0100
1000
0001
,
1000
0100
0010
0001
,
1001
1000
0010
0100
,
0001
0010
0100
0000
1000
0000
0100
0000
,
1000
0100
0010
0000
0001
0000
1000
0000
,
0001
0010
0100
0000
1000
0000
0010
0000
,
1010
1000
0001
0010
,
0001
0010
0100
0000
1000
0000
0010
0000
,
1000
0100
0010
0000
0001
0000
1000
0000
,
0001
0010
0001
0000
1000
0000
0010
0000
,
1M00
0M01
1000
0000
1001
0000
0001
0000
,
0010
0001
1000
0010
,
0100
0001
1000
0100
,
0010
0001
1000
0010
,
0100
0001
1001
1000
,
0010
0100
0001
0010
,
0100
1000
1001
0001
,
1000
0100
0010
1001
,
1000
0001
1000
0000
0001
0000
0101
0000
,
0100
0010
1000
0100
,
0010
0001
0010
0100
,
1000
0010
0100
0001
,
1000
0100
0110
0010
,
0001
1000
1010
0010
,
1000
0001
1001
1000
,
0100
0010
0011
0001
,
1001
1000
0001
0100
,
0010
0000
1000
0000
1001
0000
0000
0101
,
0000
0000
0110
0000
0010
0000
1000
0100
,
0010
0000
0100
0000
1100
0000
0000
1001
,
0000
0101
0001
0010
,
0100
1000
0001
0100
,
0010
1010
1000
0001
,
1000
0000
0001
0010
0100
1000
0100
0010
,
0001
0100
0000
0000
0000
0000
0000
0000
;

//--------------- dance-single - XO- ----------------
#NOTES:
     dance-single:
     XO-:
     Medium:
     11:
     0,0,0,0,0:
0000
0000
0000
0000
,
0000
0000
0000
0000
,
0000
0000
0000
0000
,
0000
0000
0000
1001
,
1000
0100
0010
0001
1000
0100
0010
0001
,
1000
0000
1001
0000
0001
0100
1000
0100
,
0010
1000
0001
0000
1000
0100
0001
0100
,
0010
0001
1000
0000
0001
1000
0100
0010
,
0001
0000
0000
1000
0000
0000
0001
0000
0100
0000
0000
0100
0000
0000
0100
0000
,
0110
0000
0010
0000
1000
0100
0010
0001
,
2000
0000
3001
0010
0100
1000
0001
1000
,
0020
0000
1030
0100
0010
0001
1000
0010
,
2000
0000
3001
0010
0200
0000
1300
0000
,
1002
0000
1003
0100
0010
0001
1000
0000
,
1020
0000
0130
0001
0010
0001
0100
0000
,
0020
0000
1030
0100
0010
0001
1000
0000
,
0002
0000
1003
0010
1000
0100
0010
0001
,
1002
0000
1003
0100
0010
0001
1000
0001
,
2000
0000
3001
0010
0100
1000
0001
0000
,
2000
0000
3001
1000
0001
0010
0001
0000
,
2000
0000
3100
0010
0002
0000
1003
0000
,
0020
0000
1030
0100
0001
0100
0010
0000
,
0002
0000
1003
0010
0001
0010
0100
0000
,
0020
0000
1030
0001
0010
0001
1000
0000
,
0001
0010
0100
1000
0001
0010
0100
1000
,
1001
0000
0101
0000
0001
1000
0001
1000
,
0001
0010
0100
0000
1000
0000
0001
1000
,
0001
0100
0010
0000
1000
0001
1000
0000
,
0100
0010
0001
1000
0010
0100
0001
1000
,
0001
0010
0100
0000
1000
0010
0100
0000
,
0001
0010
0200
0000
1300
0010
0100
0001
,
1000
0100
0010
0000
0001
0100
0010
0000
,
1000
0100
0010
0100
1000
0010
0100
0001
,
10M1
10M1
1000
0000
1000
0100
0010
0000
,
0001
0100
0010
0000
1000
0100
1000
0001
,
0010
0100
1000
0001
2000
0000
3010
0100
,
0001
0010
0100
1000
0001
0100
0010
1000
,
0001
0010
0100
0000
1100
0000
0100
0010
,
0001
1000
0010
0100
0020
0000
1030
0001
,
0010
0100
0010
0001
1001
0000
1000
0100
,
0010
0001
1000
0010
0100
0000
0101
0000
,
0001
0010
0100
1000
0001
0000
1010
0000
,
1000
0000
0001
1000
0010
0000
1000
0100
,
0010
0001
1000
0010
0100
0001
0010
0001
,
0010
0100
1000
0001
1000
0001
0010
0002
,
0000
0003
0010
0000
1001
0000
1000
0200
,
0000
0310
0001
0100
0002
0000
1003
0100
,
0000
0010
0001
0010
0012
0000
1003
0010
,
0100
0001
1000
0000
2001
0000
3001
0010
,
0011
0000
0001
1000
1001
0000
0001
0010
,
0100
1000
0010
0100
0101
0000
0001
1000
,
0000
0010
0100
0000
0001
0000
1000
0100
,
0010
0001
1000
0010
1010
0000
0100
0010
,
0000
0100
0001
0000
1000
0100
0010
0001
,
1000
0010
0100
0001
0010
0000
0100
1000
,
0010
0100
0001
1000
0100
0000
0010
0001
,
1000
0000
0001
0010
0100
1000
0100
0010
,
0001
0001
0000
0000
0000
0000
0000
0000
;

//--------------- dance-single - XO SJ 32 stairs ----------------
#NOTES:
     dance-single:
     XO SJ 32 stairs:
     Hard:
     15:
     0,0,0,0,0:
0000
0000
0000
0000
,
0000
0000
0000
0000
,
0000
0000
0000
0000
,
0000
0000
0000
1001
,
1000
0100
0010
0001
0010
0100
1000
0010
0100
0001
0010
0001
1000
0100
0010
0001
,
1000
0000
0100
0000
0001
0000
0100
0000
1000
0000
0001
0100
0010
0000
1000
0000
,
0001
0000
0100
0000
1000
0000
0100
0000
0010
0000
1000
0002
0100
0000
0103
0000
,
0001
0000
0010
0000
0100
0000
1000
0000
0001
0100
0010
1000
0100
0010
0001
0000
,
1000
0000
0000
0010
0100
0000
0001
0000
1001
0000
0000
1010
0000
0000
0100
0000
,
0201
0000
0000
0000
0001
0300
1000
0000
0100
0000
1000
0000
0001
0000
0100
0000
,
0002
0000
1003
0010
0100
0001
1001
1000
,
0010
0000
0110
0100
0001
0010
0100
1000
,
1001
0000
0000
0001
0100
0000
0010
0000
1010
0000
0000
1000
0100
0000
0010
0001
,
1000
0000
0001
0000
1000
0000
0010
0000
1000
0000
0001
1000
0010
0100
0001
0000
,
2000
0000
0000
3001
0100
0000
0010
0000
1000
0000
0001
1000
0010
1000
0001
0000
,
2000
0000
0000
3010
0100
0000
0001
0000
0010
0000
0100
0000
1100
0000
1000
0000
,
0002
0000
0000
0000
1003
0000
0100
0000
1100
0000
1000
0001
0010
0000
0011
0000
,
1001
0000
0000
1000
0100
0000
0010
0000
0001
0000
1000
0010
0100
0001
1000
0000
,
0001
0000
0000
1000
0001
0000
0010
0000
0100
0000
1000
0010
0100
0001
1000
0000
,
0001
0000
0000
1000
0100
0000
0010
0000
0001
0000
1000
0010
1000
0001
0010
0001
,
1000
0000
0000
0001
0100
0001
1000
0010
0200
0000
0000
0301
1000
0000
0001
0010
,
0100
0000
0000
1000
0001
0000
1000
0010
1000
0000
0001
0000
0011
0000
0010
0000
,
0100
0000
0000
1000
0001
0000
0100
0010
1000
0000
0001
0000
0101
0000
0100
0000
,
0001
0000
0000
0100
0010
0000
1000
0010
0100
0000
0001
0000
1001
0000
1000
0000
,
0001
0010
0100
1000
0001
0100
0010
1000
0001
0010
0100
1000
0010
0000
0100
0001
,
1000
0100
0001
0100
0010
0100
0001
0100
,
1000
0100
0010
0001
1000
0000
0001
0000
0100
0000
0010
0000
0001
0000
0010
0000
,
1000
0100
0010
0001
1000
0000
0001
0000
1000
0000
0100
0000
0001
0000
0100
0000
,
1000
0001
0010
0100
1000
0000
0001
0000
0100
0000
0010
0000
1000
0000
0001
0000
,
1001
1000
0001
1000
0010
0100
1000
0100
,
0001
0010
0100
1000
0001
0000
0100
0000
0010
0000
0001
0000
0010
0000
0100
0000
,
0001
0010
0100
1000
0001
0000
0100
0000
0010
0000
1000
0000
0001
0000
0100
0000
,
0001
0010
0100
1000
0001
0000
0010
0000
1000
0000
0010
0000
0001
0000
1000
0000
,
1M01
1M01
1001
0000
0101
0001
0010
0100
,
0010
0001
1000
0010
1000
0100
1000
0010
,
0100
0001
0010
0001
0010
0001
1000
0010
,
1000
0100
0010
0001
0100
1000
0100
0010
,
0100
0000
0001
0000
1000
0000
0001
1000
0001
0000
0100
0000
0010
0000
1000
0000
,
0100
0010
0001
1000
1001
0001
0100
0010
,
1000
0010
0100
0001
1001
1000
0100
0010
,
0001
1000
0010
0100
0001
0010
0021
0000
,
0031
0000
0010
0001
0010
0100
1000
0001
0100
0000
0001
0000
1001
0000
1000
0000
,
0010
0100
0001
0010
1000
0010
0100
1000
,
0001
0000
0010
0000
0100
0000
1000
0001
1000
0000
0001
0000
0102
0000
0000
0000
,
1003
0000
0010
0000
0100
0000
0001
1000
0100
0000
0010
0000
0001
0000
0100
0000
,
0010
0000
1000
0000
0001
0000
1000
0100
1000
0000
0001
0000
0100
0000
2000
0000
,
0000
3100
0001
1000
1100
0100
0010
1000
,
0010
0001
1000
0001
1002
0000
1003
0010
,
0100
0000
0001
1000
0100
0000
0010
0000
0012
0000
0000
0000
1003
0000
0010
0000
,
2010
0000
3001
0100
0120
0000
1030
0001
,
2000
0000
0000
0000
3001
0100
0010
1000
0100
0000
0000
0000
0010
0000
2002
0000
,
3003
0000
0100
0000
1001
0000
1000
0000
0100
0000
0000
0000
1000
0100
0010
0001
,
1000
0000
0001
0000
1000
0010
0100
0000
2002
0000
3003
0000
0100
0000
2002
0000
,
3003
0000
1000
0000
0011
0000
0001
0000
1000
0000
0010
0100
0001
0000
1000
0100
,
0010
0000
0001
0000
0010
0000
0001
0100
0010
0000
0100
0001
1000
0000
0010
0100
,
0001
0000
1000
0000
1001
0000
0001
0010
0100
0000
1000
0010
0100
0000
0001
1000
,
0100
0000
1000
0000
0001
0010
0100
1000
0100
0010
0001
0010
0100
1000
0100
0010
,
0001
0010
0100
1000
0000
0000
0000
0000
0000
0000
0000
0000
0000
0000
0000
0000
;

//--------------- dance-double - XO SJ 31 stairs ----------------
#NOTES:
     dance-double:
     XO SJ 31 stairs:
     Hard:
     15:
     0,0,0,0,0:
00000000
00000000
00000000
00000000
,
00000000
00000000
00000000
00000000
,
00000000
00000000
00000000
00000000
,
00000000
00000000
00000000
00011000
,
00001000
00010000
00001000
00100000
00010000
00100000
01000000
10000000
00010000
01000000
00100000
10000000
00010000
00100000
01000000
10000000
,
00010000
00000000
00000000
00000000
01010000
00000000
00000000
00000000
01000000
00000000
00001000
00010000
00001000
00000000
00010000
00000000
,
00000100
00000000
00001000
00000000
00000010
00000000
00000100
00000000
00000001
00000000
00000000
00000010
00000100
00000000
00001000
00000000
,
00000010
00000000
00100000
00000000
00010000
00000000
10000000
00000000
00010000
00100000
01000000
10000000
01000000
00100000
00010000
00000000
,
01000000
00000000
00000000
00001000
00000000
00000000
00010000
00000000
00011000
00000000
00000000
00010010
00000000
00000000
00000010
00000000
,
00001010
00000000
00000000
00001000
00000010
00000000
00000100
00000000
00000001
00000000
00000010
00000000
00000100
00000000
00001000
00000000
,
00020000
00000000
00130000
01000000
10000000
00100000
01000000
00000000
,
01010000
00000000
00010000
00100000
00010000
01000000
00100000
00010000
,
00100000
00000000
00000000
01000000
00010000
00000000
00100000
00000000
00001000
00000000
00000000
00000000
00011000
00000000
00010000
00000000
,
00000010
00000000
00000000
00000100
00001000
00000000
00000100
00000000
00000010
00000000
00010000
00000000
00000010
00000000
00000000
00000000
,
00001010
00000000
00000000
00001000
00000100
00000000
00000001
00000000
00000100
00000000
00001000
00000000
00000010
00000000
00000000
00000000
,
00001010
00000000
00000000
00000010
00000100
00000000
00001000
00000000
00000100
00000000
00000010
00000000
00010000
00000000
00000000
00000000
,
00011000
00000000
00000000
00000000
00001000
00000000
01000000
00000000
00100000
00000000
10000000
01000000
00100000
00000000
00010000
00000000
,
10010000
00000000
00000000
10000000
01000000
00000000
00100000
00000000
00010000
00000000
00001000
00000000
00000100
00000000
00000010
00000000
,
00000001
00000000
00000000
00001000
00000010
00000000
00000100
00000000
00000001
00000000
00000100
00000000
00001000
00000000
00000100
00000000
,
00000010
00000000
00000000
00001000
00000010
00000000
00010000
00000000
00001000
00000000
01000000
00000000
00010000
00000000
00100000
00000000
,
01000000
00000000
00000000
10000000
00100000
00000000
01000000
00000000
00010000
00000000
01000000
00000000
00100000
00000000
01000000
00001000
,
01000000
00000000
00000000
00010000
00100000
00000000
00001000
00000000
00010000
00000000
00000100
00000000
00001000
00000000
00000100
00000000
,
00000010
00000000
00000000
00000001
00000100
00000000
00000010
00000000
00001000
00000000
00000001
00000000
00010000
00000000
00000000
00000000
,
00010100
00000000
00000000
00000100
00001000
00000000
00010000
00000000
00001000
00000000
00000100
00000000
01000000
00000000
00010000
00000000
,
10000000
01000000
00100000
00010000
10000000
00100000
01000000
00010000
10000000
01000000
00100000
00010000
10000000
00100000
01000000
00010000
,
01000000
00001000
00010000
00000010
00001000
00000001
00001000
00000001
,
00000010
00000100
00001000
00000100
00000010
00000000
00000001
00000000
00001000
00000000
00000100
00000000
01000000
00000000
00010000
00000000
,
10000000
01000000
00100000
00010000
10000000
00000000
00010000
00000000
01000000
00000000
00000100
00000000
00010000
00000000
00000100
00000000
,
00001000
00000100
00000010
00000001
00001000
00000000
00000010
00000000
00010000
00000000
00001000
00000000
01000000
00000000
00010000
00000000
,
10010000
10000000
01000000
00100000
00010000
01000000
00010000
00100000
,
00001000
00010000
00001000
00010000
00000100
00000000
00001000
00000000
00000100
00000000
00000001
00000000
00000100
00000000
00001000
00000000
,
00000001
00000010
00000100
00001000
00000001
00000000
00001000
00000000
00000100
00000000
01000000
00000000
00010000
00000000
10000000
00000000
,
00010000
10000000
01000000
00100000
00010000
00000000
01000000
00000000
00010000
00000000
00100000
00000000
00001000
00000000
00010000
00000000
,
0M0110M0
0M0110M0
00011000
00000000
00010100
00000100
00001000
00000100
,
00000001
00000100
00001000
00000010
00010000
00001000
00100000
00010000
,
10000000
01000000
00100000
00010000
00001000
00000100
00001000
00000010
,
00001000
00000001
00000100
00001000
00010000
00100000
10000000
00100000
,
00010000
00000000
00001000
00000000
00010000
00000000
00000010
00000100
00000020
00000000
00000000
00000000
00010030
00000000
00000100
00000000
,
00001000
00010000
00001000
00000100
00010100
00010000
00001000
00000100
,
00001000
00010000
00000100
00001000
00001010
00000010
00001000
00000100
,
00000010
00000001
00000010
00000100
00000010
00000001
00001001
00000000
,
00001000
00000100
00000010
00000001
00001000
00000010
00000100
00000010
00001000
00000000
00000000
00000000
00001100
00000000
00000000
00000000
,
00000100
00100000
00010000
10000000
01000000
00010000
01000000
00100000
,
00010000
00000000
10000000
00000000
00010000
00000000
00100000
00001000
00010000
00000000
00000010
00000000
00001000
00000000
00000100
00000000
,
00000010
00000001
00000010
00000100
00001000
00000010
00000100
00001000
,
00000100
00000000
00000010
00000000
00010000
00000000
00000100
00010000
00000100
00000000
00000000
00000000
00010100
00000000
00000100
00000000
,
00010000
01000000
00010000
00001000
00021000
00000000
00031000
00010000
,
00000100
00010000
00001000
00100000
00120000
00000000
00130000
01000000
,
10000000
00010000
10000000
00010000
00110000
00000000
00100000
00000010
,
00100010
00000000
01000000
00000100
01000100
00000000
00010000
00001000
,
01000000
00000000
00000000
00000000
00010000
00100000
01000000
10000000
00100000
00000000
00000000
00000000
10000000
00000000
10010000
00000000
,
00000000
00000000
00010000
00000000
01010000
00000000
01000000
00000000
00001000
00000000
00010000
00000000
00000100
00010000
00000100
00001000
,
00000020
00000000
00000000
00000000
00001030
00000100
00000010
00000001
00001000
00000000
00000000
00000000
00000010
00000000
00010010
00000000
,
00000000
00000000
00010000
00000000
00011000
00000000
00001000
01000000
00010000
00000000
10000000
01000000
00100000
00000000
00010000
00000000
,
00010000
00000000
10000000
01000000
00100000
00000000
00001000
00010000
00001000
00000000
00000000
00000000
00010000
00000000
00000100
00001000
,
00000100
00000000
00000010
00000001
00001000
00000000
00000010
00010000
00001000
00000000
00000000
00000000
00100000
00000000
00010000
00000000
,
10000000
00000000
00010000
00000000
10000000
01000000
00100000
00010000
00100000
01000000
10000000
00010000
01000000
00100000
01000000
00010000
,
00100000
00001000
00010000
00001000
00000000
00000000
00000000
00000000
00000000
00000000
00000000
00000000
00000000
00000000
00000000
00000000
;
