#TITLE:Space Alien;
#SUBTITLE:;
#ARTIST:SADA 2Futureanthem;
#TITLETRANSLIT:;
#SUBTITLETRANSLIT:;
#ARTISTTRANSLIT:;
#GENRE:;
#CREDIT:;
#BANNER:Space Alien.png;
#BACKGROUND:Space Alien-bg.png;
#LYRICSPATH:;
#CDTITLE:;
#MUSIC:Space Alien.ogg;
#OFFSET:-0.073000;
#SAMPLESTART:83.164001;
#SAMPLELENGTH:18.462000;
#SELECTABLE:YES;
#BPMS:0.000000=104.000000
;
#STOPS:
;
#BGCHANGES:;
#KEYSOUNDS:;
#ATTACKS:;

//---------------dance-single - ----------------
#NOTES:
     dance-single:
     :
     Hard:
     12:
     0.494938,0.616324,0.064159,0.232575,0.372922,432.000000,424.000000,8.000000,29.000000,7.000000,0.000000,0.494938,0.616324,0.064159,0.232575,0.372922,432.000000,424.000000,8.000000,29.000000,7.000000,0.000000:
0000
0000
0000
0000
,
0000
0000
0000
0000
,
0000
0000
0000
0000
,
0000
0000
0000
0000
,
0000
0000
0000
0000
0000
0000
0000
0000
0000
0000
0000
1000
0100
0010
0001
0000
,
1001
0000
1000
0000
0100
0010
0001
0000
0100
0000
0010
0000
0001
0000
0010
0000
,
1000
0000
0001
0000
0100
0010
1000
0000
0100
00M0
0100
0000
0002
0000
0000
0000
,
1003
0000
0001
0000
0100
0010
1000
0000
0100
0000
0010
0000
1000
0000
0010
0000
,
0001
0000
1000
0000
0100
0010
0001
0000
1000
0000
0010
0000
0100
0001
0100
0001
,
1000
0000
0100
0000
0010
0001
1000
0000
0010
0000
0100
0000
1000
0000
0100
0000
,
0001
0000
0100
0000
0010
1000
0001
0000
0100
00M0
0100
0000
2000
0000
0000
0000
,
3001
0000
0100
0000
0010
1000
0001
0000
0010
0000
0100
0000
0001
0000
0100
0000
,
1000
0000
0001
0100
00M0
0100
1000
0000
0000
0000
0000
0001
0010
0100
1000
0000
,
0002
0000
0103
00M0
0100
0000
1000
0000
0020
0000
0000
0000
0130
0000
0001
0000
,
0020
0000
0000
0000
0031
0000
0100
0000
1000
0000
0100
0000
0010
1000
0010
0000
,
0100
0000
0001
0000
0010
0000
0100
1000
0100
0000
0010
0000
1000
0000
0010
0000
,
0001
0000
1000
0000
0010
0100
0001
0000
1000
0000
0100
0000
0010
0001
0010
0001
,
1000
1001
0001
0100
0010
1000
0100
1000
,
0020
0000
0000
0000
1030
0000
0100
0000
0001
0000
0100
0000
0010
0001
0010
0000
,
0110
0000
0100
0000
1100
0000
1000
0000
1001
0000
0001
0000
0100
0010
0100
0010
,
1000
0000
0001
0100
00M0
0100
1000
0000
0000
0000
0000
0000
0000
0000
0000
0000
,
0001
0010
0100
1000
0020
0000
0000
0130
,
0001
0100
1000
0100
0020
0000
0000
0000
,
1030
0010
0100
0001
0020
0000
0000
1030
,
0010
0001
0010
0100
2000
0000
0000
0000
,
3001
0000
0100
0000
0010
1000
0010
0000
0100
0000
0001
0000
1000
0100
1000
0000
,
0010
0000
0100
0000
0001
1000
0001
0000
0010
0000
0100
1000
0001
0000
0001
0000
,
1000
0000
0100
0000
0010
0001
0010
0000
0100
0000
1000
0000
0001
0100
0001
0000
,
0010
0000
0100
0000
1000
0001
1000
0000
0010
0000
0100
0001
1000
0000
1000
0000
,
0200
0320
0032
0203
,
0320
2030
3200
0320
,
0032
2003
3020
0230
,
0302
2003
3002
0023
,
0130
1000
0100
0000
0010
0001
0010
0000
0001
0100
0001
0000
1000
0010
1000
0000
,
0001
0010
0001
0000
1000
0100
1000
0000
0010
1000
0010
0000
0100
0001
0100
0000
,
0001
1000
0001
1000
0100
0010
0100
0010
0001
0010
0100
1000
0001
0100
0010
1000
,
0001
0000
0000
0000
0000
0000
0000
0000
0000
0000
0000
1000
0100
0010
0001
0000
,
1001
0000
1000
0010
0100
0001
1000
0000
0100
0000
0001
0000
0100
0000
0010
0000
,
0001
0000
1000
0010
0100
0001
1000
0000
0100
0000
0010
0000
0001
0000
0001
0000
,
1000
0000
0001
0010
0100
1000
0001
0000
0100
0000
1000
0000
0100
0000
0010
0000
,
1000
0000
0001
0010
0100
1000
0001
0000
0100
0000
0010
0000
1000
0001
1000
0001
,
0010
0000
0110
0000
1000
0001
0100
0000
0010
0000
0001
0000
0010
0000
1000
0000
,
1010
0000
0001
1000
0001
1000
0100
0000
0010
0000
0001
0000
0100
0000
0001
0000
,
1000
0000
0001
0010
0100
1000
0001
0000
0100
0000
1000
0000
0100
0000
0001
0000
,
1000
0000
0001
0100
00M0
0100
1000
0000
0000
0000
0000
0001
0010
0100
1000
0000
,
0002
0000
0100
0000
1003
0100
0010
0000
1000
0000
0001
0000
0100
0000
1000
0000
,
0001
0000
1000
0010
0100
0001
0010
0000
0100
0000
1000
0000
0001
0000
0001
0000
,
0100
0000
0001
1000
0001
0100
0010
0000
0001
0000
1000
0000
0100
0000
0001
0000
,
1000
0000
0001
0010
0100
1000
0010
0000
0100
0000
0001
1000
0001
0010
0001
0010
,
0200
0000
1000
0000
0310
0001
0100
0000
1000
0000
0001
0000
0010
0000
1000
0000
,
0001
0000
0010
0001
0100
0001
1000
0000
0100
0000
0010
0000
0001
0000
0001
0000
,
1000
0000
0001
0100
0010
1000
0100
0000
0010
0000
0100
1000
0001
0100
0001
0100
,
0001
0000
1000
0100
00M0
0100
0002
0000
0000
0000
0000
0000
0000
0000
0000
0000
,
0003
0000
0000
0000
;

//---------------dance-single - ----------------
#NOTES:
     dance-single:
     :
     Challenge:
     15:
     0.559096,0.935112,0.080198,0.489209,0.689705,488.000000,478.000000,10.000000,61.000000,31.000000,0.000000,0.559096,0.935112,0.080198,0.489209,0.689705,488.000000,478.000000,10.000000,61.000000,31.000000,0.000000:
// measure 0
0000
0000
0000
0000
,  // measure 1
0000
0000
0000
0000
,  // measure 2
0000
0000
0000
0000
,  // measure 3
0000
0000
0000
0000
,  // measure 4
0000
0000
0000
0000
0000
0000
0000
0000
0000
0000
0000
0000
0000
0000
0000
0000
0000
0000
0000
0000
0000
0000
0001
0100
0001
0000
1000
0000
0010
0000
0000
0000
,  // measure 5
1000
0000
0000
0000
0001
0000
0000
0000
0100
00M0
0100
0000
1000
0000
0000
0000
0100
0000
0000
0000
0010
0000
0000
0000
1000
0000
0000
0000
0010
0000
0000
0000
,  // measure 6
0001
0000
0000
0000
1000
0000
0000
0000
0100
00M0
0100
0000
0001
0000
0000
0000
0100
0000
0000
0000
0010
0000
1000
0000
0002
0000
0000
0000
0000
0000
0000
0000
,  // measure 7
1003
0000
0000
0000
0001
0000
0000
0000
0100
00M0
0100
0000
1000
0000
0000
0000
0100
0000
0000
0000
0010
0000
0000
0000
1000
0000
0000
0000
0010
0000
0000
0000
,  // measure 8
0001
0000
0000
0000
1000
0000
0000
0000
0100
00M0
0100
0000
0001
0000
0000
0000
0100
0000
0000
0000
0001
0000
1000
0000
0100
0000
0010
0000
0100
0000
0010
0000
,  // measure 9
0001
0000
0000
0000
1000
0000
0000
0000
0100
00M0
0100
0000
0001
0000
0000
0000
0100
0000
0000
0000
0010
0000
0000
0000
0001
0000
0000
0000
0010
0000
0000
0000
,  // measure 10
1000
0000
0000
0000
0001
0000
0000
0000
0100
00M0
0100
0000
1000
0000
0000
0000
0002
0000
0100
0000
0000
0000
1003
0000
0200
0000
0000
0000
0000
0000
0000
0000
,  // measure 11
1300
0000
0000
0000
0001
0000
0000
0000
0100
00M0
0100
0000
1000
0000
0000
0000
0100
0000
0000
0000
0010
0000
0000
0000
1000
0000
0000
0000
0010
0000
0000
0000
,  // measure 12
0001
0000
0000
0000
1000
0000
1000
0000
0000
0000
0001
0000
0001
0000
0000
0000
0000
0000
0000
0000
0000
0000
1000
0100
1000
0000
0001
0000
0010
0000
0000
0000
,  // measure 13
040M
0000
0000
0000
1300
0000
0000
0000
0100
00M0
0100
0000
0001
0000
0000
0000
0200
0000
0000
0000
0310
0000
0000
0000
0001
0000
0000
0000
0010
0000
0000
0000
,  // measure 14
2000
0000
0000
0000
0000
0000
0000
0000
0000
0000
0000
0000
0000
0000
0000
0000
0000
0000
0000
0000
0000
0000
0000
0000
3001
0000
0000
0000
0000
0000
0000
0000
0000
0000
0000
0000
0000
0000
0000
0000
0000
0000
0000
0000
0000
0000
0000
0000
0100
0000
0000
0000
0000
0000
00M0
0000
0000
0000
0000
0000
0100
0000
0000
0000
0000
0000
0000
0000
0000
0000
0000
0000
1000
0000
0000
0000
0000
0000
0000
0000
0000
0000
0000
0000
0000
0000
0000
0000
0000
0000
0000
0000
0000
0000
0000
0000
0020
0000
0000
0000
0000
0000
0000
0000
0000
0000
0000
0000
0000
0000
0000
0000
0000
0000
0000
0000
0000
0000
0000
0000
1030
0000
0000
0000
0000
0000
0000
0000
0000
0000
0000
0000
0000
0000
0000
0000
0000
0000
0000
0000
0000
0000
0000
0000
0001
0000
0000
0000
0000
0000
0000
0000
0010
0000
0000
0000
0000
0000
0000
0000
0100
0000
0000
0000
0000
0000
0000
0000
1000
0000
0000
0000
0000
0000
0000
0000
0000
0000
0000
0000
0000
0000
0000
0000
0000
0000
0000
0000
0000
0000
0000
0000
,  // measure 15
0002
0000
0000
0000
0000
0000
0000
0000
0000
0000
0000
0000
0000
0000
0000
0000
0000
0000
0000
0000
0000
0000
0000
0000
1003
0000
0000
0000
0000
0000
0000
0000
0000
0000
0000
0000
0000
0000
0000
0000
0000
0000
0000
0000
0000
0000
0000
0000
0100
0000
0000
0000
0000
0000
00M0
0000
0000
0000
0000
0000
0100
0000
0000
0000
0000
0000
0000
0000
0000
0000
0000
0000
0001
0000
0000
0000
0000
0000
0000
0000
0100
0000
0000
0000
0000
0000
0000
0000
0010
0000
0000
0000
0000
0000
0000
0000
1000
0000
0000
0000
0000
0000
0000
0000
0000
0000
0000
0000
0000
0000
0000
0000
0000
0000
0000
0000
0000
0000
0000
0000
0010
0000
0000
0000
0000
0000
0000
0000
0000
0000
0000
0000
0000
0000
0000
0000
0000
0000
0000
0000
0000
0000
0000
0000
0001
0000
0000
0000
0000
0000
0000
0000
0000
0000
0000
0000
0000
0000
0000
0000
0000
0000
0000
0000
0000
0000
0000
0000
0010
0000
0000
0000
0000
0000
0000
0000
0000
0000
0000
0000
0000
0000
0000
0000
0000
0000
0000
0000
0000
0000
0000
0000
,  // measure 16
0100
0000
0000
0000
0001
0000
0000
0000
0100
00M0
0100
0000
1000
0000
0000
0000
0100
0000
0000
0000
1000
0000
0001
0000
0100
0000
0010
0000
0100
0000
0010
0000
,  // measure 17
1000
0000
0000
0000
1002
0000
0000
0000
0103
00M0
0100
0000
1000
0000
0000
0000
0200
0000
0000
0000
0310
0000
0000
0000
1000
0000
0000
0000
0010
0000
0000
0000
,  // measure 18
0002
0000
0000
0000
0000
0000
0000
0000
0000
0000
0000
0000
0000
0000
0000
0000
0000
0000
0000
0000
0000
0000
0000
0000
1003
0000
0000
0000
0000
0000
0000
0000
0000
0000
0000
0000
0000
0000
0000
0000
0000
0000
0000
0000
0000
0000
0000
0000
0100
0000
0000
0000
0000
0000
00M0
0000
0000
0000
0000
0000
0100
0000
0000
0000
0000
0000
0000
0000
0000
0000
0000
0000
0001
0000
0000
0000
0000
0000
0000
0000
0000
0000
0000
0000
0000
0000
0000
0000
0000
0000
0000
0000
0000
0000
0000
0000
2000
0000
0000
0000
0000
0000
0000
0000
0000
0000
0000
0000
0100
0000
0000
0000
0000
0000
0000
0000
0000
0000
0000
0000
0000
0000
0000
0000
0000
0000
0000
0000
0000
0000
0000
0000
3001
0000
0000
0000
0000
0000
0000
0000
0000
0000
0000
0000
0100
0000
0000
0000
0000
0000
0000
0000
0010
0000
0000
0000
0000
0000
0000
0000
1000
0000
0000
0000
0000
0000
0000
0000
0001
0000
0000
0000
0000
0000
0000
0000
0000
0000
0000
0000
0000
0000
0000
0000
0000
0000
0000
0000
0000
0000
0000
0000
,  // measure 19
0101
0000
0000
0000
1000
0000
0000
0000
0100
00M0
0100
0000
0001
0000
0000
0000
0101
0000
0000
0000
1000
0000
0000
0000
1010
0000
0000
0000
0001
0000
0000
0000
,  // measure 20
1001
0000
0001
0001
0000
1000
1000
0000
0000
0000
0000
0000
0000
0000
0000
0000
,  // measure 21
0M01
0010
0100
1000
0020
0000
0000
0130
,  // measure 22
0001
0100
1000
0100
0020
0000
0000
0000
,  // measure 23
1030
0010
0100
0001
0020
0000
0000
1030
,  // measure 24
0010
0100
0010
0001
2000
0000
0000
0000
,  // measure 25
3001
0000
0100
0000
0010
1000
0010
0000
0100
0000
0001
0000
1000
0100
1000
0100
,  // measure 26
0010
0000
0001
0000
1000
0010
1000
0000
0100
0000
0010
0001
1000
0000
1001
0000
,  // measure 27
1000
0000
0100
0000
0010
0001
0010
0000
0100
0000
1000
0000
0001
0100
0001
0100
,  // measure 28
0010
0000
1000
0000
0001
0010
0001
0000
0100
0000
0010
1000
0001
0000
1001
0000
,  // measure 29
2M00
3020
0230
0302
,  // measure 30
2003
3200
0320
0032
,  // measure 31
0203
0302
2003
3200
,  // measure 32
2300
3020
0230
0302
,  // measure 33
20M3
0100
3002
0100
2003
0100
3002
0100
2003
0010
3002
0010
2003
0010
3002
0010
,  // measure 34
2003
0010
3002
0100
2003
0010
3002
0100
2003
0100
3002
0010
2003
0100
3002
0013
,  // measure 35
0100
1000
0100
0000
0010
0001
0010
0000
0001
0100
0001
0000
1000
0010
1000
0000
0001
0010
0001
0010
0100
1000
0100
1000
0001
0100
0001
0100
0010
1000
0010
1000
,  // measure 36
0000
0000
0000
0000
0000
0000
0000
0000
0000
0000
0000
0000
0000
0000
0000
0000
0000
0000
0000
0000
0000
0000
0001
0100
0001
0000
1000
0000
0010
0000
0000
0000
,  // measure 37
1000
0000
0000
0000
0100
00M0
0100
0000
0001
0000
1000
0000
0100
0000
0000
0000
0010
0000
0000
0000
1000
0000
0000
0000
0010
0000
0000
0000
0001
0000
0000
0000
,  // measure 38
1000
0000
0000
0000
0100
00M0
0100
0000
0001
0000
1000
0000
0100
0000
0000
0000
0010
0000
0000
0000
0001
0000
0010
0000
0100
0000
0000
0000
1000
0000
0000
0000
,  // measure 39
0001
0000
0000
0000
0100
00M0
0100
0000
1000
0000
0001
0000
0100
0000
0000
0000
0010
0000
0000
0000
0001
0000
0000
0000
0010
0000
0000
0000
1000
0000
0000
0000
,  // measure 40
0001
0000
0000
0000
0100
00M0
0100
0000
1000
0000
0001
0000
0010
0000
0000
0000
0100
0000
0000
0000
1000
0000
0001
0000
0100
0000
0010
0000
0100
0000
0010
0000
,  // measure 41
1000
0000
0000
0000
1002
0000
0000
0000
0103
00M0
0100
0000
1000
0000
0000
0000
0100
0000
0010
0000
1000
0000
0000
0000
0010
0000
0000
0000
0001
0000
0000
0000
,  // measure 42
1000
0000
0000
0000
2001
0000
0000
0000
3100
00M0
0100
0000
0001
0000
0000
0000
0100
0000
0000
0000
0010
0000
1000
0000
0001
0000
0000
0000
0100
0000
0000
0000
,  // measure 43
0001
0000
0100
0100
1000
0001
0100
0000
0001
0100
1000
0000
0100
0000
0010
0000
,  // measure 44
1000
0000
0000
0000
0001
0000
0001
0000
0000
0000
1000
0000
1000
0000
0000
0000
0000
0000
0000
0000
0000
0000
0001
0010
0001
0000
1000
0000
0100
0000
0000
0000
,  // measure 45
0040
0000
0000
0000
0031
0000
0000
0000
0100
00M0
0100
0000
1000
0000
0000
0000
0200
0000
0000
0000
0301
0000
0000
0000
0100
0000
0000
0000
0010
0000
0000
0000
,  // measure 46
0002
0000
0000
0000
0000
0000
0000
0000
0000
0000
0000
0000
0000
0000
0000
0000
0000
0000
0000
0000
0000
0000
0000
0000
0103
0000
0000
0000
0000
0000
00M0
0000
0000
0000
0000
0000
0100
0000
0000
0000
0000
0000
0000
0000
0000
0000
0000
0000
1000
0000
0000
0000
0000
0000
0000
0000
0000
0000
0000
0000
0001
0000
0000
0000
0000
0000
0000
0000
0000
0000
0000
0000
0100
0000
0000
0000
0000
0000
0000
0000
0000
0000
0000
0000
0000
0000
0000
0000
0000
0000
0000
0000
0000
0000
0000
0000
0020
0000
0000
0000
0000
0000
0000
0000
0000
0000
0000
0000
0000
0000
0000
0000
0000
0000
0000
0000
0000
0000
0000
0000
1030
0000
0000
0000
0000
0000
0000
0000
0000
0000
0000
0000
0001
0000
0000
0000
0000
0000
0000
0000
0000
0000
0000
0000
1000
0000
0000
0000
0000
0000
0000
0000
0100
0000
0000
0000
0000
0000
0000
0000
0010
0000
0000
0000
0000
0000
0000
0000
0001
0000
0000
0000
0000
0000
0000
0000
0000
0000
0000
0000
0000
0000
0000
0000
0000
0000
0000
0000
0000
0000
0000
0000
,  // measure 47
2000
0000
0000
0000
0000
0000
0000
0000
0000
0000
0000
0000
0000
0000
0000
0000
0000
0000
0000
0000
0000
0000
0000
0000
3100
0000
0000
0000
0000
0000
00M0
0000
0000
0000
0000
0000
0100
0000
0000
0000
0000
0000
0000
0000
0000
0000
0000
0000
0001
0000
0000
0000
0000
0000
0000
0000
0000
0000
0000
0000
1000
0000
0000
0000
0000
0000
0000
0000
0000
0000
0000
0000
0001
0000
0000
0000
0000
0000
0000
0000
0100
0000
0000
0000
0000
0000
0000
0000
0010
0000
0000
0000
0000
0000
0000
0000
2000
0000
0000
0000
0000
0000
0000
0000
0000
0000
0000
0000
0000
0000
0000
0000
0000
0000
0000
0000
0000
0000
0000
0000
3100
0000
0000
0000
0000
0000
0000
0000
0000
0000
0000
0000
0000
0000
0000
0000
0000
0000
0000
0000
0000
0000
0000
0000
0010
0000
0000
0000
0000
0000
0000
0000
0000
0000
0000
0000
0000
0000
0000
0000
0000
0000
0000
0000
0000
0000
0000
0000
0001
0000
0000
0000
0000
0000
0000
0000
0000
0000
0000
0000
0000
0000
0000
0000
0000
0000
0000
0000
0000
0000
0000
0000
,  // measure 48
1000
0000
0000
0000
0100
00M0
0100
0000
0001
0000
1000
0000
0010
0000
0000
0000
0100
0000
0000
0000
0001
0000
1000
0000
0010
0000
0100
0000
0010
0000
0100
0000
,  // measure 49
0001
0000
1000
0000
0100
00M0
0100
0000
0001
0000
1000
0000
0100
0000
0000
0000
0020
0000
0000
0000
1030
0000
0000
0000
0010
0000
0000
0000
0001
0000
0000
0000
,  // measure 50
2000
0000
0000
0000
0000
0000
0000
0000
0000
0000
0000
0000
0000
0000
0000
0000
0000
0000
0000
0000
0000
0000
0000
0000
3100
0000
0000
0000
0000
0000
00M0
0000
0000
0000
0000
0000
0100
0000
0000
0000
0000
0000
0000
0000
0000
0000
0000
0000
0001
0000
0000
0000
0000
0000
0000
0000
0000
0000
0000
0000
1000
0000
0000
0000
0000
0000
0000
0000
0000
0000
0000
0000
0010
0000
0000
0000
0000
0000
0000
0000
0000
0000
0000
0000
0000
0000
0000
0000
0000
0000
0000
0000
0000
0000
0000
0000
2000
0000
0000
0000
0000
0000
0000
0000
0000
0000
0000
0000
0100
0000
0000
0000
0000
0000
0000
0000
0000
0000
0000
0000
0000
0000
0000
0000
0000
0000
0000
0000
0000
0000
0000
0000
3001
0000
0000
0000
0000
0000
0000
0000
0000
0000
0000
0000
0100
0000
0000
0000
0000
0000
0000
0000
0010
0000
0000
0000
0000
0000
0000
0000
1000
0000
0000
0000
0000
0000
0000
0000
0001
0000
0000
0000
0000
0000
0000
0000
0000
0000
0000
0000
0000
0000
0000
0000
0000
0000
0000
0000
0000
0000
0000
0000
,  // measure 51
2001
0000
0000
0000
3100
00M0
0100
0000
0001
0000
1000
0000
0100
0000
0000
0000
0020
0000
0000
0000
1030
0000
0010
0000
0001
0000
1000
0000
0001
0000
1000
0000
,  // measure 52
0001
0000
0100
0200
0000
0010
0020
0000
0000
0000
0000
0000
0000
0000
0000
0000
,  // measure 53
0330
0000
0000
0000
;
