#TITLE:Southern Cross;
#SUBTITLE:;
#ARTIST:403;
#TITLETRANSLIT:;
#SUBTITLETRANSLIT:;
#ARTISTTRANSLIT:;
#GENRE:METAL ROCK;
#CREDIT:;
#BANNER:Southern Cross.png;
#BACKGROUND:Southern Cross-bg.png;
#LYRICSPATH:;
#CDTITLE:cdtitle.png;
#MUSIC:Southern Cross.ogg;
#OFFSET:-0.394000;
#SAMPLESTART:78.895004;
#SAMPLELENGTH:15.000000;
#SELECTABLE:YES;
#DISPLAYBPM:86.000000:171.000000;
#BPMS:0.000000=171.162994
,148.000000=85.582001
,184.000000=171.162994
;
#STOPS:
;
#BGCHANGES:-1.000=Southern Cross.avi=1.000=0=0=0=StretchNoLoop==CrossFade_Fastest==,
99999=-nosongbg-=1.000=0=0=0 // don't automatically add -songbackground-
;
#KEYSOUNDS:;
#ATTACKS:;

//---------------dance-single - Daff_4K----------------
#NOTES:
     dance-single:
     Daff_4K:
     Beginner:
     4:
     0.132942,0.189671,0.078142,0.000000,0.000000,131.000000,120.000000,11.000000,0.000000,0.000000,0.000000,0.132942,0.189671,0.078142,0.000000,0.000000,131.000000,120.000000,11.000000,0.000000,0.000000,0.000000:
0000
0000
0000
0000
,
0000
0000
0000
0000
,
0000
0000
0000
0000
,
0000
0000
0000
0000
,
0010
0000
0010
0000
,
0100
0000
0100
0000
,
1001
0000
0000
0000
,
1000
0000
0000
0000
,
0001
0000
0000
0000
,
0100
0000
0000
0000
,
0010
0000
0010
0000
,
0010
0000
0000
0000
,
1000
0000
0000
0000
,
0001
0000
1000
0000
,
0001
0000
1000
0000
,
0100
0000
0000
0000
,
0010
0000
0000
0000
,
0100
0000
0000
0000
,
0010
0000
0010
0000
,
0010
0000
0000
0000
,
0001
0000
0000
0000
,
1000
0000
0001
0000
,
1000
0000
0001
0000
,
0100
0000
0100
0000
,
0010
0000
0000
0000
,
1001
0000
0000
0000
,
0000
0000
0000
0000
,
1000
0000
0000
0000
,
0001
0000
0000
0000
,
1000
0000
0000
0000
,
0001
0000
1000
0000
,
0001
0000
0000
0000
,
0010
0010
0010
0000
,
1000
0000
0000
0000
,
0010
0010
0010
0000
,
0001
0000
0001
0000
,
1000
0000
1000
0000
,
1001
0000
0000
0000
,
0001
0000
0000
0000
,
0001
0000
0000
0000
,
1000
0000
0000
0000
,
1000
0000
0000
0000
,
0010
0000
0000
0000
,
0010
0000
0000
0000
,
0100
0000
0000
0000
,
0100
0000
0000
0000
,
0000
0000
0000
0000
,
1001
0000
0000
0000
,
1000
0000
0010
0000
,
1000
0000
0000
0000
,
0001
0000
0000
0000
,
0010
0000
0010
0000
,
0100
0000
0100
0000
,
1000
0000
0000
0000
,
0001
0000
0000
0000
,
1001
0000
0000
0000
,
0001
0000
0010
0000
,
0001
0000
0000
0000
,
1000
0000
0000
0000
,
0010
0000
0010
0000
,
0100
0000
0100
0000
,
0001
0000
1000
0000
,
0001
0000
0000
0000
,
1000
0000
0000
0000
,
1001
0000
0000
0000
,
0001
0000
0000
0000
,
1000
0000
0000
0000
,
0010
0000
0010
0000
,
0100
0000
0100
0000
,
0001
0000
1000
0000
,
0001
0000
0000
0000
,
0010
0000
0010
0000
,
0100
0000
0010
0000
,
0100
0000
0100
0000
,
1000
0000
0001
0000
,
1000
0000
1000
0000
,
0001
0000
0001
0000
,
0100
0000
0010
0000
,
1000
0000
0000
0000
,
1001
0000
0000
0000
,
0110
0000
0000
0000
,
1000
0000
0001
0000
,
1000
0000
0000
0000
,
1001
0000
0000
0000
,
0001
0000
0000
0000
,
1000
0000
0000
0000
,
0010
0000
0010
0000
,
0100
0000
0100
0000
,
0110
0000
0000
0000
,
1001
0000
0000
0000
;

//---------------dance-single - Daff_4K----------------
#NOTES:
     dance-single:
     Daff_4K:
     Easy:
     7:
     0.314596,0.379342,0.355189,0.305463,0.000000,310.000000,260.000000,50.000000,43.000000,0.000000,0.000000,0.314596,0.379342,0.355189,0.305463,0.000000,310.000000,260.000000,50.000000,43.000000,0.000000,0.000000:
0000
0000
0000
0000
,
0000
0000
0000
0000
,
0000
0000
0000
0000
,
0000
0000
0000
0000
,
1000
0010
1010
0000
,
0001
0010
0011
0000
,
1001
0000
0000
0000
,
1000
1000
0001
0001
,
0100
0010
1000
0001
,
0021
0000
0130
0100
,
1000
1001
0001
1001
,
2000
0000
3001
0001
,
0010
0110
0100
1100
,
1000
0010
0001
0000
,
1000
0100
0001
0000
,
2002
3003
1000
0100
,
0001
0100
1000
0000
,
1020
0000
0130
0100
,
0001
1001
1000
1001
,
0002
0000
1003
1000
,
0010
0110
0100
0101
,
0001
0010
1000
0000
,
0001
0100
1000
0001
,
0201
0000
0310
1000
,
1200
0000
0310
0001
,
1001
0000
0000
0000
,
0000
0000
0000
0000
,
1000
0010
1000
0010
,
0001
0010
0001
0010
,
1000
0100
0001
0100
,
1000
0001
1001
0000
,
1000
0010
0100
0001
,
1001
0110
1001
0000
,
0001
0010
0100
1000
,
1001
0110
1001
0000
,
1000
0100
0001
0100
,
1000
0010
0100
0001
,
2002
0000
0000
3003
,
0020
0000
1000
0000
,
1000
0000
0130
0000
,
0002
0000
2003
0000
,
3100
0010
0100
0100
,
0020
0000
0001
0000
,
0001
0000
0130
0000
,
2000
0000
3002
0000
,
0103
0010
0100
0000
,
0000
0000
0000
0000
,
2001
0000
3100
0001
,
0100
0110
0010
0011
,
0002
0000
1003
0010
,
0100
0101
0001
0011
,
0010
0100
1000
0000
,
0010
0100
0001
0000
,
2002
3003
1000
0100
,
0010
0001
1000
0000
,
1002
0000
0103
1000
,
0100
0110
0010
1010
,
2000
0000
3001
0010
,
0100
1100
1000
1010
,
0010
0100
0001
0000
,
0010
0100
1000
0001
,
0200
0000
0310
1000
,
0200
0000
0310
0001
,
0200
0000
0310
1000
,
1001
0000
0000
0000
,
0002
0000
0013
0100
,
2000
0000
3010
0100
,
0002
0000
0013
0001
,
2000
0000
3010
1000
,
0002
0000
1003
0000
,
2000
0000
3001
0000
,
0001
1000
0001
1000
,
0100
1001
0010
1001
,
0100
0010
0100
0010
,
0001
0110
1000
0110
,
0001
1000
0001
1000
,
0010
0100
0010
0100
,
0001
1001
1000
1001
,
0001
0010
0100
1000
,
2002
0000
0000
3003
,
0220
0000
0000
0330
,
2002
3003
0220
0330
,
2002
3003
0001
1000
,
0010
0010
0100
0001
,
0010
0010
0100
1000
,
0001
0001
1000
1000
,
0010
0100
0001
0010
,
0100
1000
0010
0100
,
0220
0000
0000
0330
,
1001
0000
0000
0000
;

//---------------dance-single - Daff_4K----------------
#NOTES:
     dance-single:
     Daff_4K:
     Medium:
     11:
     0.447539,0.505790,0.568303,0.483057,0.060382,441.000000,361.000000,80.000000,68.000000,0.000000,0.000000,0.447539,0.505790,0.568303,0.483057,0.060382,441.000000,361.000000,80.000000,68.000000,0.000000,0.000000:
0000
0000
0000
0000
,
0000
0000
0000
0000
,
0000
0000
0000
0000
,
0000
0000
0000
0000
,
1100
0011
0001
1000
,
0101
1010
1000
0001
,
1001
0000
0000
0000
,
0001
1000
0001
1000
,
0010
0000
0100
0001
1000
0000
1001
0000
,
0002
0000
0010
0000
1003
0001
1000
0000
,
0010
0110
0101
1001
,
1200
0000
0001
0000
0310
0100
0010
0000
,
0001
0101
0110
1010
,
1002
0010
1003
0001
,
2000
0100
3001
1000
,
0020
0000
0100
0000
1030
0000
0001
1000
,
0200
0310
0002
1003
,
2000
0000
0010
0000
3001
1000
0001
0000
,
0010
0110
1100
1001
,
0201
0000
1000
0000
0310
0100
0010
0000
,
1000
1100
0110
0011
,
2001
0010
3001
1000
,
0002
0100
1003
0001
,
0010
0110
1000
1001
,
0100
0010
0100
0010
1000
0001
1000
0000
,
2002
0000
0000
0000
,
0000
0000
3003
0110
,
1001
0000
1000
0010
1000
0000
0010
0100
,
0001
0000
1000
0100
0010
0000
0100
0000
,
1000
0000
0001
0010
0001
0000
0010
0100
,
1000
0000
0001
0100
0020
0000
1030
0000
,
0002
0013
2000
3010
,
0001
0100
0010
0100
0001
0000
1001
0000
,
2000
3010
0002
0013
,
1000
0100
0010
0100
1000
0000
1001
0000
,
0001
0100
0010
0000
0010
1000
0001
0000
,
1000
0100
0010
0000
0010
0001
1000
0000
,
2002
0000
0000
3003
,
0002
0000
0000
0000
0103
0001
0200
0000
0000
0000
0310
0100
,
0020
2030
3001
0000
,
0002
0000
0000
0000
0013
0001
0020
0000
0000
0000
0130
0010
,
0200
0000
0000
2300
0000
0000
3001
0000
0100
0010
0000
0000
,
2000
0000
0000
0000
3100
1000
0200
0000
0000
0000
0310
0100
,
0020
0032
1003
0000
,
2000
0000
0000
0000
3010
1000
0020
0000
0000
0000
0130
0010
,
0200
0302
1003
0000
,
0000
0000
0000
0000
,
2000
0000
0010
0000
3001
1000
0100
0000
,
0010
0011
1001
1010
,
0210
0000
0001
0000
0310
0100
0010
0000
,
1000
0110
1001
0001
,
1000
1010
0101
0001
,
1000
1100
0011
0001
,
0200
0000
1000
0000
0310
0000
1000
0001
,
2000
0000
3100
0010
0002
0000
1003
0000
,
0002
0000
0010
0000
1003
0001
0100
0000
,
0010
1010
1001
0011
,
0210
0000
1000
0000
0310
0100
0010
0000
,
0001
0110
1001
1000
,
0001
0011
1100
1000
,
0001
0101
1010
1000
,
0200
0000
0001
0000
0310
0000
0001
1000
,
0001
0100
0001
0100
0010
1000
0010
1000
,
0200
0000
0001
0000
0310
0100
0010
0000
,
1001
0000
0000
0000
,
0002
0000
0010
0000
1003
0001
1000
0000
,
0010
0000
0100
0010
0100
0000
0001
0000
,
2000
0000
0010
0000
3001
1000
0001
0000
,
0011
1100
0011
1001
,
2000
0010
3002
0010
,
0203
0000
0020
0330
,
1000
1001
0001
1001
,
1010
0110
1010
0101
,
0001
1001
1000
1001
,
0011
0110
0011
1100
,
1000
0001
1100
0011
,
0001
1000
0101
1010
,
1100
0010
0101
0010
,
1000
0001
1000
0001
0010
0100
0010
0000
,
0220
0000
0000
0330
,
2002
0000
0000
3003
,
0220
0330
2002
3003
,
0220
0330
2002
3003
,
2000
0010
0001
0010
,
3002
0010
1000
0010
,
1003
0100
1000
0000
0001
0100
0001
0000
,
0010
0100
1000
0000
0010
0100
0001
0000
,
0010
0100
0010
0100
2000
0000
3002
0000
,
0203
0000
0000
0310
,
1001
0000
0000
0000
;

//---------------dance-single - Daff_4K----------------
#NOTES:
     dance-single:
     Daff_4K:
     Hard:
     13:
     0.578451,0.663849,0.390708,0.404916,0.330326,570.000000,515.000000,55.000000,57.000000,0.000000,0.000000,0.578451,0.663849,0.390708,0.404916,0.330326,570.000000,515.000000,55.000000,57.000000,0.000000,0.000000:
0000
0000
0000
0000
,
0000
0000
0000
0000
,
0000
0000
0000
0000
,
0000
0000
0000
0000
,
1100
0101
1100
1001
,
0101
1100
0101
1001
,
0220
0000
0000
0330
,
1000
0010
1000
0000
0001
0010
0001
0000
,
1000
0001
0100
0010
2000
0000
3001
0000
,
1200
0000
0010
0000
0301
0100
1000
0001
,
0100
0000
0000
0100
0010
0000
0000
0010
1000
0000
0000
1000
0001
0000
0000
0001
,
0020
0000
1030
0010
0100
0010
0001
1000
,
0010
0000
0000
0010
0100
0000
0000
0100
0001
0000
0000
0001
1000
0000
0000
1000
,
0002
0000
0013
0000
1001
0000
1000
0001
,
0200
0000
0310
0000
1001
0000
1000
0100
,
0002
0000
0103
0010
0100
1000
0001
1000
,
0010
0100
0010
1000
0100
0010
0001
0000
,
0201
0000
0010
0000
1300
0100
0001
1000
,
0100
0000
0000
0100
0010
0000
0000
0010
0001
0000
0000
0001
1000
0000
0000
1000
,
0020
0000
0031
0010
0100
0010
1000
0001
,
0010
0000
0000
0010
0100
0000
0000
0100
1000
0000
0000
1000
0001
0000
0000
0001
,
2000
0000
3010
0000
1001
0000
0001
1000
,
0200
0000
0310
0000
1001
0000
0001
0100
,
2000
0000
3100
0010
0200
0000
0301
1000
,
0001
0010
0100
1000
0010
0100
0001
0000
,
0220
0000
0000
0000
,
0000
0000
0330
1001
,
1000
0100
0001
0100
0010
0100
0001
0100
,
1000
0001
0100
1000
0100
0010
0100
1000
,
0100
0001
0010
0001
1000
0010
1000
0001
,
0100
1000
0100
0001
0020
0000
0130
0000
,
1001
0000
0000
1000
0010
0000
0000
0010
0001
0000
0000
0001
0010
0000
0000
0010
,
0100
0001
1000
0100
0010
0000
0110
0000
,
1001
0000
0000
0001
0010
0000
0000
0010
1000
0000
0000
1000
0010
0000
0000
0010
,
0100
1000
0001
0100
0010
0000
1001
0000
,
0001
0100
0010
0000
1000
0100
0010
0000
,
0001
1000
0010
1000
0001
0010
0001
1000
,
2002
0000
0000
3003
,
0002
0000
0000
0000
0103
0010
2000
0000
0000
0000
3100
0010
,
0001
0000
1000
0001
0000
0100
0010
0100
0002
0000
0000
0000
,
0023
0000
0000
0000
0130
1000
0002
0000
0000
0000
0103
0010
,
1000
0100
0010
0100
1000
0001
0200
0000
0000
0310
0000
0000
,
2000
0000
0000
0000
3100
0010
0002
0000
0000
0000
0103
0010
,
1000
0000
0001
1000
0000
0100
0010
0100
2000
0000
0000
0000
,
3020
0000
0000
0000
0130
0001
2000
0000
0000
0000
3100
0010
,
0001
0100
0010
0100
0001
0000
2002
0000
0000
3003
0000
0000
,
0020
0100
0100
0130
,
1002
0000
0100
0000
0013
1000
0010
0001
,
0100
0000
0000
0100
1000
0000
0000
1000
0100
0000
0000
0100
0001
0000
0000
0001
,
2000
0000
3100
0010
0001
0100
1000
0100
,
0001
0000
0000
0001
1000
0000
0000
1000
0100
0000
0000
0100
0010
0000
0001
0000
,
0201
0000
1000
0000
0301
0000
1000
0001
,
0021
0000
1000
0000
0031
0000
0100
0010
,
2000
0000
3100
0010
0001
0100
0010
1000
,
0100
0001
0100
1000
0010
0100
0001
0000
,
2001
0000
0100
0000
3010
0001
0010
1000
,
0100
0000
0000
0100
0001
0000
0000
0001
0100
0000
0000
0100
1000
0000
0000
1000
,
0002
0000
0103
0010
1000
0100
0001
0100
,
1000
0000
0000
1000
0001
0000
0000
0001
0100
0000
0000
0100
0010
0000
1000
0000
,
1200
0000
0001
0000
1300
0000
0001
1000
,
1020
0000
0001
0000
1030
0000
0100
0010
,
0002
0000
0103
0010
1000
0100
0010
0001
,
0100
1000
0100
0001
0010
0100
1000
0001
,
0200
0000
1000
0000
0310
1000
0001
0000
,
1001
0000
0000
0000
,
2100
0000
3001
0000
1000
0010
0100
0000
,
0102
0000
1003
0000
0001
0010
0100
0000
,
2100
3010
0102
0013
,
0110
1001
0110
1001
,
1000
0000
0010
1000
0000
0001
0010
0000
0001
0000
0100
0010
0000
0100
0010
0000
,
2000
3200
0320
0031
,
1001
0000
0000
1000
0010
0000
0000
0100
0010
0000
1000
0000
0010
0000
0100
0000
,
0101
1010
0101
1010
,
1001
0000
0000
0001
0010
0000
0000
0100
0010
0000
0001
0000
0010
0000
0100
0000
,
1100
0011
1100
0011
,
1001
0000
0000
1000
0010
0000
0000
0100
0010
0000
0000
1000
0001
0000
1000
0000
,
1001
0000
0000
0001
0010
0000
0000
0100
0010
0000
0000
0001
1000
0000
0010
0000
,
1010
0101
0011
1100
,
1000
0000
0001
0000
0100
0000
0010
0000
1000
0001
1000
0001
1000
0001
1000
0001
,
0200
0000
0000
0000
,
0320
0000
0000
0000
,
2030
0000
3002
0000
,
0023
0000
0130
1001
,
1000
0010
1000
0010
0001
0010
0001
0010
,
1000
0100
1000
0100
0001
0100
0001
0100
,
1000
1000
0001
0001
0100
0010
0100
0010
,
1000
0100
0001
1000
0010
0001
1000
0010
,
0001
0000
1000
0000
0100
0000
0001
0000
0010
0100
0010
0100
1000
0001
1000
0001
,
0200
0000
0000
0000
0000
0000
0000
0000
0000
0000
0000
0000
0310
1000
0001
1000
,
0001
0000
0000
0000
;

//---------------dance-single - Daff_4K----------------
#NOTES:
     dance-single:
     Daff_4K:
     Challenge:
     16:
     0.652533,0.916744,0.618029,0.355189,0.490161,643.000000,556.000000,87.000000,50.000000,464.000000,0.000000,0.652533,0.916744,0.618029,0.355189,0.490161,643.000000,556.000000,87.000000,50.000000,464.000000,0.000000:
// measure 0
0000
0000
0000
0000
,  // measure 1
0000
0000
0000
0000
,  // measure 2
0000
0000
0000
0000
,  // measure 3
0000
0000
0000
0000
,  // measure 4
1100
MMMM
0011
MMMM
1100
0000
1000
0001
,  // measure 5
0101
MMMM
1010
MMMM
0101
MMMM
0001
1000
,  // measure 6
2002
0000
0000
3003
,  // measure 7
0001
0100
1000
0100
0001
0010
1000
0010
,  // measure 8
0001
0000
1000
0001
1000
0000
0010
0000
0100
0000
0000
0000
MMMM
0000
0000
0000
,  // measure 9
0102
0000
0000
0000
1003
0000
0000
0001
0010
0000
0100
0000
1000
0000
0010
0000
,  // measure 10
0011
MMMM
1010
MMMM
1100
MMMM
0101
MMMM
,  // measure 11
1200
0000
0000
0000
0301
0000
0100
0010
0100
0000
1000
0000
0001
0000
0100
0000
,  // measure 12
0101
MMMM
0110
MMMM
1010
MMMM
1001
MMMM
,  // measure 13
0002
0010
0000
0000
2003
0010
0000
0000
3002
0100
0000
0000
0103
0000
0010
0000
,  // measure 14
2000
0100
0000
0000
3002
0100
0000
0000
2003
0010
0000
0000
3010
0000
0100
0000
,  // measure 15
2002
0000
0000
0000
3003
0000
0001
1000
0001
0000
0010
0100
0000
0010
0100
0000
,  // measure 16
1000
0010
1000
0010
0100
0001
0100
0001
1000
0000
0000
0000
MMMM
0000
0000
0000
,  // measure 17
2100
0000
0000
0000
3001
0000
0000
1000
0010
0000
0100
0000
0001
0000
0010
0000
,  // measure 18
1010
MMMM
0011
MMMM
0101
MMMM
1100
MMMM
,  // measure 19
0201
0000
0000
0000
1300
0000
0100
0010
0100
0000
0001
0000
1000
0000
0100
0000
,  // measure 20
1100
MMMM
0110
MMMM
0011
MMMM
1001
MMMM
,  // measure 21
2000
0010
0000
0000
3002
0010
0000
0000
2003
0100
0000
0000
3100
0000
0010
0000
,  // measure 22
0002
0100
0000
0000
2003
0100
0000
0000
3002
0010
0000
0000
0013
0000
0100
0000
,  // measure 23
1000
0010
0001
0010
1000
0100
0001
0100
,  // measure 24
1000
0000
0001
1000
0001
0010
0100
0010
0100
1000
0010
0100
0001
0010
0100
2000
,  // measure 25
0002
0000
0000
0000
,  // measure 26
0000
0000
3003
MMMM
,  // measure 27
0001
0000
1000
0010
1000
0000
0001
0010
0001
0000
0100
0000
0010
0000
1000
0000
,  // measure 28
0001
0000
0010
0100
0010
0000
0001
1000
0001
0000
0100
0010
1000
0000
0001
0000
,  // measure 29
1000
0000
0001
0010
0001
0000
1000
0010
1000
0000
0100
0000
0010
0000
0001
0000
,  // measure 30
1000
0000
0010
0100
0010
0100
0001
1000
0001
0000
0000
0000
MMMM
0000
0000
0000
,  // measure 31
1000
0100
0001
0100
1000
0010
0001
0010
,  // measure 32
0100
0000
0001
1000
0001
0000
0010
0100
0010
0000
0000
0000
MMMM
0000
0000
0000
,  // measure 33
0001
0100
1000
0100
0001
0010
1000
0010
,  // measure 34
0100
0000
1000
0001
1000
0000
0010
0100
0010
0000
0000
0000
MMMM
0000
0000
0000
,  // measure 35
1000
0100
1000
0000
0001
0000
1000
0000
0001
0100
0001
0000
1000
0000
0001
0000
,  // measure 36
0010
0100
0010
0000
0001
0000
1000
0000
0010
0100
0010
0000
1000
0001
1000
0002
,  // measure 37
2000
0000
0000
3003
,  // measure 38
MMMM
MMMM
MMMM
MMMM
,  // measure 39
MMMM
MMMM
MMMM
MMMM
,  // measure 40
MMMM
MMMM
MMMM
MMMM
,  // measure 41
MMMM
MMMM
MMMM
MMMM
,  // measure 42
MMMM
MMMM
MMMM
MMMM
,  // measure 43
MMMM
MMMM
MMMM
MMMM
,  // measure 44
MMMM
MMMM
MMMM
MMMM
,  // measure 45
MMMM
MMMM
MMMM
MMMM
,  // measure 46
1000
0100
1000
0100
0010
0001
0010
0001
0100
0010
0100
0010
1000
0001
1000
0001
,  // measure 47
0020
0000
0000
0000
1030
0000
0010
0100
0010
0000
0001
0000
1000
0000
0001
0000
,  // measure 48
0101
MMMM
1010
MMMM
0011
MMMM
1100
MMMM
,  // measure 49
1020
0000
0000
0000
0031
0000
0010
0100
0010
0000
1000
0000
0001
0000
0010
0000
,  // measure 50
1010
MMMM
0011
MMMM
0101
MMMM
1001
MMMM
,  // measure 51
2000
0010
0000
0000
3002
0100
0000
0000
0023
0100
0000
0000
0031
0000
1000
0000
,  // measure 52
0020
0100
0000
0000
2030
0100
0000
0000
3002
0010
0000
0000
0103
0000
0010
0000
,  // measure 53
2001
0000
0000
0000
3100
0000
0010
0000
0001
0000
1000
0001
0000
1000
0010
0000
,  // measure 54
0100
0010
0100
0001
1000
0001
0010
0100
1000
0000
0000
0000
MMMM
0000
0000
0000
,  // measure 55
1020
0000
0000
0000
0031
0000
0010
0100
0010
0000
1000
0000
0001
0000
1000
0000
,  // measure 56
1100
MMMM
0011
MMMM
1010
MMMM
0101
MMMM
,  // measure 57
0021
0000
0000
0000
1030
0000
0010
0100
0010
0000
0001
0000
1000
0000
0010
0000
,  // measure 58
0011
MMMM
1010
MMMM
1100
MMMM
1001
MMMM
,  // measure 59
0002
0010
0000
0000
2003
0100
0000
0000
3020
0100
0000
0000
1030
0000
0001
0000
,  // measure 60
0020
0100
0000
0000
0032
0100
0000
0000
2003
0010
0000
0000
3100
0000
0010
0000
,  // measure 61
0001
0000
0100
0000
1000
0000
0100
0000
0001
0000
1000
0001
0000
1000
0100
0000
,  // measure 62
0010
0000
0001
0100
0001
0100
0010
1000
0010
1000
0100
1000
0100
0010
0001
0010
,  // measure 63
0002
0000
0000
0000
1003
0000
0010
0100
0010
0000
0001
0000
0010
0000
1000
0000
,  // measure 64
1001
MMMM
MMMM
MMMM
,  // measure 65
1002
0000
0000
0000
0013
0000
0100
0010
0100
0000
1000
0001
0000
1000
0001
0000
,  // measure 66
0200
0000
0310
1000
0100
0010
0001
1000
,  // measure 67
1020
0000
0031
0010
1000
0100
0001
0100
,  // measure 68
0110
MMMM
1001
MMMM
0110
MMMM
1001
MMMM
,  // measure 69
1000
0000
0010
1000
0000
0010
0100
0000
0001
0000
0010
0001
0000
0010
0100
0000
,  // measure 70
1000
0000
0001
1000
0001
0100
0010
0100
0010
1000
0100
0010
0001
1000
0001
0000
,  // measure 71
0101
MMMM
1100
MMMM
0101
MMMM
0011
MMMM
,  // measure 72
1100
MMMM
0101
MMMM
1100
MMMM
1010
MMMM
,  // measure 73
0101
MMMM
0011
MMMM
1100
MMMM
1010
MMMM
,  // measure 74
0110
MMMM
1001
MMMM
0110
MMMM
1001
MMMM
,  // measure 75
1100
MMMM
0101
MMMM
0011
MMMM
1010
MMMM
,  // measure 76
0101
MMMM
1100
MMMM
1010
MMMM
0011
MMMM
,  // measure 77
0110
MMMM
1001
MMMM
0110
MMMM
1001
MMMM
,  // measure 78
1000
0001
1000
0001
0100
0010
0100
0010
1000
0100
1000
0100
0010
0001
0010
0002
,  // measure 79
2000
0000
3003
MMMM
,  // measure 80
0220
0000
0330
MMMM
,  // measure 81
1001
MMMM
0110
MMMM
,  // measure 82
1001
0000
0000
0000
MMMM
0000
0000
0000
1000
0001
1000
0001
1000
0001
1000
0001
,  // measure 83
1000
0000
0010
0100
0010
0000
1000
0001
1000
0000
0100
0010
0001
0000
1000
0000
,  // measure 84
0001
0000
0010
0100
0010
0000
0001
1000
0001
0000
0100
0010
1000
0000
0001
0000
,  // measure 85
0010
0000
0010
0000
0100
0000
0100
0000
1000
0000
0001
0000
0100
0010
0100
0010
,  // measure 86
1000
0100
0010
0100
1000
0000
0001
0100
0010
0100
0001
0000
1000
0010
0100
0010
,  // measure 87
1000
0000
0001
0010
0100
0010
0001
0000
1000
0010
0100
0001
0010
0100
1000
0001
,  // measure 88
0200
0000
0000
0000
0000
0000
0000
0000
0000
0000
0000
0000
0310
1000
0100
0010
,  // measure 89
0001
0000
0000
0000
;
