#TITLE:Somebody Like Me;
#SUBTITLE:;
#ARTIST:good-cool feat. Mickin';
#TITLETRANSLIT:;
#SUBTITLETRANSLIT:;
#ARTISTTRANSLIT:;
#GENRE:;
#CREDIT:BadWolf;
#BANNER:Somebody Like Me.png;
#BACKGROUND:Somebody Like Me-bg.png;
#LYRICSPATH:;
#CDTITLE:cdtitle.png;
#MUSIC:Somebody Like Me.ogg;
#OFFSET:-0.060000;
#SAMPLESTART:60.729530;
#SAMPLELENGTH:16.080002;
#SELECTABLE:YES;
#BPMS:0.000000=124.999992
;
#STOPS:
;
#BGCHANGES:;
#KEYSOUNDS:;
#ATTACKS:;

//---------------dance-single - ----------------
#NOTES:
     dance-single:
     :
     Hard:
     11:
     0.428164,0.414990,0.220944,0.028819,0.019212,312.000000,289.000000,23.000000,3.000000,0.000000,0.000000,0.428164,0.414990,0.220944,0.028819,0.019212,312.000000,289.000000,23.000000,3.000000,0.000000,0.000000:
0000
0000
0000
0000
,
0000
0000
0000
0000
,
0000
0000
0000
0000
,
0000
0000
0000
0000
,
0001
0100
0010
0000
0010
1000
0001
0000
,
1000
0100
0010
0000
0010
0001
1000
0000
,
0010
0100
1000
0000
1000
0100
0001
2000
,
0000
0000
0000
0000
3001
1000
1001
0000
,
0001
0010
1000
0000
1000
0010
0100
1000
,
0010
0100
0010
0001
0010
1000
0100
0010
,
0001
0000
1000
1000
0100
0001
0100
0000
,
0010
0010
0001
1000
0010
0100
0001
1000
,
1001
0000
0010
0100
0010
1000
0010
0000
,
1001
0000
0100
0001
0100
1000
0100
0001
,
1000
0000
0001
0001
0100
1000
0100
0000
,
0010
0010
1000
0001
0010
0100
1000
0001
,
1000
0000
0101
0000
0010
1000
0010
0100
,
0001
0000
1100
0000
0010
0001
0010
0100
,
1000
0000
0011
0000
1000
0100
0010
0001
,
0100
0000
1010
0000
0001
0100
0010
1000
,
0001
0010
0100
0000
0100
0010
0001
0000
,
1000
0010
0001
0010
0100
0010
1000
0001
,
1000
0100
0010
0000
0010
0100
1000
0000
,
0001
0010
1000
0010
0001
0010
0100
1000
,
0001
0000
0100
0010
0001
0010
0100
0000
,
1010
0000
0000
0100
0000
0000
0011
0000
0000
0000
1000
0000
0001
0000
0000
0000
,
1000
0000
0010
0100
1000
0100
0010
0000
,
0101
0000
0000
0010
0000
0000
1100
0000
0000
0000
0001
0000
1000
0000
0001
0000
,
0100
0010
1000
0100
0010
0001
1000
0000
,
0011
0000
0000
0100
0000
0000
1010
0000
0000
0000
0001
0000
1000
0000
0010
0000
,
0100
0000
0000
0001
0000
0000
1000
0000
0000
0000
0100
0000
0010
0000
0001
0000
,
0000
0001
0100
1000
0000
1000
0100
0001
,
1000
0000
0110
0000
0001
0100
1000
0100
,
0010
0000
1001
0000
0100
0001
0010
0001
,
0100
0000
1001
0000
0010
1000
0100
1000
,
0001
0000
0110
0000
1000
0100
0001
0100
,
1000
0000
0101
0000
0010
1000
0001
0100
,
0001
0000
1100
0000
0010
0001
1000
0100
,
1000
0000
0110
0000
0001
0100
1000
0100
,
0001
0010
0100
1000
0001
1000
0100
0010
,
0001
0000
2010
0000
0100
0000
3001
0010
,
1000
0010
0100
0010
0001
0010
0100
1000
,
1001
0000
0100
0100
0010
1000
0001
0010
,
0100
0100
1000
0010
0100
1000
0100
0001
,
1000
0100
0001
0100
0010
0001
1000
1000
,
0001
0100
1000
0100
0010
1000
0001
0001
,
2000
3001
0010
0010
0100
0001
0100
1000
,
0010
0010
0100
1000
0100
0001
1000
0001
,
1001
0000
0000
0000
;

//---------------dance-single - ----------------
#NOTES:
     dance-single:
     :
     Medium:
     8:
     0.329357,0.345825,0.038425,0.057637,0.004803,240.000000,236.000000,4.000000,6.000000,0.000000,0.000000,0.329357,0.345825,0.038425,0.057637,0.004803,240.000000,236.000000,4.000000,6.000000,0.000000,0.000000:
0000
0000
0000
0000
,
0000
0000
0000
0000
,
0000
0000
0000
0000
,
0000
0000
0000
0000
,
1000
0000
0100
0000
0010
0001
1000
0000
,
0010
0000
0100
0000
0001
1000
0001
0000
,
0010
0000
0100
0000
1000
0001
1000
0002
,
0000
0000
0000
1003
,
0010
0000
0110
0000
0100
0001
1000
0000
,
0001
0010
0100
0000
0100
1000
0001
0000
,
2000
3000
0010
0100
0010
0100
0001
0000
,
0010
0100
1000
0100
0010
0001
1000
0000
,
0001
0000
0100
0010
0100
0000
0001
0000
,
1000
0000
0100
0010
0100
0010
0001
0000
,
2000
3000
0001
0100
0010
0100
0001
0000
,
1000
0100
0010
0000
0001
1000
0001
0000
,
0100
0010
1000
0001
,
0010
0000
0100
0000
1000
0001
1000
0000
,
0010
0100
0001
1000
,
0100
0000
0010
0000
0001
1000
0001
0000
,
0100
0010
0100
0000
0001
0100
0001
0000
,
1000
0100
1000
0000
0010
0100
0010
0000
,
1000
0001
0100
0000
0010
1000
0001
0000
,
0010
0100
1000
0000
0001
1000
0001
1000
,
0001
0010
1000
0010
,
0001
1000
1001
0000
,
1000
0010
0001
0010
,
1000
0001
1001
1000
,
0010
0100
0010
0100
0001
1000
0010
0000
,
1000
0000
0000
0100
0000
0000
0010
0000
0000
0000
0001
0000
1000
0000
0001
0000
,
0000
0000
0100
0000
0010
1000
0010
2000
,
0000
0000
0000
3001
0000
1000
0001
0000
,
1000
0000
0100
0000
0010
0001
1000
0000
,
0001
0000
0100
0000
0010
1000
0001
0000
,
0010
0000
0100
0000
1000
0001
1000
0000
,
0010
0000
0100
0000
0010
1000
0010
1000
,
0001
0000
0010
0000
0100
1000
0001
0000
,
1000
0000
0010
0000
0100
0001
1000
0000
,
0100
0000
0010
0000
0001
1000
0001
0000
,
0100
0010
0100
0010
1000
0100
0010
0001
,
0100
0000
0110
0000
0010
1000
0001
0000
,
1000
0100
0010
0000
0010
0001
1000
0000
,
0002
0003
0100
0010
0100
0010
1000
0000
,
0100
0010
0001
0010
0100
1000
0001
0000
,
1000
0000
0010
0100
0010
0000
1000
0000
,
0001
0000
0010
0100
0010
0100
1000
0000
,
0002
0003
1000
0010
0100
0010
1000
0000
,
0001
0010
0100
0000
1000
0001
1000
0001
,
1000
0000
0000
0000
;

//---------------dance-single - ----------------
#NOTES:
     dance-single:
     :
     Easy:
     5:
     0.215454,0.230550,0.019212,0.000000,0.000000,157.000000,155.000000,2.000000,0.000000,0.000000,0.000000,0.215454,0.230550,0.019212,0.000000,0.000000,157.000000,155.000000,2.000000,0.000000,0.000000,0.000000:
0000
0000
0000
0000
,
0000
0000
0000
0000
,
0000
0000
0000
0000
,
0000
0000
0000
0000
,
0100
0100
0001
1000
,
0100
0100
1000
0001
,
0010
0010
0100
1000
,
0000
0000
0001
1001
,
1000
0100
0010
0100
,
1000
0001
1000
0001
,
0100
0100
0010
0010
,
1000
0001
0010
0100
,
1000
0001
0100
0001
,
1000
0001
1000
0001
,
0010
0010
0100
0100
,
1000
0010
0100
0001
,
1000
0000
1000
0000
,
0001
0000
0001
0000
,
0100
0000
0100
0000
,
0010
0000
0010
1000
,
0001
0000
0001
0000
,
1000
0000
1000
0000
,
0100
0000
0100
0000
,
0010
0000
0010
0001
,
1000
0010
1000
0010
,
0100
0001
0100
0000
,
0001
0010
0001
0010
,
0100
1000
0100
0000
,
1000
0001
1000
0001
,
0100
0010
0100
0000
,
0001
0010
0100
1000
,
0000
0000
0000
1001
,
1000
0010
0100
0010
,
1000
0100
0010
0001
,
1000
0010
0100
0001
,
1000
0100
0010
0100
,
1000
0001
0010
0100
,
1000
0010
0100
0010
,
1000
0001
0010
0100
,
0010
0001
0100
0010
,
1000
0100
0010
0100
,
1000
0001
1000
0001
,
0100
0100
0010
0010
,
1000
0001
0010
0100
,
1000
0001
0100
0001
,
1000
0001
1000
0001
,
0010
0010
0100
0100
,
1000
0010
0100
0001
,
1000
0000
0000
0000
;

//---------------dance-single - ----------------
#NOTES:
     dance-single:
     :
     Beginner:
     2:
     0.082339,0.115275,0.000000,0.000000,0.000000,60.000000,60.000000,0.000000,0.000000,0.000000,0.000000,0.082339,0.115275,0.000000,0.000000,0.000000,60.000000,60.000000,0.000000,0.000000,0.000000,0.000000:
// measure 0
0000
0000
0000
0000
,  // measure 1
0000
0000
0000
0000
,  // measure 2
0000
0000
0000
0000
,  // measure 3
0000
0000
0000
0000
,  // measure 4
1000
0000
0000
0000
,  // measure 5
1000
0000
0000
0000
,  // measure 6
0001
0000
0000
0000
,  // measure 7
0000
0000
0000
0000
,  // measure 8
1000
0000
1000
0000
,  // measure 9
1000
0000
0000
0000
,  // measure 10
0001
0000
0001
0000
,  // measure 11
0001
0000
0000
0000
,  // measure 12
0100
0000
0100
0000
,  // measure 13
0100
0000
0000
0000
,  // measure 14
0010
0000
0010
0000
,  // measure 15
0010
0000
0000
0000
,  // measure 16
1000
0000
0000
0000
,  // measure 17
0001
0000
0000
0000
,  // measure 18
0100
0000
0000
0000
,  // measure 19
0010
0000
0000
0000
,  // measure 20
1000
0000
0000
0000
,  // measure 21
0001
0000
0000
0000
,  // measure 22
0010
0000
0000
0000
,  // measure 23
0100
0000
0000
0000
,  // measure 24
1000
0000
0000
0000
,  // measure 25
0100
0000
0000
0000
,  // measure 26
0010
0000
0000
0000
,  // measure 27
0001
0000
0000
0000
,  // measure 28
1000
0000
0000
0000
,  // measure 29
0010
0000
0000
0000
,  // measure 30
0100
0000
0000
0000
,  // measure 31
0001
0000
0000
0000
,  // measure 32
1000
0000
1000
0000
,  // measure 33
0001
0000
0001
0000
,  // measure 34
0100
0000
0100
0000
,  // measure 35
0010
0000
0010
0000
,  // measure 36
1000
0000
1000
0000
,  // measure 37
0001
0000
0001
0000
,  // measure 38
0010
0000
0010
0000
,  // measure 39
0100
0000
0100
0000
,  // measure 40
1000
0000
1000
0000
,  // measure 41
1000
0000
0000
0000
,  // measure 42
0001
0000
0001
0000
,  // measure 43
0001
0000
0000
0000
,  // measure 44
0100
0000
0100
0000
,  // measure 45
0100
0000
0000
0000
,  // measure 46
0010
0000
0010
0000
,  // measure 47
0010
0000
0000
0000
,  // measure 48
1000
0000
0000
0000
;
