#TITLE:Skybreaker;
#SUBTITLE:;
#ARTIST:Razihel;
#TITLETRANSLIT:;
#SUBTITLETRANSLIT:;
#ARTISTTRANSLIT:;
#GENRE:;
#CREDIT:D0omsday;
#MUSIC:Skybreaker.ogg;
#BANNER:;
#BACKGROUND:;
#CDTITLE:;
#SAMPLESTART:44.570;
#SAMPLELENGTH:13.714;
#SELECTABLE:YES;
#OFFSET:0.002;
#BPMS:0.000=140.000;
#STOPS:;
#BGCHANGES:;
#FGCHANGES:;

//--------------- dance-single - D0omsday ----------------
#NOTES:
     dance-single:
     D0omsday:
     Hard:
     14:
     0,0,0,0,0:
0000
0000
0000
0000
,
0000
0000
0000
0000
,
2000
0000
0000
0000
3010
0000
0200
0000
0000
0000
0301
1000
0002
0000
0000
0000
,
0000
0000
0003
0010
0000
0000
0001
0000
0200
0000
0000
0000
0310
0000
0000
0000
,
2000
0000
3000
0200
0000
0300
0020
0000
0030
0002
0000
0003
2000
0000
0000
0000
,
0000
0000
3000
0010
0000
0000
1000
0000
0002
0000
0000
0000
0103
0000
0000
0000
,
0020
0000
0000
0000
1030
0001
2000
0000
0000
0000
3001
0010
0002
0000
0000
0000
,
0000
0000
0000
1003
0000
0000
0010
0000
0200
0000
0000
0000
0301
0000
0000
0000
,
0020
0000
0030
0002
0000
0003
2000
0000
3000
0020
0000
0030
0200
0000
0000
0000
,
0000
0000
0300
0001
0000
0000
1000
0000
0200
0000
0000
0000
0310
0000
0000
0000
,
0001
0000
1000
0000
0010
0000
0200
0000
0000
0000
0310
1000
0020
0000
0000
0000
,
0000
0000
0000
1030
0000
0000
0001
0000
0020
0000
0000
0000
0130
0000
0000
0000
,
1000
0000
0100
0000
0010
0000
0001
0000
0000
1000
0000
0000
0020
0000
0000
0000
,
0000
0000
0030
0100
0000
0000
0010
0000
2000
0000
0000
0000
3001
0000
0000
0000
,
0100
0000
0001
0000
0010
0000
0200
0000
0000
0000
1300
0001
2000
0000
0000
0000
,
0000
0000
3000
0010
0000
0000
1000
0000
0200
0000
0000
0000
0310
0000
0000
0000
,
0220
0000
0330
0022
0000
0033
2002
0000
3003
0202
0000
0303
0120
0000
0000
0000
,
0000
0000
0030
1000
0000
0000
0001
0000
0020
0000
0000
0000
0130
0000
0010
0000
,
0001
1000
0010
1000
,
0100
0010
0001
0100
,
0001
1000
0010
1000
,
0001
0010
0100
1000
,
0001
0010
0001
0010
0100
1000
0100
1000
,
0001
0100
0001
0100
0010
1000
0010
1000
,
0001
0010
0001
0000
1000
0010
1000
0000
0001
0100
0001
0000
1000
0100
0010
0001
,
1000
0000
0000
0000
0000
0000
0000
0000
0100
0010
0100
0000
1000
0001
1000
0001
,
2000
0000
0000
0000
3020
0000
0000
0000
1030
0000
0100
0000
0010
0000
0001
1000
,
0000
0000
0010
0100
0010
0100
0000
0000
0010
0000
1000
0000
0001
0000
0010
0000
,
0200
0000
0000
0000
0320
0000
0000
0000
0031
0000
0010
0000
0100
0000
1000
0010
,
0000
0000
1000
0001
1000
0001
0000
0000
0100
0000
0010
0000
2000
3000
2000
3000
,
0002
0000
0000
0000
0023
0000
0000
0000
0031
0000
1000
0000
0010
0000
0100
0001
,
0000
0000
1000
0100
1000
0100
0000
0000
0010
0000
0001
0000
0100
0000
0010
0000
,
0200
0000
0000
0300
0001
0000
2000
0000
0000
3000
0100
0000
0020
0000
0000
0030
,
0220
0000
0330
2200
0000
3300
2002
0000
3003
0202
0000
0303
0110
0000
0100
0000
,
0002
0000
0000
0000
0023
0000
0000
0000
0031
0000
0010
0000
0100
0000
1000
0001
,
0000
0000
0100
0001
0100
0001
0000
0000
1000
0000
0010
0000
1000
0000
0001
0000
,
0200
0000
0000
0000
0320
0000
0000
0000
1030
0000
0100
0000
0010
0000
0001
0100
,
0000
0000
0001
0010
0001
0010
0000
0000
0100
0000
1000
0000
0002
0003
0002
0003
,
0200
0000
0000
0000
0320
0000
0000
0000
1030
0000
0001
0000
0010
0000
0100
0010
,
0000
0000
0001
1000
0001
1000
0000
0000
0001
0000
0100
0000
0010
0000
1000
0000
,
0002
0000
0000
0003
0010
0100
0020
0000
0000
0030
0001
0100
0002
0000
0000
0003
,
2020
0000
3030
2002
0000
3003
0022
0000
0033
0220
0000
0330
1100
0000
1000
0000
,
0020
0000
0000
0000
0230
0302
2003
0000
3100
0000
0010
0000
0002
0003
2000
3020
,
2030
3000
0002
2003
3002
2003
3002
0000
0103
0000
0001
0000
0010
0000
0100
1000
,
0002
0000
0000
0000
0203
0302
2003
0000
3001
0000
0010
0000
0002
0003
2000
3020
,
2030
3000
0002
2003
3002
2003
3002
0000
0013
0000
0010
0000
0100
0000
0100
0000
,
2200
0000
0000
0000
0300
0000
0000
0000
3001
0000
0100
0000
0020
0030
2000
3002
,
2003
3000
0200
0320
0230
0320
0230
0000
1300
0000
0100
0010
0001
0000
0100
0010
,
2000
0000
0000
0000
3001
0000
0020
0000
0000
0030
0001
0000
0200
0000
0000
0300
,
0220
0000
0330
2020
0000
3030
2002
0000
3003
0022
0000
0033
0110
0000
0010
0001
,
2000
0000
0000
0000
3020
0230
0302
0000
1003
0000
0100
0000
0020
0030
0200
2300
,
3200
0300
2000
3002
2003
3002
2003
3000
0010
0000
1000
0000
0100
0000
0010
0001
,
0200
0000
0000
0000
0320
2030
3002
0000
0013
0000
0001
0000
2000
3000
0020
0230
,
0320
0030
2000
3002
2003
3002
2003
3000
0100
0000
0100
0000
0010
0000
0010
0000
,
0022
0000
0000
0030
0000
0000
0000
0000
1003
0000
0010
0000
0200
0300
0002
2003
,
3002
0003
0020
0230
0320
0230
0320
0000
0031
0000
0100
0010
1000
0000
0100
0010
,
0002
0000
0000
0003
0100
0010
0200
0000
0000
0300
0001
1000
0002
0000
0000
0003
,
0022
0000
0033
0202
0000
0303
0220
0000
0330
2020
0000
3030
1001
0000
0001
0000
,
0020
0000
0030
0000
;

//--------------- dance-single - D0omsday ----------------
#NOTES:
     dance-single:
     D0omsday:
     Challenge:
     16:
     0,0,0,0,0:
0000
0000
0000
0000
,
0000
0000
0000
0000
,
0002
0000
0000
0000
1003
0000
0020
0000
0000
0000
1030
0001
0020
0000
0000
0000
,
0000
0000
0030
0100
0000
0000
0100
0000
2000
0000
0000
0000
3010
0000
0000
0000
,
2000
0000
3000
0200
0000
0300
0020
0000
0030
0002
0000
0003
0200
0000
0000
0000
,
0000
0000
0300
0010
0000
0000
0010
0000
2000
0000
0000
0000
3001
0000
0000
0000
,
0020
0000
0000
0000
0031
1000
0020
0000
0000
0000
0130
0001
2000
0000
0000
0000
,
0000
0000
3000
0100
0000
0000
0100
0000
0020
0000
0000
0000
0031
0000
0000
0000
,
2000
0000
0000
3020
0000
0000
0230
0000
0000
0302
0000
0000
0023
0000
0000
0000
,
0000
0000
0030
0100
0000
0000
0100
0000
2000
0000
0000
0000
3010
0000
0000
0000
,
1010
1000
0001
0011
0000
0010
0210
0000
,
0000
0000
0300
1000
0000
0000
1000
0000
0002
0000
0000
0000
0103
0000
0000
0000
,
1010
0000
0010
0000
1000
0000
1001
0000
0000
0001
0000
0000
0201
0000
0000
0000
,
0000
0000
0000
0000
0000
0000
0300
0000
0000
0001
0000
0000
0000
0000
0000
0000
0000
0000
0001
0000
0000
0000
0000
0000
1000
0000
0000
0000
0000
0000
0001
0000
0010
0000
0100
0000
1000
0000
0000
0000
0000
0000
0000
0000
0000
0000
0000
0000
,
1001
0000
0001
0000
0100
0000
0110
0000
0000
0000
0010
1000
0002
0000
0000
0000
,
0000
0000
0003
0010
0000
0000
0010
0000
0200
0000
0000
0000
1300
0000
0000
0000
,
2002
0000
3003
0202
0000
0303
0022
0000
0033
0220
0000
0330
2001
0000
0000
0000
,
0000
0000
0000
0000
0000
0000
3000
0000
0000
0010
0000
0000
0000
0000
0000
0000
0000
0000
0010
0000
0000
0000
0000
0000
0100
0000
0000
0000
0000
0000
0010
0000
1000
0000
0100
0000
0010
0000
0000
0000
0000
0000
0001
0000
0000
0000
0000
0000
,
0100
0001
1000
0100
,
0010
0100
1000
0001
,
0100
0010
1000
0001
,
0010
0001
1000
0010
,
1000
0100
1000
0001
0100
0010
0100
0001
,
0010
0100
1000
0010
1000
0001
0010
0001
,
1000
0000
0000
0100
0000
0000
0010
0000
0000
0001
0000
0000
1000
0000
0000
0010
0000
0000
0100
0000
0000
0001
0000
0000
0010
0000
0000
0100
0000
0000
1000
0000
0000
0010
0000
0000
1000
0000
0001
0000
1000
0000
0001
0000
1000
0000
0001
0000
,
1000
0000
0000
0000
0000
0000
0000
0000
0001
0010
0100
1000
0010
0100
0010
0100
,
0002
0000
0000
0000
0000
0000
0000
0000
0023
0000
0000
0000
0000
0000
0000
0000
0130
0000
1000
0000
0001
0000
0010
0000
0001
0100
0001
0000
0010
0000
0100
0000
,
0000
0000
0000
0000
1000
0000
0010
0000
0100
0000
0001
0000
0000
0000
0000
0000
0100
0000
0010
0000
1000
0000
0100
0000
1000
0001
1000
0000
0100
0000
0010
0000
,
0002
0000
0000
0000
0000
0000
0000
0000
2003
0000
0000
0000
0000
0000
0000
0000
3010
0000
0100
0000
0010
0000
1000
0000
0100
1000
0100
0000
0010
0000
0001
0000
,
0000
0000
0010
0100
1000
0010
0000
0000
1000
0001
0010
0100
0020
0030
0020
0030
,
0012
0000
0000
0000
0000
0000
0000
0000
0203
0000
0000
0000
0000
0000
0000
0000
0310
0000
1000
0000
0001
0000
0010
0000
0100
1000
0100
0000
1000
0000
0010
0000
,
0000
0000
0000
0000
1000
0000
0010
0000
0100
0000
0001
0000
0000
0000
0000
0000
1000
0000
0100
0000
1000
0000
0001
0000
0010
0001
0010
0000
0100
0000
1000
0000
,
0020
0000
0000
0030
1000
0000
0002
0000
0000
0003
1000
0000
0200
0000
0000
0300
,
0220
0000
0330
0022
0000
0033
0202
0000
0303
2020
0000
3030
1001
0000
0001
0000
,
0201
0000
0000
0000
0000
0000
0000
0000
0320
0000
0000
0000
0000
0000
0000
0000
1030
0000
0100
0000
1000
0000
0001
0000
0010
0100
0010
0000
0001
0000
0010
0000
,
0000
0000
0000
0000
0100
0000
1000
0000
0001
0000
0100
0000
0000
0000
0000
0000
0010
0000
1000
0000
0001
0000
1000
0000
0100
0010
0100
0000
0010
0000
0001
0000
,
2000
0000
0000
0000
0000
0000
0000
0000
3020
0000
0000
0000
0000
0000
0000
0000
0130
0000
0001
0000
0010
0000
0100
0000
1000
0001
1000
0000
0010
0000
0100
0000
,
0000
0000
0001
1000
0001
0010
0000
0000
0100
1000
0010
0100
0002
0003
0002
0003
,
2001
0000
0000
0000
0000
0000
0000
0000
3200
0000
0000
0000
0000
0000
0000
0000
0310
0000
0100
0000
1000
0000
0010
0000
0100
0001
0100
0000
0010
0000
1000
0000
,
0000
0000
0000
0000
0001
0000
0010
0000
0100
0000
1000
0000
0000
0000
0000
0000
0001
0000
0100
0000
0001
0000
1000
0000
0100
1000
0100
0000
0010
0000
0001
0000
,
2000
0000
0000
3000
0010
1000
0002
0000
0000
0003
0010
0001
0200
0000
0000
0300
,
2020
0000
3030
2200
0000
3300
0022
0000
0033
0202
0000
0303
1001
0000
1000
0000
,
1200
0000
0000
0000
0320
0032
2003
0000
3010
0100
0001
1000
0002
0023
0230
2300
,
3020
0000
2030
0000
3200
0000
2300
0000
3020
0000
0230
0000
0302
0000
0000
0000
1003
0000
0100
0000
0010
0000
0100
0000
1000
0010
1000
0000
0001
0000
0100
0000
,
0020
0000
0000
0000
2030
3200
0320
0000
0130
1000
0001
0010
0002
0203
0320
2030
,
3200
2300
3020
2030
3200
0320
0032
0000
0103
0000
0100
0000
0010
0000
0010
0000
,
2002
0000
0000
0000
0003
0000
0000
0000
3001
0100
0010
1000
0200
2300
3002
0203
,
0320
0000
0230
0000
0302
0000
0203
0000
0320
0000
2030
0000
3200
0000
0000
0000
0310
0001
0010
0000
0001
0000
1000
0000
0010
1000
0010
0000
0100
0000
0001
0000
,
0020
0000
0000
0030
0100
0000
2000
0000
0000
3000
0001
0000
0200
0000
0000
0300
,
0220
0000
0330
2020
0000
3030
2002
0000
3003
0022
0000
0033
0110
0000
0010
0001
,
2000
0000
0000
0000
3020
0230
0302
0000
0013
0001
0100
0010
2000
3200
0320
0032
,
0203
0000
0302
0000
0023
0000
0032
0000
0203
0000
0320
0000
2030
0000
0000
0000
3100
0000
0010
0000
0001
0000
1000
0000
0010
0100
0010
0000
1000
0000
0001
0000
,
0020
0000
0000
0000
0230
2300
3002
0000
0013
0100
1000
0001
2000
3020
0230
0302
,
0023
0032
0203
0302
0023
0230
2300
0000
3010
0000
0010
0000
0100
0000
0100
0000
,
2002
0000
0000
3000
0000
0000
0000
0000
0103
0010
1000
0100
0020
0032
2003
3020
,
0230
0000
0320
0000
2030
0000
3020
0000
0230
0000
0302
0000
0023
0000
0000
0000
0031
1000
0001
0000
0010
0000
0100
0000
1000
0001
1000
0000
0010
0000
0100
0000
,
0002
0000
0000
0003
0010
0001
2000
0000
0000
3000
0010
0100
0002
0000
0000
0003
,
0022
0000
0033
2002
0000
3003
2020
0000
3030
0220
0000
0330
1001
0000
0001
0000
,
0020
0000
0030
0000
;
