#TITLE:Sigmund;
#SUBTITLE:;
#ARTIST:Gram;
#TITLETRANSLIT:;
#SUBTITLETRANSLIT:;
#ARTISTTRANSLIT:;
#GENRE:REQUIEM PSY;
#CREDIT:;
#MUSIC:Sigmund.ogg;
#BANNER:Sigmund.png;
#BACKGROUND:Sigmund-bg.png;
#CDTITLE:./CDTitles/bm IIDX 21 SPADA.png;
#SAMPLESTART:40.105;
#SAMPLELENGTH:15.000;
#SELECTABLE:YES;
#OFFSET:0.697;
#BPMS:0.000=200.000;
#STOPS:;
#BGCHANGES:;
#FGCHANGES:;

//--------------- dance-single - Extraordiberry ----------------
#NOTES:
     dance-single:
     Extraordiberry:
     Beginner:
     4:
     0,0,0,0,0:
0000
0000
0000
0000
,
0000
0000
0000
0000
,
0000
0000
0000
0000
,
0000
0000
0000
0000
,
0000
0000
0000
0000
,
0000
0000
0000
0000
,
0000
0000
0000
0000
,
0000
0000
0000
0000
,
0000
0000
0000
0000
,
0000
0000
0000
0000
,
1000
0000
0000
0000
,
0000
0000
0000
0000
,
0100
0000
0000
0000
,
0000
0000
0000
0000
,
0010
0000
0000
0000
,
0000
0000
0000
0000
,
0001
0000
0000
0000
,
0000
0000
0000
0000
,
1000
0000
1000
0000
,
1000
0000
0000
0000
,
0001
0000
0001
0000
,
0001
0000
0000
0000
,
0100
0000
0100
0000
,
0100
0000
0000
0000
,
0010
0000
0010
0000
,
0010
0000
0000
0000
,
1000
0000
1000
0000
,
1000
0000
0000
0000
,
0100
0000
0100
0000
,
0100
0000
0000
0000
,
0010
0000
0010
0000
,
0010
0000
0000
0000
,
0001
0000
0001
0000
,
0001
0000
0000
0000
,
1000
0000
0000
0000
,
0100
0000
0000
0000
,
1000
0000
0000
0000
,
0001
0000
0000
0000
,
1000
0000
0000
0000
,
0010
0000
0000
0000
,
1000
0000
0000
0000
,
0001
0000
0000
0000
,
1000
0000
0000
0000
,
0001
0000
0000
0000
,
0010
0000
0000
0000
,
0001
0000
0000
0000
,
1000
0000
0000
0000
,
0001
0000
0000
0000
,
0100
0000
0000
0000
,
0001
0000
0000
0000
,
1000
0000
0000
0000
,
0000
0000
0000
0000
,
0001
0000
0000
0000
,
0000
0000
0000
0000
,
1000
0000
0000
0000
,
0000
0000
0000
0000
,
0001
0000
0000
0000
,
1000
0000
0000
0000
,
0001
0000
0000
0000
,
0100
0000
0000
0000
,
1000
0000
0000
0000
,
0100
0000
0000
0000
,
0001
0000
0000
0000
,
0100
0000
0000
0000
,
1000
0000
0000
0000
,
0100
0000
0000
0000
,
0010
0000
0000
0000
,
0100
0000
0000
0000
,
1000
0000
0000
0000
,
0001
0000
0000
0000
,
1000
0000
0000
0000
,
0100
0000
0000
0000
,
0001
0000
0000
0000
,
0100
0000
0000
0000
,
1000
0000
0000
0000
,
0010
0000
0000
0000
,
0100
0000
0000
0000
,
0001
0000
0000
0000
,
1000
0000
0000
0000
,
0010
0000
0000
0000
,
0001
0000
0000
0000
,
0010
0000
0000
0000
,
1000
0000
1000
0000
,
0001
0000
0000
0000
,
0001
0000
0001
0000
,
1000
0000
0000
0000
,
0010
0000
0010
0000
,
0100
0000
0000
0000
,
0100
0000
0100
0000
,
0010
0000
0000
0000
,
1000
0000
0100
0000
,
1000
0000
0000
0000
,
0001
0000
0010
0000
,
0001
0000
0000
0000
,
1000
0000
0010
0000
,
1000
0000
0000
0000
,
0001
0000
0100
0000
,
0001
0000
1000
0000
,
1001
0000
0000
0000
,
1001
0000
0000
0000
;

//--------------- dance-single - Extraordiberry (mod. by forced) ----------------
#NOTES:
     dance-single:
     Extraordiberry (mod. by forced):
     Easy:
     9:
     0,0,0,0,0:
0000
0000
0000
0000
,
0000
0000
0000
0000
,
0000
0000
0000
0000
,
0000
0000
0000
0000
,
0000
0000
0000
0000
,
0000
0000
0000
0000
,
0000
0000
0000
0000
,
0000
0000
0000
0000
,
0000
0000
0000
0000
,
0000
0000
0000
0000
,
2000
0000
0000
0000
,
0000
0000
0000
0000
,
3200
0000
0000
0000
,
0000
0000
0000
0000
,
0320
0000
0000
0000
,
0000
0000
0000
0000
,
0032
0000
0000
0000
,
2003
0000
0000
3000
,
0001
0001
0001
0000
,
0100
0100
0100
0000
,
0010
0010
0010
0000
,
1000
1000
1000
0000
,
0001
0010
0001
0000
,
0010
0100
0010
0000
,
0100
1000
0100
0000
,
1001
0000
1001
0000
,
1000
1000
1000
0010
,
0100
0100
0100
0001
,
1000
1000
1000
0100
,
0010
0100
0010
0000
,
0001
0001
0001
0100
,
0010
0010
0010
1000
,
0001
0001
1000
1000
,
2002
0000
0000
3003
,
1000
0100
1000
0010
,
1000
0100
0010
0001
,
0100
0001
1000
0010
,
0001
0100
0010
1000
,
0100
1000
0010
0100
,
0001
0010
0001
0100
,
0001
0000
0000
0001
0000
0000
0001
0000
,
1000
0000
0000
1000
0000
0000
1000
0000
,
0010
0100
0010
1000
,
0001
0010
0100
0010
,
0001
0100
0010
0100
,
0001
1000
0100
1000
,
1001
0001
0100
0001
,
1000
0100
1000
0010
,
1000
0000
0000
1000
0000
0000
0001
0000
,
0001
0000
0000
0001
0000
0000
1000
0000
,
0002
0000
0000
0000
,
0203
0000
0302
0000
,
2003
0000
0000
0000
,
3200
0000
2300
0000
,
3002
0000
0000
0000
,
0023
0000
0230
0000
,
2300
0000
0000
0000
,
0002
0000
0000
3003
,
1000
0100
1000
1000
,
0001
0100
0001
0001
,
0010
0100
0010
0010
,
0001
1000
0001
0001
,
0100
1000
0100
0001
,
0100
1000
0100
0001
,
1000
1000
1000
1000
,
0002
0000
0000
0003
,
1000
0100
0010
0001
,
1000
0100
0010
0110
,
0001
0100
0010
1000
,
0001
0100
0010
0110
,
1000
0100
1000
0010
,
0100
0001
0010
0110
,
0100
1000
0100
0010
,
0001
1000
1001
0000
,
0001
0100
0010
1000
,
0001
0100
0010
0110
,
1000
0100
0010
0001
,
1001
1000
1001
0001
,
0010
0010
0100
0100
,
0010
0100
0010
0100
,
2002
0000
0000
0000
,
0000
0000
0000
3003
,
1000
0100
0010
0100
,
1000
0000
0000
0000
0001
1000
0001
0000
,
0100
0001
1000
0001
,
0010
0000
0000
0000
0001
1000
0001
0000
,
0100
0010
1000
0010
,
0100
0000
0000
0000
0001
1000
0001
0000
,
0010
0010
0100
1000
,
0010
0010
0100
0001
,
1000
0100
1000
0010
,
1000
0000
0000
0000
0100
0010
0100
0000
,
1000
0001
0100
0001
,
0010
0000
0000
0000
0100
0010
0100
0000
,
1000
1000
0001
0001
,
0100
0100
0010
0010
,
1000
0000
0001
0000
1000
0001
1000
0000
,
0100
0000
0010
0000
0100
0010
0100
0000
,
2000
0000
0000
0000
,
3001
0000
0000
0000
;

//--------------- dance-single - Extraordiberry (mod. by forced) ----------------
#NOTES:
     dance-single:
     Extraordiberry (mod. by forced):
     Medium:
     13:
     0,0,0,0,0:
0000
0000
0000
0000
,
0000
0000
0000
0000
,
0000
0000
0000
0000
,
0000
0000
0000
0000
,
0000
0000
0000
0000
,
0000
0000
0000
0000
,
0000
0000
0000
0000
,
0000
0000
0000
0000
,
0000
0000
0000
0000
,
0000
0000
0000
0000
,
2000
0000
0000
0000
,
3200
0000
0320
0000
,
0032
0000
0000
0000
,
0203
0000
0320
0000
,
2030
0100
0100
0100
,
3002
0100
0100
0100
,
2003
3200
0320
0032
,
0203
0000
0000
0300
,
0001
1000
0001
1000
0000
0001
0100
0000
,
0010
1000
0010
1000
0000
0001
0010
0000
,
0100
1000
0100
1000
0000
0001
0100
0000
,
0010
0100
0010
0100
0000
0001
1000
0000
,
0100
0010
0001
0010
0000
0100
1000
0000
,
0010
1000
0010
0100
0000
0001
0100
0000
,
0001
0010
0100
1000
0000
0100
0010
0000
,
0001
0000
0000
0001
0000
0000
0001
0000
0100
0000
0001
0000
0100
0000
0000
0000
,
0010
1000
0001
1000
0000
0001
0010
0100
,
0010
0100
1000
0100
0000
1000
0010
1000
,
0001
0010
0001
0010
0000
0001
0100
0010
,
1000
1000
0010
0000
0110
0000
0001
0001
,
0010
0100
1000
0100
0000
0010
0001
1000
,
0010
1000
0001
0100
0000
0001
1000
0100
,
0010
0000
0000
0010
0000
0000
0010
0000
0001
0000
1000
0000
0001
0000
0000
0000
,
0220
0000
0000
0330
,
1000
0100
0010
0002
0000
1003
0100
0020
,
0000
0031
0100
0020
0000
0130
0010
2000
,
0000
3001
0010
0200
0000
1300
0100
0020
,
0000
0031
1000
0200
0000
1300
0001
0100
,
0010
1000
0001
0020
0000
0031
0100
2000
,
0000
3100
0001
2000
0000
3100
0010
0001
,
2000
0010
0000
3100
1000
0000
1001
0000
,
0002
0010
0000
0103
0001
0000
1001
0000
,
1000
0100
1000
0100
0010
0100
0010
0100
,
0010
0001
0010
0000
0011
0000
1100
0000
,
0001
0100
0001
0100
0010
0100
0010
0100
,
0010
1000
0010
0000
1010
0000
0011
0000
,
1000
0100
1000
0100
0010
0100
0010
0100
,
0001
0100
0001
0000
0101
0000
1100
0000
,
1000
0000
0000
1000
0000
0000
1000
0000
0010
0000
0100
0000
0001
0000
0000
0000
,
0110
0000
0000
1001
0000
0000
0110
0000
,
2000
0000
3020
0000
,
0230
0000
0000
2300
0000
0000
3200
0000
,
0320
0000
2030
0000
,
3200
0000
0000
0302
0000
0000
0203
0000
,
2300
0000
3200
0000
,
0320
0000
0000
2030
0000
0000
3020
0000
,
0032
0000
0203
0000
,
0020
0000
0000
0330
,
1000
0000
0000
0001
0000
0010
0100
0000
0100
0010
0000
0000
,
0001
0000
0000
1000
0000
0010
0100
0000
0100
0010
0000
0000
,
1000
0000
0000
0010
0000
0100
0001
0000
0001
0010
0000
0000
,
0001
0000
0000
0010
0000
0100
1000
0000
1000
0010
0000
0000
,
1000
0000
1000
0100
0000
0100
0010
0000
0010
0001
0000
0001
,
0100
0000
0100
0010
0000
0010
1000
0000
1000
0001
0000
0001
,
0020
1000
0100
0031
,
2002
0000
0000
3003
,
1000
0000
0100
1000
0000
0001
0010
0000
0010
0001
0000
1000
,
0020
0130
0101
1100
,
0001
0000
0100
0001
0000
1000
0010
0000
0010
1000
0000
0001
,
0020
0130
0011
0101
,
1000
0000
0100
0010
0000
0001
1000
0000
1000
0001
0000
0100
,
0010
0000
0010
0100
0000
0001
1000
0000
1000
0100
0000
0100
,
0020
0032
0203
0320
,
1030
0000
1000
0000
1000
0000
0001
1000
0001
1000
0000
0000
,
0100
0000
0100
0010
0000
0001
0100
0000
0100
0010
0000
1000
,
0100
0000
0010
0100
0000
0010
0001
0000
0010
1000
0000
0010
,
0001
0000
0001
0100
0000
0010
1000
0000
1000
0100
0000
0100
,
0010
0000
0100
1000
0000
0100
0001
0000
0100
0010
0000
0000
,
1001
0000
0000
0110
0000
0000
0100
0010
0100
0010
0100
0010
,
0100
0000
0000
1001
0000
0000
0010
0100
0010
0100
0000
0000
,
2002
0000
0000
0000
,
0000
0000
0000
3003
,
1000
0100
1000
0100
0010
0001
1000
0001
,
0100
0010
1000
0000
1010
0000
0011
0000
,
1000
0010
1000
0100
0010
0100
1000
0001
,
0100
0010
1000
0000
0101
0000
1100
0000
,
0001
0010
0100
0010
0001
0100
0010
0100
,
0001
1000
0100
0000
0110
0000
1001
0000
,
1000
0100
0010
0100
0001
0100
1000
0000
,
0001
0100
0010
0100
1000
0000
0110
0000
,
0001
0100
0010
1000
0100
0010
1000
0010
,
0100
1000
0001
0000
0101
0000
1100
0000
,
1000
0100
0010
0001
0100
0010
0001
0010
,
0100
0100
0100
0000
0110
0000
1001
0000
,
0001
0001
0100
0001
1000
1000
0100
1000
,
0010
0010
0100
0001
0010
0010
0100
1000
,
0010
0000
0000
0010
0000
0000
0010
0000
0100
0000
0001
0000
0010
0000
0001
0000
,
1000
1000
0010
0010
0100
0100
0001
1000
,
2002
0000
0000
3003
,
0110
0000
0000
0000
;

//--------------- dance-single - STEP BLASTER FORCE EXTRACTOR ----------------
#NOTES:
     dance-single:
     STEP BLASTER FORCE EXTRACTOR:
     Hard:
     16:
     0,0,0,0,0:
0000
0000
0000
0000
,
0000
0000
0000
0000
,
0000
0000
0000
0000
,
0000
0000
0000
0000
,
0000
0000
0000
0000
,
0000
0000
0000
0000
,
0000
0000
0000
0000
,
0000
0000
0000
0000
,
0000
0000
0000
0000
,
0000
0000
0000
0000
,
2001
0000
0000
0000
,
3200
0000
0320
0000
,
0032
0000
0000
0000
,
2003
0000
3020
0000
,
0230
0000
0000
0000
,
0302
0000
2003
0000
,
3100
0000
0000
0010
0000
0000
0100
0010
0100
0010
0000
0000
,
2002
0000
0000
3003
,
1000
0001
0100
0010
1000
0001
0000
0100
,
0001
1000
0100
0010
0001
1000
0000
0100
,
1000
0001
0100
0001
1000
0010
0000
0100
,
0001
1000
0100
1000
0001
0010
0000
0100
,
0010
0001
1000
0001
0100
0001
0000
0100
,
0010
1000
0001
1000
0100
1000
0000
0100
,
0010
0001
0100
0001
0010
0100
0000
0000
,
1001
0000
0000
0001
0000
0000
0100
0000
0010
0000
1000
0000
0002
0000
0000
0000
,
0013
0100
0010
0001
0100
0010
1000
0000
,
0100
0010
0100
1000
0010
0100
0001
0000
,
0010
0001
0100
0001
0010
0100
1000
0000
,
0010
0000
0100
0000
0100
0000
0000
0000
0110
0000
0000
0000
0001
1000
0001
0000
,
1000
0100
1000
0010
0100
0001
0010
0000
,
0110
0000
0100
0010
0001
0001
1000
1000
,
0010
0000
0000
0110
0000
0000
0100
0000
0001
0000
1000
0000
0100
0000
0000
0000
,
2002
0000
0000
3003
,
1000
0010
0100
0001
1000
0010
0100
0001
,
1000
0100
0010
0001
1000
0100
0010
0001
,
0001
0100
0010
0100
1000
0100
0010
0100
,
0001
0000
0010
0000
0100
0000
0010
0000
1000
0000
0010
0000
0100
0000
0010
0100
,
0010
0100
1000
0001
0010
0100
1000
0001
,
0100
0010
1000
0001
0100
0010
1000
0001
,
0200
0010
0300
0001
2000
0000
3100
0000
,
0020
0100
0030
1000
0002
0000
1003
0000
,
0001
0010
0100
1000
0001
0100
0010
1000
,
0001
0010
0100
1000
0001
0100
0010
1000
,
0001
1000
0100
0001
0100
1000
0100
0001
,
0100
0000
0010
0100
0010
0000
0000
0000
1001
0000
0000
0000
1000
0001
1000
0000
,
0001
0010
0100
1000
0001
0010
0100
0001
,
0100
1000
0001
0100
0010
1000
0010
0001
,
0010
0000
0000
0110
0000
0000
0010
0000
0100
0000
0001
0000
1000
0001
1000
0000
,
0020
0000
0030
0200
0000
0300
0002
0000
,
2003
3200
0320
0230
,
0302
0000
0203
0000
0310
0100
1000
0000
,
0002
0203
0320
0230
,
2300
0000
3200
0000
0310
0100
0001
0000
,
2000
3020
0230
0320
,
0032
0000
0023
0000
0130
0010
1000
0000
,
0002
0000
0000
0000
,
2000
0000
0000
3003
,
1000
0000
0100
1000
0000
0100
0010
0100
0010
0100
0010
0100
,
0010
0000
0001
0010
0000
0001
1000
0001
1000
0002
0000
0000
,
0103
0000
0001
0100
0000
0001
0100
0010
0100
0010
0100
0010
,
1000
0000
0010
1000
0000
0010
1000
0001
1000
0002
0000
0000
,
1003
0100
0010
0002
0000
0000
1003
0010
0100
0002
0000
0000
,
0013
0100
1000
0002
0000
0000
0103
0010
1000
0002
0000
0000
,
0013
0100
0010
0100
1000
0100
1000
0001
1000
0001
0100
0001
,
0200
0000
0000
0300
,
0010
0000
0010
1000
0000
1000
0100
0000
0100
1000
0000
1000
,
0001
0000
0001
0100
0000
0100
0001
0010
0100
1000
0100
0010
,
0001
0000
0001
0100
0000
0100
0010
0000
0010
1000
0000
1000
,
0100
0000
0100
0010
0000
0010
0001
0100
0010
1000
0100
1000
,
0010
0000
0010
0100
0000
0100
0001
0000
0001
0010
0000
0010
,
0100
0000
0100
1000
0000
1000
0001
0000
0001
0100
0010
1000
,
0001
0000
0001
0010
0000
0010
0100
0000
0100
1000
0000
1000
,
0010
0000
0110
0000
1001
0000
1000
0100
0010
0002
0000
0000
,
1003
0010
1000
0010
0100
0010
0100
0001
0100
0001
1000
0001
,
1000
0010
1000
0010
0100
0010
0100
0001
1000
0001
0000
1000
,
0001
0010
0001
0010
0100
0010
0100
1000
0100
1000
0001
1000
,
0001
0000
0100
0001
0000
0100
0001
0010
0001
0100
0010
1000
,
0100
0000
0000
1001
0000
0000
1000
0100
1000
0001
0100
0001
,
0010
0000
0001
0010
0100
0010
0001
1000
0010
0100
0010
1000
,
0002
0000
0000
0003
2000
0000
0000
3000
,
0002
0000
0000
0000
2003
0000
0000
0000
3001
1000
0001
1000
0002
0000
0000
0000
,
0013
0000
0100
0000
1000
0000
0001
1000
0001
0000
0100
0000
0010
0000
1000
0010
,
1000
0000
0001
0000
0010
0000
0000
0000
0100
1000
0100
0000
1000
0001
1000
0000
,
0010
0000
0100
0000
0001
0000
1000
0001
1000
0000
0100
0000
0010
0000
0001
0010
,
0001
0000
1000
0000
0010
0000
0000
0000
0100
0001
0100
0000
0001
1000
0001
0000
,
0010
0000
0100
0000
1000
0000
0010
1000
0010
0000
1000
0000
0001
0000
0010
0001
,
0010
0000
0100
0000
1000
0000
0000
0000
0001
0100
0001
0000
1000
0100
1000
0100
,
1000
0001
0010
0100
0010
0001
1000
0001
,
0100
0000
0010
0000
0100
0000
0000
0000
1001
0000
0000
0000
0001
1000
0001
1000
,
0001
0000
0010
0000
0001
0000
0100
0001
0100
0000
0010
0000
1000
0000
0100
1000
,
0100
0000
0010
0000
0001
0000
0000
0000
1000
0010
1000
0000
0001
0010
0001
0000
,
1000
0000
0010
0000
1000
0000
0100
0010
0100
0000
1000
0000
0001
0000
0100
0010
,
0100
0000
0010
1000
0001
0000
0000
0000
1001
0000
0000
0000
1000
0001
1000
0001
,
1000
0100
1000
0100
0010
0001
0010
0001
,
0100
0010
0100
0010
1000
0001
1000
0001
,
0010
0000
0000
0110
0000
0000
0100
0000
1000
0000
0001
0000
1000
0010
1000
0010
,
1000
0000
0001
0010
0001
0000
1000
0000
0100
0010
0100
0000
1000
0001
1000
0001
,
0200
0000
0000
0010
0010
0000
0301
0000
,
1001
0000
0000
0000
;

//--------------- dance-single - STEP BLASTER FORCE EXTRACTOR ----------------
#NOTES:
     dance-single:
     STEP BLASTER FORCE EXTRACTOR:
     Challenge:
     17:
     0,0,0,0,0:
0000
0000
0000
0000
,
0000
0000
0000
0000
,
0000
0000
0000
0000
,
0000
0000
0000
0000
,
0000
0000
0000
0000
,
0000
0000
0000
0000
,
0000
0000
0000
0000
,
0000
0000
0000
0000
,
0000
0000
0000
0000
,
0000
0000
0000
0000
,
1002
0000
0000
0000
,
0203
0000
0320
0000
,
2030
0000
0000
0000
,
3200
0000
0320
0000
,
0031
0001
0100
0100
,
0010
0010
1000
1000
,
0001
0000
0000
0001
0000
0000
0010
0100
0010
0100
0000
0000
,
2002
0000
0000
3003
,
0001
0100
0010
0100
0001
0010
0000
0001
,
1000
0100
0010
0100
1000
0010
0000
1000
,
0001
0010
0100
0010
0001
0100
0000
0001
,
1000
0000
0010
0000
0100
0000
0010
0000
1000
0000
0100
0000
0000
0000
0100
0010
,
0001
1000
0001
0100
1000
0100
0000
0010
,
1000
0001
1000
0100
0001
0100
0000
0010
,
0001
0000
1000
0000
0010
0000
0001
0000
0010
0000
1000
0000
0000
0000
1000
0001
,
0010
0000
0000
0110
0000
0000
0100
0000
1000
0000
0010
0000
1000
0001
1000
0001
,
1000
0000
0100
0000
0010
0001
0000
1000
0000
0100
0000
0010
0000
0000
0000
0000
,
0001
0000
0100
0000
0010
1000
0000
0001
0000
0100
0000
0010
0000
0000
0000
0000
,
1000
0000
0100
0000
1000
0001
0000
0100
0000
0001
0000
0010
0000
0000
0000
0000
,
0100
1000
0100
1000
0001
0000
0000
0000
0110
0000
0000
0000
1000
0001
1000
0001
,
1000
0000
0010
0000
0100
0001
0000
0010
0000
0001
0000
0100
0000
0000
0000
0100
,
0001
0000
0010
0000
0001
0100
0000
0010
1000
0000
1000
0000
0001
0000
0001
0000
,
0010
0000
0000
0110
0000
0000
0100
0000
1000
0000
0001
0000
0100
0010
0100
0010
,
2000
0000
0000
3000
,
0001
0100
0010
1000
0001
0200
0010
0301
,
1000
0100
0010
0001
1000
0200
0010
1300
,
0001
0010
0100
1000
0001
0020
0100
0031
,
1000
0000
0010
0000
0100
0000
0001
0000
1000
0000
0001
0000
0010
0100
0010
0100
,
1000
0001
0010
0100
1000
0002
1000
0103
,
0001
1000
0010
0100
0001
2000
0001
3100
,
1100
1000
0000
0001
0011
0000
1001
0000
,
0101
0000
0100
0000
0000
0000
0010
0000
1010
0000
0000
0000
1000
0100
0010
0001
,
1000
0100
0001
0100
1000
0200
0010
1300
,
0001
0100
1000
0100
0001
0200
0010
0301
,
1000
0010
0001
0010
1000
0020
0100
1030
,
0010
0100
0001
0100
0010
0000
0000
0000
1001
0000
0000
0000
0001
0010
0100
1000
,
0001
0100
1000
0100
0001
0200
0010
0301
,
1000
0100
0001
0100
1000
0200
0010
1300
,
0110
0000
0000
1001
0000
0000
1000
0000
0100
0000
0010
0000
0001
1000
0001
1000
,
0002
0000
0003
0200
0000
0300
0020
0000
,
2030
0000
0010
0000
0001
0000
0100
0100
,
0000
0001
0001
0000
3010
1000
0001
0000
,
0002
0000
0010
0000
1000
0000
0100
0100
,
0000
1000
1000
0000
0013
0001
1000
0000
,
2000
0000
0100
0000
0001
0000
0010
0010
,
0000
0001
0001
0000
3100
1000
0001
0000
,
0002
0100
1000
0010
,
2000
0000
0000
3003
,
0001
0000
0001
0100
0000
0001
0100
0010
0100
0010
0100
0010
,
1000
0000
1000
0100
0000
1000
0100
0010
0100
0010
0001
1000
,
0010
0000
0010
0100
0000
0010
0100
0001
0100
0001
0100
0001
,
0010
0000
0010
0100
0000
0010
0100
1000
0100
1000
0001
0100
,
0001
0010
0001
0010
0100
0010
0100
1000
0100
1000
0001
1000
,
0001
0100
0001
0100
0010
0100
0010
1000
0010
1000
0001
1000
,
0100
0010
0100
1000
0010
1000
0001
0010
0001
0100
0010
0100
,
0002
0000
0000
0003
,
1000
0100
0010
0001
0010
0100
1000
0100
0010
0001
0010
0100
,
1000
0100
0010
0001
0010
0100
1000
0001
0100
0001
1000
0100
,
1000
0010
0100
0001
0100
0010
1000
0010
0100
0001
0100
0010
,
1000
0010
0100
0001
0100
0010
1000
0100
0001
0100
1000
0001
,
0100
0010
0100
0001
1000
0001
0010
0100
0010
0001
1000
0001
,
0100
0010
0100
0001
1000
0001
0010
0100
1000
0010
0100
0001
,
0010
0001
1000
0010
1000
0001
0100
0001
1000
0100
1000
0001
,
0010
0000
0000
0000
0000
0000
0000
0000
0110
0000
0000
0000
0000
0000
0000
0000
1001
0000
0000
0000
0000
0000
0000
0000
1000
0000
0000
0000
0010
0000
0000
0000
0100
0000
0000
0000
0001
0000
0000
1000
0000
0000
0001
0000
0000
1000
0000
0000
,
0001
0010
0100
1000
0100
0010
0001
0100
0010
1000
0010
0100
,
0001
0010
0100
1000
0100
0010
0001
0100
1000
0100
0001
1000
,
0010
0100
0001
0010
0001
0100
0010
1000
0100
1000
0010
0100
,
0001
0000
0001
1000
0000
1000
0001
0010
1000
0010
0001
0100
,
0010
0000
0000
1001
0000
0000
1000
0100
0010
0001
0100
0010
,
1000
0000
0001
0010
0100
1000
0010
0100
0001
0010
0100
1000
,
0020
0000
0000
0130
0020
0000
0000
0130
,
0010
0000
0100
0000
0010
0000
0100
0000
0010
0100
0010
0100
0002
0000
0000
0000
,
1003
0000
0100
0010
0000
0001
0010
0000
0100
0000
1000
0001
1000
0000
0010
0000
,
0100
0001
0100
0000
0010
0000
0000
0000
1000
0100
1000
0100
0010
0001
0010
0000
,
0001
0000
0100
0010
0000
1000
0010
0000
0100
0000
0001
0010
0001
0000
0100
0000
,
0001
1000
0001
0000
0010
0000
0000
0000
0001
0100
0001
0100
0010
1000
0010
0000
,
0100
0000
0001
0010
0000
0100
0010
0000
0001
0000
1000
0010
1000
0000
0001
0000
,
0010
0100
0010
0000
0001
0000
0000
0000
0100
0001
0100
0001
1000
0100
1000
0100
,
1000
0000
0010
0100
0010
0000
1000
0000
0100
0010
0100
0000
1000
0001
1000
0000
,
0001
0000
0010
0100
0010
0000
0001
0000
1001
0000
0000
0000
0001
0010
0100
1000
,
0001
0000
0100
0010
1000
0010
0100
0000
0001
0000
0010
0100
1000
0000
0010
0000
,
1000
0100
0010
0001
1000
0000
0000
0000
0001
0100
0010
1000
0010
0100
0001
0000
,
1000
0000
0100
0010
0001
0010
0100
0000
1000
0000
0010
0100
0001
0000
0010
0000
,
0100
1000
0001
0100
0010
0000
0000
0000
1001
0000
0000
0000
1000
0100
0010
0001
,
2000
0100
3002
0100
2003
0010
3002
0010
,
0203
0010
0302
0010
2003
0010
3200
0310
,
0110
0000
0000
1001
0000
0000
0110
0000
0001
0000
1000
0000
0010
0100
0010
0100
,
0001
1000
0010
1000
0001
0100
0001
1000
0010
1000
0001
0010
0100
1000
0100
0010
,
0002
0000
0000
0003
,
1001
0000
0000
0000
;

//--------------- dance-double - forcednature ----------------
#NOTES:
     dance-double:
     forcednature:
     Easy:
     9:
     0,0,0,0,0:
00000000
00000000
00000000
00000000
,
00000000
00000000
00000000
00000000
,
00000000
00000000
00000000
00000000
,
00000000
00000000
00000000
00000000
,
00000000
00000000
00000000
00000000
,
00000000
00000000
00000000
00000000
,
00000000
00000000
00000000
00000000
,
00000000
00000000
00000000
00000000
,
00000000
00000000
00000000
00000000
,
00000000
00000000
00000000
00000000
,
00002000
00000000
00000000
00000000
,
00000000
00000000
00000000
00000000
,
00023000
00000000
00000000
00000000
,
00000000
00000000
00000000
00000000
,
00030200
00000000
00000000
00000000
,
00000000
00000000
00000000
00000000
,
00002300
00000000
00000000
00000000
,
00003002
00000000
00000000
00000003
,
00001000
00001000
00001000
00000000
,
00000100
00000100
00000100
00000000
,
00010000
00010000
00010000
00000000
,
00001000
00001000
00001000
00000000
,
01000000
00010000
01000000
00000000
,
00100000
01000000
00100000
00000000
,
10000000
00100000
10000000
00000000
,
00010000
00010000
00100000
00010000
,
01000000
01000000
01000000
00001000
,
00010000
00010000
00010000
00001000
,
00100000
00100000
00100000
00001000
,
00010000
00001000
00010000
00000000
,
00000010
00000010
00000010
00010000
,
00001000
00001000
00001000
00010000
,
00000100
00000100
00001000
00001000
,
00000002
00000000
00000000
00000003
,
00001000
00000010
00001000
00000100
,
00010000
00001000
01000000
00001000
,
00100000
00010000
00100000
01000000
,
10000000
00010000
10000000
00100000
,
01000000
00010000
01000000
00001000
,
00010000
00000100
00001000
00000100
,
00000010
00000000
00000000
00000010
00000000
00000000
00000010
00000000
,
00000001
00000000
00000000
00000001
00000000
00000000
00000001
00000000
,
00000100
00000010
00001000
00000010
,
00010000
00001000
00100000
00001000
,
01000000
00010000
01000000
00100000
,
10000000
01000000
00100000
00010000
,
10010000
10000000
00100000
01000000
,
00001000
00010000
00000100
00010000
,
00001000
00000000
00000000
00001000
00000000
00000000
00010000
00000000
,
00010000
00000000
00000000
00010000
00000000
00000000
00001000
00000000
,
00020000
00000000
00000000
00000000
,
00030200
00000000
00002300
00000000
,
00003002
00000000
00000000
00000000
,
00000203
00000000
00000320
00000000
,
00020030
00000000
00000000
00000000
,
00032000
00000000
00203000
00000000
,
00320000
00000000
00000000
00000000
,
20000000
00000000
00000000
30030000
,
10000000
01000000
10000000
10000000
,
00010000
01000000
00010000
00100000
,
00001000
00010000
00001000
00001000
,
00010000
00000010
00010000
00000100
,
00001000
00000010
00010000
00001000
,
00100000
00010000
01000000
00001000
,
00010000
00010000
00010000
00010000
,
00002000
00000000
00000000
00003000
,
00010000
00000010
00010000
00001000
,
00010000
00000100
00010000
00011000
,
00001000
00100000
00001000
00010000
,
00001000
01000000
00001000
00011000
,
00010000
00000100
00001000
00000010
,
00001000
00000100
00010000
00011000
,
00001000
01000000
00010000
00100000
,
01000000
01000000
01100000
00000000
,
00100000
00010000
00100000
00001000
,
00010000
00000010
00001000
00001001
,
00000001
00000010
00000100
00001000
,
00001001
00000001
00001001
00001000
,
00000010
00000010
00010000
00010000
,
00001000
00100000
00001000
00100000
,
00020000
00000000
00000000
00000000
,
00000000
00000000
00000000
00030000
,
10000000
01000000
00100000
00010000
,
01000000
00000000
00000000
00000000
00010000
10000000
00010000
00000000
,
01000000
00001000
00010000
00001000
,
00010000
00000000
00000000
00000000
00001000
00010000
00001000
00000000
,
00010000
00000100
00001000
00000001
,
00001000
00000000
00000000
00000000
00000001
00001000
00000001
00000000
,
00000010
00000010
00000100
00001000
,
00000010
00000010
00010000
00001000
,
01000000
00010000
10000000
00010000
,
00100000
00000000
00000000
00000000
01000000
00100000
01000000
00000000
,
10000000
00010000
01000000
00010000
,
00100000
00000000
00000000
00000000
00010000
10000000
00010000
00000000
,
01000000
01000000
00001000
00001000
,
00010000
00010000
00000100
00000100
,
00001000
00000000
00000001
00000000
00001000
00000001
00001000
00000000
,
00000010
00000100
00001000
00010000
,
00002000
00000000
00000000
00000000
,
00103000
00000000
00000000
00000000
;

//--------------- dance-double - forcednature ----------------
#NOTES:
     dance-double:
     forcednature:
     Medium:
     13:
     0,0,0,0,0:
00000000
00000000
00000000
00000000
,
00000000
00000000
00000000
00000000
,
00000000
00000000
00000000
00000000
,
00000000
00000000
00000000
00000000
,
00000000
00000000
00000000
00000000
,
00000000
00000000
00000000
00000000
,
00000000
00000000
00000000
00000000
,
00000000
00000000
00000000
00000000
,
00000000
00000000
00000000
00000000
,
00000000
00000000
00000000
00000000
,
00002000
00000000
00000000
00000000
,
02003000
00000000
03020000
00000000
,
20030000
00000000
00000000
00000000
,
32000000
00000000
03200000
00000000
,
00302000
01000000
01000000
01000000
,
00023000
00000100
00000100
00000100
,
00032000
00203000
00302000
00023000
,
00030020
00000000
00000000
00000030
,
00000100
00000001
00000100
00000001
00000000
00000010
00000001
00000000
,
00000010
00000100
00000010
00000100
00000000
00010000
00001000
00000000
,
01000000
00010000
01000000
00010000
00000000
10000000
01000000
00000000
,
00100000
00001000
00100000
00001000
00000000
01000000
00010000
00000000
,
10000000
00100000
01000000
00100000
00000000
01000000
00001000
00000000
,
00010000
00000100
00001000
00000100
00000000
00000010
00000001
00000000
,
00001000
00000010
00010000
00001000
00000000
00100000
00010000
00000000
,
01000000
00000000
00000000
01000000
00000000
00000000
01000000
00000000
00010000
00000000
01000000
00000000
00010000
00000000
00000000
00000000
,
10000000
01000000
00100000
00010000
00000000
00100000
00001000
00010000
,
00000010
00001000
00000010
00001000
00000000
00000001
00000010
00000100
,
00001000
00000010
00001000
00000100
00000000
00010000
00001000
01000000
,
00010000
00100000
00100000
00000000
01100000
00000000
01000000
01000000
,
10000000
00100000
01000000
00010000
00000000
00100000
00001000
00010000
,
00000010
00001000
00000010
00000100
00000000
00000001
00000010
00000100
,
00001000
00000000
00000000
00001000
00000000
00000000
00001000
00000000
00000010
00000000
00010000
00000000
00000010
00000000
00000000
00000000
,
00022000
00000000
00000000
00033000
,
01000000
00010000
10000000
02000000
00000000
03100000
00001000
00020000
,
00000000
00030010
00001000
00000200
00000000
00000310
00000001
00002000
,
00000000
00003010
00010000
00002000
00000000
01003000
00010000
20000000
,
00000000
31000000
00100000
00020000
00000000
01030000
00001000
00010000
,
00000100
00010000
00001000
00200000
00000000
00301000
00010000
00000020
,
00000000
00001030
00000100
00000020
00000000
00000031
00001000
00000010
,
00020000
00000100
00000000
00030010
00010000
00000000
00011000
00000000
,
00002000
01000000
00000000
00103000
00001000
00000000
00011000
00000000
,
01000000
00010000
01000000
00010000
00100000
00001000
00100000
00001000
,
00010000
00000010
00010000
00000000
00011000
00000000
00010010
00000000
,
00000100
00001000
00000100
00001000
00000010
00010000
00000010
00010000
,
00001000
00100000
00001000
00000000
00011000
00000000
01001000
00000000
,
01000000
00010000
01000000
00010000
00100000
00001000
00100000
00001000
,
00010000
00000010
00010000
00000000
00010010
00000000
00001100
00000000
,
00000001
00000000
00000000
00000001
00000000
00000000
00000001
00000000
00000100
00000000
00000010
00000000
00001000
00000000
00000000
00000000
,
00001001
00000000
00000000
00010000
00000000
00000000
00001000
00000000
,
02000000
00000000
03020000
00000000
,
00230000
00000000
00000000
02300000
00000000
00000000
03200000
00000000
,
00302000
00000000
00023000
00000000
,
00030020
00000000
00000000
00000230
00000000
00000000
00000320
00000000
,
00002030
00000000
00003002
00000000
,
00000023
00000000
00000000
00000230
00000000
00000000
00020300
00000000
,
00032000
00000000
02003000
00000000
,
00200000
00000000
00000000
03300000
,
10000000
00000000
00000000
01000000
00000000
00100000
00010000
00000000
00010000
00100000
00000000
00000000
,
00001000
00000000
00000000
00010000
00000000
00000010
00001000
00000000
00001000
00000010
00000000
00000000
,
00000100
00000000
00000000
00000001
00000000
00000010
00000100
00000000
00000100
00001000
00000000
00000000
,
00000010
00000000
00000000
00010000
00000000
00001000
00100000
00000000
00100000
00010000
00000000
00000000
,
10000000
00000000
10000000
01000000
00000000
01000000
00100000
00000000
00100000
00010000
00000000
00010000
,
00001000
00000000
00001000
00000100
00000000
00000100
00000010
00000000
00000010
00000001
00000000
00000001
,
00002000
00000100
00000001
00003010
,
00000220
00000000
00000000
00000330
,
00000010
00000000
00001000
00000010
00000000
00010000
00001000
00000000
00001000
00010000
00000000
00001000
,
00200000
01300000
11000000
00110000
,
00100000
00000000
00001000
00010000
00000000
00000010
00001000
00000000
00001000
00000010
00000000
00000100
,
00000002
00000013
00000011
00000110
,
00000100
00000000
00010000
00001000
00000000
00100000
00010000
00000000
00010000
01000000
00000000
00100000
,
10000000
00000000
10000000
01000000
00000000
00100000
00001000
00000000
00001000
00010000
00000000
00010000
,
00000020
00002030
00003002
00000023
,
00000130
00000000
00000100
00000000
00000100
00000000
00010000
00001000
00010000
00001000
00000000
00000000
,
01000000
00000000
01000000
00010000
00000000
00100000
01000000
00000000
01000000
10000000
00000000
00100000
,
01000000
00000000
00010000
01000000
00000000
00001000
00010000
00000000
00010000
00000100
00000000
00000100
,
00001000
00000000
00001000
00000010
00000000
00000100
00000001
00000000
00000001
00000010
00000000
00000100
,
00001000
00000000
00000010
00001000
00000000
00000100
00010000
00001000
00010000
00001000
00000000
00000000
,
00100000
00000000
00000000
01100000
00000000
00000000
01000000
00100000
01000000
00100000
01000000
00100000
,
01000000
00000000
00100000
00001000
00000000
00010000
00001000
00010000
00001000
00010000
00000000
00000000
,
00022000
00000000
00000000
00000000
,
00000000
00000000
00000000
00033000
,
01000000
00010000
10000000
01000000
00100000
00010000
00100000
00001000
,
00010000
00000010
00001000
00000000
00001100
00000000
00000101
00000000
,
00000001
00000010
00000100
00000010
00000001
00000100
00000010
00010000
,
00001000
00100000
01000000
00000000
00110000
00000000
10100000
00000000
,
00010000
01000000
00100000
01000000
00010000
10000000
01000000
00010000
,
00001000
01000000
00001000
00000000
01001000
00000000
00010100
00000000
,
00000100
00000010
00000100
00010000
00001000
00010000
00100000
00000000
,
01000000
00100000
01000000
00001000
00010000
00000000
00011000
00000000
,
00001000
00000010
00000100
00000010
00000001
00001000
00000001
00000100
,
00001000
00010000
00100000
00000000
10100000
00000000
11000000
00000000
,
00010000
00100000
01000000
10000000
00010000
10000000
01000000
00010000
,
00001000
00001000
00001000
00000000
00011000
00000000
00000110
00000000
,
00000001
00000001
00000100
00001000
00010000
00010000
00001000
00000100
,
00000010
00000010
00010000
00001000
00100000
00100000
00001000
00010000
,
00100000
00000000
00000000
00100000
00000000
00000000
00100000
00000000
10000000
00000000
00010000
00000000
10000000
00000000
00010000
00000000
,
00100000
00100000
01000000
01000000
00010000
00001000
00000010
00000000
,
00000220
00000000
00000000
00000330
,
00001001
00000000
00000000
00000000
;

//--------------- dance-double - forcednature ----------------
#NOTES:
     dance-double:
     forcednature:
     Hard:
     16:
     0,0,0,0,0:
00000000
00000000
00000000
00000000
,
00000000
00000000
00000000
00000000
,
00000000
00000000
00000000
00000000
,
00000000
00000000
00000000
00000000
,
00000000
00000000
00000000
00000000
,
00000000
00000000
00000000
00000000
,
00000000
00000000
00000000
00000000
,
00000000
00000000
00000000
00000000
,
00000000
00000000
00000000
00000000
,
00000000
00000000
00000000
00000000
,
00012000
00000000
00000000
00000000
,
02003000
00000000
03020000
00000000
,
20030000
00000000
00000000
00000000
,
32000000
00000000
03020000
00000000
,
00032000
00000000
00000000
00000000
,
00003020
00000000
00000032
00000000
,
00000103
00000000
00000000
00001000
00000000
00000000
00010000
00001000
00010000
00001000
00000000
00000000
,
00022000
00000000
00000000
00033000
,
01000000
00010000
00100000
01000000
00100000
00001000
00000000
00010000
,
00000100
00001000
00000010
00000100
00000010
00010000
00000000
00001000
,
00100000
00010000
01000000
00100000
01000000
00001000
00000000
00010000
,
00000010
00001000
00000100
00000010
00000100
00010000
00000000
00001000
,
00100000
01000000
00100000
00010000
01000000
00001000
00000000
00010000
,
00000010
00000100
00000010
00001000
00000100
00010000
00000000
00001000
,
01000000
00100000
01000000
00010000
00100000
00001000
00000000
00000000
,
00011000
00000000
00000000
00010000
00000000
00000000
00000100
00000000
00001000
00000000
00000001
00000000
00000200
00000000
00000000
00000000
,
00001300
00010000
00100000
01000000
00100000
10000000
00010000
00000000
,
00100000
01000000
10000000
01000000
00010000
00001000
00000010
00000000
,
00000001
00000100
00000010
00001000
00000100
00000010
00000001
00000000
,
00000100
00000000
00001000
00000000
00010000
00000000
00000000
00000000
00011000
00000000
00000000
00000000
00001000
00010000
00001000
00000000
,
01000000
00010000
00100000
01000000
10000000
01000000
00010000
00000000
,
00011000
00000000
00001000
00000010
00000001
00000001
00000100
00000100
,
00001000
00000000
00000000
00011000
00000000
00000000
00010000
00000000
01000000
00000000
00100000
00000000
01000000
00000000
00000000
00000000
,
20020000
00000000
00000000
30030000
,
10000000
01000000
00100000
00010000
10000000
01000000
00100000
00010000
,
00001000
00000100
00000010
00000001
00001000
00000100
00000010
00000001
,
00000001
00000100
00000010
00001000
00000001
00000100
00000010
00001000
,
00010000
00000000
01000000
00000000
00100000
00000000
10000000
00000000
00010000
00000000
01000000
00000000
00100000
01000000
00100000
00000000
,
10000000
01000000
00100000
00010000
00001000
00000100
00000010
00000001
,
00000001
00000100
00000010
00001000
00010000
01000000
00100000
10000000
,
01000000
00010000
00000000
00001000
00000100
00000000
00000110
00000000
,
00000100
00000000
00001000
00000000
00000000
00000000
00010000
00000000
01000000
00000000
00000000
00000000
10000000
00010000
10000000
00010000
,
10000000
01000000
00100000
00010000
01000000
00100000
00010000
00001000
,
00100000
00010000
00001000
00000100
00010000
00001000
00000100
00000010
,
00001000
00000100
00000010
00000001
00000100
00000010
00000001
00000010
,
00000100
00000000
00000001
00000100
00000001
00000000
00000000
00000000
00001001
00000000
00000000
00000000
00000001
00001000
00000001
00001000
,
00000001
00000100
00000010
00001000
00000100
00000010
00001000
00010000
,
00000010
00001000
00010000
01000000
00001000
00010000
01000000
00100000
,
00010000
00000000
00000000
10010000
00000000
00000000
10000000
00000000
00100000
00000000
01000000
00000000
00010000
10000000
00010000
00000000
,
02000000
00000000
03000000
00200000
00000000
00300000
20000000
00000000
,
32000000
03020000
00032000
00023000
,
00030020
00000000
00020030
00000000
00031000
00010000
00000010
00000000
,
00000200
00002300
00023000
00032000
,
00203000
00000000
00302000
00000000
00013000
00001000
00100000
00000000
,
02000000
03020000
00032000
00023000
,
00030200
00000000
00020300
00000000
00031000
00010000
00000100
00000000
,
00020000
00000000
00000000
00000000
,
00002000
00000000
00000000
00033000
,
01000000
00000000
00010000
01000000
00000000
00010000
00100000
00001000
00100000
00001000
00100000
00001000
,
00010000
00000000
00000010
00010000
00000000
00000010
00001000
00000100
00001000
00000200
00000000
00000000
,
00000310
00000000
00000001
00000010
00000000
00000001
00001000
00000010
00001000
00000010
00001000
00000010
,
00010000
00000000
00001000
00010000
00000000
00001000
00100000
00010000
00100000
00020000
00000000
00000000
,
01030000
00010000
01000000
00002000
00000000
00000000
00103000
00010000
00100000
00002000
00000000
00000000
,
00013000
00001000
00010000
00000020
00000000
00000000
00010030
00001000
00010000
00000200
00000000
00000000
,
00000310
00000001
00000010
00000001
00000100
00000001
00000100
00000010
00000100
00000010
00001000
00000010
,
00002000
00000000
00000000
00003000
,
00000100
00000000
00000100
00010000
00000000
00010000
00001000
00000000
00001000
00100000
00000000
00100000
,
00001000
00000000
00001000
00010000
00000000
00010000
00000010
00001000
00000010
00010000
00001000
01000000
,
00010000
00000000
00010000
01000000
00000000
01000000
00001000
00000000
00001000
00010000
00000000
00010000
,
00000100
00000000
00000100
00001000
00000000
00001000
00000010
00010000
00001000
00100000
00001000
00010000
,
00001000
00000000
00001000
01000000
00000000
01000000
00010000
00000000
00010000
10000000
00000000
10000000
,
01000000
00000000
01000000
00100000
00000000
00100000
00001000
00000000
00001000
00010000
00000100
00001000
,
00000001
00000000
00000001
00000100
00000000
00000100
00001000
00000000
00001000
00010000
00000000
00010000
,
00100000
00000000
01100000
00000000
01000000
00000000
00010000
00100000
01000000
10000000
00000000
00000000
,
00010000
00100000
00010000
00100000
00001000
00100000
00001000
00010000
00001000
00010000
00000010
00010000
,
00000010
00001000
00000010
00001000
00000001
00001000
00000100
00010000
00001000
00100000
00000000
00100000
,
01000000
10000000
01000000
10000000
00100000
10000000
00100000
01000000
00100000
01000000
00001000
01000000
,
00001000
00000000
00010000
00001000
00000000
00010000
00000010
00001000
00000100
00010000
00001000
01000000
,
00010000
00000000
00000000
00110000
00000000
00000000
10000000
01000000
00100000
00010000
00100000
00001000
,
00010000
00000000
00000010
00001000
00000100
00000010
00000001
00000100
00000010
00001000
00000100
00010000
,
00002000
00000000
00000000
00003000
00020000
00000000
00000000
00030000
,
00002000
00000000
00000000
00000000
00023000
00000000
00000000
00000000
00031000
00010000
00001000
00010000
00002000
00000000
00000000
00000000
,
00103000
01000000
10000000
00100000
01000000
00100000
10000000
01000000
,
00010000
00000000
00001000
00010000
00001000
00000000
00000000
00000000
00010000
00000100
00010000
00000000
00000100
00001000
00000100
00000000
,
00000010
00000001
00000100
00000001
00000010
00000100
00010000
00001000
,
00100000
00000000
01000000
00100000
01000000
00000000
00000000
00000000
10000000
00100000
10000000
00000000
00010000
10000000
00010000
00000000
,
00100000
01000000
10000000
01000000
00010000
00001000
00000010
00000100
,
00001000
00000000
00000001
00001000
00000001
00000000
00000000
00000000
00000010
00000100
00000010
00000000
00000100
00001000
00000100
00001000
,
00000100
00010000
00001000
01000000
00100000
01000000
00001000
00010000
,
00000010
00000000
00001000
00000000
00000010
00000000
00000000
00000000
00000110
00000000
00000000
00000000
00000100
00000001
00000100
00000001
,
00000100
00000000
00000010
00000000
00001000
00000000
00000001
00000100
00000001
00000000
00001000
00000000
00000100
00000000
00010000
00001000
,
00010000
00000000
00001000
00100000
00001000
00000000
00000000
00000000
00100000
01000000
00100000
00000000
01000000
10000000
01000000
00000000
,
00100000
00000000
00010000
00000000
01000000
00000000
00001000
00010000
00001000
00000000
00010000
00000000
00000010
00000000
00001000
00000100
,
00001000
00000000
00000001
00000100
00000010
00000000
00000000
00000000
00001001
00000000
00000000
00000000
00001000
00000100
00001000
00000100
,
00001000
00000100
00010000
00001000
01000000
00010000
00100000
01000000
,
10000000
01000000
00010000
00001000
00000100
00000001
00000010
00000100
,
00001000
00000000
00000000
00001100
00000000
00000000
00000001
00000000
00001000
00000000
00000100
00000000
00000010
00000001
00000010
00000001
,
00000010
00000000
00000100
00000010
00000100
00000000
00001000
00000000
00000100
00001000
00000100
00000000
00010000
00001000
00010000
00001000
,
02000000
00000000
00000000
03000000
,
10010000
00000000
00000000
00000000
;

//--------------- dance-double - forcednature ----------------
#NOTES:
     dance-double:
     forcednature:
     Challenge:
     17:
     0,0,0,0,0:
00000000
00000000
00000000
00000000
,
00000000
00000000
00000000
00000000
,
00000000
00000000
00000000
00000000
,
00000000
00000000
00000000
00000000
,
00000000
00000000
00000000
00000000
,
00000000
00000000
00000000
00000000
,
00000000
00000000
00000000
00000000
,
00000000
00000000
00000000
00000000
,
00000000
00000000
00000000
00000000
,
00000000
00000000
00000000
00000000
,
00021000
00000000
00000000
00000000
,
00030200
00000000
00000320
00000000
,
00002030
00000000
00000000
00000000
,
02003000
00000000
03200000
00000000
,
10300000
10000000
01000000
01000000
,
00010000
00010000
00001000
00001000
,
00000100
00000010
00000100
00000001
00000100
00000001
00000010
00000100
00000010
00000001
00000100
00000001
,
00002000
00000000
00000000
00003000
,
00000010
00010000
00001000
00010000
00000100
00001000
00000000
00000010
,
00010000
00001000
00100000
00001000
01000000
00010000
00000000
10000000
,
01000000
00100000
00010000
01000000
00001000
00010000
00000000
00000100
,
00001000
00000000
00000001
00000000
00000100
00000000
00000010
00000000
00010000
00000000
00001000
00000000
00000000
00000000
00100000
00010000
,
10000000
00100000
01000000
10000000
01000000
00010000
00000000
00100000
,
00001000
00010000
00000100
00010000
00001000
00000010
00000000
00000001
,
00000100
00000000
00001000
00000000
00000100
00000000
00000010
00000000
00010000
00000000
00001000
00000000
00000000
00000000
01000000
00010000
,
10000000
00000000
00000000
11000000
00000000
00000000
01000000
00000000
00010000
00000000
00000000
00000000
00001000
00010000
00001000
00010000
,
00001000
00000000
01000000
00000000
00010000
00100000
00000000
01000000
00000000
10000000
00000000
01000000
00000000
00000000
00000000
00000000
,
00010000
00000000
00001000
00000000
00010000
00000100
00000000
00001000
00000000
00000100
00000000
00000010
00000000
00000000
00000000
00000000
,
00000001
00000000
00000100
00000000
00000010
00001000
00000000
00000010
00000000
00000100
00000000
00000001
00000000
00000000
00000000
00000000
,
00000010
00000100
00001000
00000100
00010000
00000000
00000000
00000000
00011000
00000000
00000000
00000000
01000000
00010000
01000000
00010000
,
01000000
00000000
00001000
00000000
00010000
00000100
00000000
00001000
00000000
00000100
00000000
00000010
00000000
00000000
00000000
00000010
,
00000001
00000000
00000100
00000000
00000010
00001000
00000000
00000010
00010000
00000000
00010000
00000000
00001000
00000000
00001000
00000000
,
00100000
00000000
00000000
01100000
00000000
00000000
01000000
00000000
10000000
00000000
00010000
00000000
01000000
00001000
01000000
00001000
,
00020000
00000000
00000000
00030000
,
00000100
00001000
00000010
00010000
00000100
00001000
00000010
00010000
,
00001000
01000000
00010000
00100000
00001000
01000000
00010000
00100000
,
01000000
00010000
00001000
00100000
01000000
00010000
00001000
00100000
,
00010000
00000000
00001000
00000000
00000100
00000000
00000010
00000000
00000001
00000000
00000100
00000000
00000010
00000100
00000010
00000100
,
00001000
00010000
00100000
01000000
00001000
00010000
00100000
01000000
,
00010000
10000000
01000000
00100000
00010000
10000000
01000000
00100000
,
00010000
01000000
00000000
00100000
00001000
00000000
00011000
00000000
,
00010000
00000000
00000100
00000000
00000000
00000000
00000010
00000000
00001000
00000000
00000000
00000000
00000001
00000010
00000100
00001000
,
00000010
00010000
00001000
00000100
00000010
00010000
00001000
00000100
,
00010000
01000000
00001000
00100000
00010000
01000000
00001000
00100000
,
01000000
00010000
00001000
00100000
01000000
00010000
00001000
00100000
,
00001000
00010000
00000100
00010000
00001000
00000000
00000000
00000000
00011000
00000000
00000000
00000000
10000000
01000000
00100000
00010000
,
00100000
00001000
00010000
01000000
00100000
00001000
00010000
01000000
,
00100000
00001000
00010000
00000100
00000010
00001000
00010000
01000000
,
01100000
00000000
00000000
01100000
00000000
00000000
00100000
00000000
00001000
00000000
00010000
00000000
00000100
00001000
00000100
00001000
,
00000200
00000000
00000300
00020000
00000000
00030000
02000000
00000000
,
23000000
00000000
00100000
00000000
00010000
00000000
01000000
01000000
,
00000000
00010000
00010000
00000000
30100000
00010000
00001000
00000000
,
00000102
00000000
00000010
00000000
00001000
00000000
00000100
00000100
,
00000000
00001000
00001000
00000000
00000013
00001000
00010000
00000000
,
20100000
00000000
00010000
00000000
00100000
00000000
00010000
00010000
,
00000000
01000000
01000000
00000000
31000000
00010000
00001000
00000000
,
00000012
00001000
00000203
00002300
,
00020000
00000000
00000000
00033000
,
00010000
00000000
00001000
00010000
00000000
01000000
00010000
00001000
00010000
00001000
00010000
00001000
,
00000100
00000000
00000010
00000100
00000000
00000001
00000100
00000001
00000100
00000010
00001000
00000001
,
00000010
00000000
00000100
00000010
00000000
00000100
00001000
00000100
00001000
00000100
00001000
00000100
,
00010000
00000000
00001000
00010000
00000000
00001000
00010000
00100000
00010000
00100000
10000000
00100000
,
10000000
01000000
10000000
01000000
00100000
01000000
00100000
00010000
00100000
00010000
00001000
00010000
,
00001000
00000100
00001000
00000100
00000010
00000100
00000010
00000001
00000010
00000001
00001000
00000001
,
00000100
00001000
00000100
00001000
00010000
00001000
00010000
00100000
00010000
00100000
01000000
00100000
,
02000000
00000000
00000000
03000000
,
00010000
00100000
01000000
10000000
01000000
00100000
00010000
00100000
01000000
10000000
01000000
00100000
,
00010000
00100000
01000000
10000000
01000000
00100000
00010000
01000000
00001000
00010000
00000100
00001000
,
00000001
00000100
00000010
00001000
00000010
00000100
00000001
00000100
00000010
00001000
00000010
00000100
,
00000001
00000100
00000010
00001000
00000010
00000100
00001000
00010000
00001000
01000000
00010000
01000000
,
00100000
10000000
00010000
01000000
00010000
10000000
00100000
10000000
00010000
01000000
00010000
10000000
,
00100000
10000000
00010000
01000000
00010000
10000000
00100000
01000000
00001000
00010000
00000010
00001000
,
00000001
00000010
00000100
00001000
00000100
00000010
00000001
00000010
00000100
00001000
00000100
00000010
,
00000001
00000000
00000100
00000000
00001000
00000000
00010000
00001000
00010000
00200000
00000000
00000000
,
10300000
01000000
00010000
00001000
00010000
01000000
10000000
01000000
00010000
00001000
00010000
01000000
,
10000000
01000000
00010000
00001000
00010000
01000000
10000000
00010000
00100000
00001000
00010000
00000010
,
00010000
00001000
00000100
00000001
00000100
00001000
00010000
00001000
00000100
00000001
00000100
00001000
,
00010000
00000000
00010000
00100000
00000000
00100000
10000000
01000000
00100000
00010000
00001000
00000100
,
00000010
00000000
00000000
00001001
00000000
00000000
00000001
00000100
00001000
00010000
01000000
10000000
,
00100000
00000000
10000000
01000000
00010000
00001000
00000010
00000001
00000100
00001000
00010000
00100000
,
20000000
00000000
00000000
30000000
00020000
00000000
00000000
00030000
,
00002000
00000000
00000000
00000000
00003002
00000000
00000000
00000000
00001003
00000001
00001000
00000001
00000020
00000000
00000000
00000000
,
00000130
00010000
00001000
00100000
01000000
10000000
00100000
10000000
,
01000000
00100000
01000000
00100000
00010000
00000000
00000000
00000000
01000000
00010000
01000000
00001000
00010000
00001000
00100000
00000000
,
00010000
01000000
00001000
00010000
00000100
00000010
00000001
00001000
,
00000010
00000100
00000010
00000100
00000001
00000000
00000000
00000000
00000010
00000100
00001000
00000100
00010000
00001000
00010000
00000000
,
00000010
00001000
00010000
01000000
00100000
10000000
01000000
10000000
,
00100000
01000000
00100000
01000000
00010000
00000000
00000000
00000000
00100000
00010000
00100000
00001000
00010000
00000100
00010000
00000100
,
00010000
00000000
00001000
00000000
00000010
00000000
00000001
00000000
00000010
00000000
00001000
00000000
00010000
00001000
00010000
00000000
,
00001000
00000000
00010000
00000000
00100000
00000000
10000000
00000000
10010000
00000000
00000000
00000000
10000000
01000000
00100000
00010000
,
10000000
01000000
00010000
00001000
00000010
00000100
00010000
00000010
,
00000100
00000001
00000100
00000001
00001000
00000000
00000000
00000000
00000100
00001000
00000100
00010000
00001000
00100000
00001000
00000000
,
00010000
00100000
01000000
00010000
00100000
00001000
00010000
00000100
,
00001000
00000010
00000100
00000010
00001000
00000000
00000000
00000000
00001001
00000000
00000000
00000000
00000001
00000010
00000100
00001000
,
00000001
00000100
00000010
00001000
00010000
01000000
00100000
10000000
,
01000000
00100000
00010000
00001000
00000100
00000010
00000001
00001000
,
00001010
00000000
00000000
00011000
00000000
00000000
01010000
00000000
01000000
00000000
00010000
00000000
00100000
01000000
00100000
01000000
,
10000000
00000000
00010000
01000000
00001000
00010000
00001000
00000000
00010000
00000100
00001000
00000100
00000010
00000001
00000010
00000001
,
00002000
00000000
00000000
00000000
,
00013000
00000000
00000000
00000000
;
