#TITLE:しっくおぶはうす!;
#SUBTITLE:;
#ARTIST:オゾン feat. 鏡音リン・レン;
#TITLETRANSLIT:Sick of House!;
#SUBTITLETRANSLIT:;
#ARTISTTRANSLIT:OZON feat. Kagamine Rin & Len;
#GENRE:;
#CREDIT:;
#MUSIC:Sick of House.ogg;
#BANNER:Sick of House.png;
#BACKGROUND:Sick of House-bg.png;
#CDTITLE:;
#SAMPLESTART:40.013;
#SAMPLELENGTH:10.941;
#SELECTABLE:YES;
#OFFSET:-0.484;
#BPMS:0.000=170.000
,207.000=340.000
,208.000=170.000
;
#STOPS:207.000=0.044
,207.250=0.044
,207.500=0.044
,207.750=0.044
;
#DISPLAYBPM:170.000;
#ORIGIN:;
#PREVIEWVID:;
#JACKET:Sick of House-jacket.png;
#CDIMAGE:;
#DISCIMAGE:;
#BGCHANGES:-1.371=Sick of House.avi=1.000=1=0=0=StretchNoLoop==CrossFade==,
99999.000=-nosongbg-=1.000=0=0=0=StretchNoLoop====
;
#FGCHANGES:;

//--------------- dance-single - ----------------
#NOTES:
     dance-single:
     :
     Beginner:
     4:
     0.245184,0.347344,0.138938,0,0,210,193,17,0,0,0,0,0,0,0.245184,0.347344,0.138938,0,0,210,193,17,0,0,0,0,0,0:
0000
0000
0000
0000
,
0000
0000
0000
0000
,
0000
0000
0000
0000
,
0000
0000
0000
0000
,
0001
0000
0001
0000
,
1000
0000
1000
0000
,
0100
0000
0100
0000
,
0010
0000
0010
0000
,
0001
0000
0001
0000
,
1000
0000
1000
0000
,
0010
0000
0010
0000
,
0100
0000
0100
0000
,
0001
0000
0100
0000
,
1000
0000
0100
0000
,
0001
0000
0100
0000
,
1000
0000
0100
0000
,
0001
0000
0010
0000
,
1000
0000
0010
0000
,
0001
0000
1000
0000
,
1001
0000
0000
0000
,
1000
1000
1000
0000
,
0100
0100
0100
0000
,
0010
0010
0010
0000
,
0001
0001
0001
0000
,
1000
1000
1000
0000
,
0010
0010
0010
0000
,
0100
0100
0100
0000
,
0001
0000
0001
1000
,
0001
0000
0001
0000
,
1001
1001
1001
0000
,
1000
0000
1000
0000
,
0100
0100
0100
0000
,
0010
0000
0001
0000
,
1000
0000
0010
0000
,
0100
0000
0001
0000
,
1000
1000
1000
0000
,
1000
0001
1000
0000
,
1001
1001
1001
0000
,
0001
0000
0001
0000
,
0100
0100
0100
0000
,
0010
0000
1000
0000
,
0001
0000
0010
0000
,
0100
0000
1000
0000
,
0001
0001
0001
1000
,
1001
0000
0000
0000
,
0000
0000
0000
0000
,
0000
0000
0000
0000
,
0000
0000
0000
0000
,
0100
0000
0000
0000
,
0100
0000
0000
0000
,
0100
0000
0000
0000
,
0010
0000
0010
0000
,
1001
1000
0001
0000
,
0001
1000
0001
1000
,
1001
0001
1000
0000
,
1000
0001
1000
0000
,
0110
0010
0100
0000
,
0010
0100
0010
0010
,
0110
0100
0010
0000
,
0100
0010
0100
0000
,
1000
0000
1000
0000
,
0001
0000
0001
0000
,
0100
0000
0100
0000
,
0010
0000
0010
0000
,
0001
0000
0001
0000
,
1000
0000
1000
0000
,
0100
0100
0100
0100
,
0100
0000
0000
0000
,
1000
0001
1000
0000
,
1001
1001
1001
0000
,
1000
1000
0100
0000
,
0001
0001
0100
0000
,
0001
1000
0001
0000
,
1000
0001
1000
0000
,
0100
0010
0100
0000
,
0010
0100
0010
0010
,
0100
0010
0100
0100
,
0110
0000
0000
0000
,
1001
0000
0000
0000
,
1000
0000
1000
0000
,
0001
0000
0001
0000
,
1000
0001
1000
0000
,
0001
1000
0001
0000
,
0100
0010
0100
0000
,
0010
0100
0010
0010
,
0010
0000
0000
0000
;

//--------------- dance-single - ----------------
#NOTES:
     dance-single:
     :
     Easy:
     7:
     0.32341,0.450883,0.220666,0.441332,0,277,250,27,54,0,0,0,0,0,0.32341,0.450883,0.220666,0.441332,0,277,250,27,54,0,0,0,0,0:
0000
0000
0000
0000
,
0000
0000
0000
0000
,
0000
0000
0000
0000
,
0000
0000
0000
0000
,
1000
1000
0002
0003
,
0001
0001
2000
3000
,
0100
0100
0020
0030
,
0010
0010
0100
0100
,
1001
0001
0200
0300
,
0100
0010
2000
3000
,
0100
0100
0020
0030
,
0001
2000
0000
0000
0002
0000
3003
0000
,
1100
1000
1000
0100
,
1000
1000
0020
0030
,
0101
0001
0100
0100
,
0001
0001
0020
0032
,
1003
0100
0010
0001
,
1000
0010
0100
0001
,
2000
0000
0000
0100
0000
0100
0000
3001
,
0000
0000
0000
0000
,
0002
0000
0000
0203
0000
0000
0320
0000
,
0000
2030
0000
0000
3001
0000
1000
0000
,
0002
0000
0000
0023
0000
0000
0230
0000
,
0000
2300
0000
0000
3001
0000
1000
0000
,
0200
0000
0000
0320
0000
0000
0032
0000
,
0000
2003
0000
0000
3010
0000
0010
0000
,
1000
0000
0000
0000
0001
0000
0000
1001
,
0000
1000
0001
1000
0001
0000
0000
0000
,
1001
0000
1000
0000
0100
0000
0010
0001
,
0000
0011
0000
0011
0000
0001
2000
0000
,
3010
0010
0100
0100
,
0001
0000
0010
0000
0100
0000
1000
0002
,
0000
0003
1000
0000
0010
0000
1000
0000
,
0000
1000
0100
1000
,
0000
0000
0001
0000
0100
0000
0001
1000
,
0000
0200
0000
0000
0300
0000
1000
0000
,
1001
0000
0001
0000
0100
0000
0010
1000
,
0000
1010
0000
1010
0000
1000
0002
0000
,
0013
0010
0100
0100
,
1000
0000
0010
0000
0100
0000
0001
2000
,
0000
3000
0001
0000
0010
0000
0001
0000
,
0000
0001
0100
0001
,
0000
0000
1000
0000
0100
0000
1000
0001
,
0000
0020
0000
0000
0030
0000
0001
0000
,
2002
0000
0000
0000
,
0000
0000
0000
0000
,
3003
0000
0000
0000
,
0000
0000
0000
0000
,
2000
0000
0000
0100
0000
0000
0000
0000
,
3002
0000
0000
0100
0000
0000
0000
0000
,
1003
1000
0001
0001
,
1000
0001
1000
0001
2000
0000
0000
0000
,
3000
0010
0010
0000
,
0100
0100
0010
0220
,
0330
0001
0001
0000
,
1000
1000
0001
2002
,
3003
1000
0100
0000
,
0010
0010
0001
2000
,
3000
0010
0010
0000
,
0100
0100
0001
1000
,
1001
0000
1100
0000
,
1001
0000
0101
0000
,
1001
0000
0110
0000
,
1001
0000
0001
1000
,
0002
0000
0203
0000
,
0320
0000
2030
0000
,
3002
0000
0000
0000
0023
0000
0130
0100
,
0000
0000
0000
0000
,
2001
0000
3010
0000
0100
0000
0010
0100
,
0000
0110
0000
0110
0000
0000
1001
0000
,
1000
1000
0100
0100
,
0010
0001
1000
0020
,
0000
1030
0100
1000
,
0000
0001
0100
0001
,
1000
0000
0001
0000
1000
0000
0001
1000
,
0000
0100
0000
0000
0100
0000
0000
0100
,
0000
0010
0000
0000
0010
0000
0000
0010
,
0001
0001
2000
3000
,
1000
1000
0002
0003
,
0001
0100
0002
0003
,
1000
0010
1000
1000
,
0001
0010
0002
0003
,
1000
0100
2000
3000
,
0010
0100
0020
0030
,
0000
0110
0000
0000
0110
0000
0000
1001
;

//--------------- dance-single - ----------------
#NOTES:
     dance-single:
     :
     Medium:
     10:
     0.498541,0.52025,0.220666,0.547578,0.049037,427,400,27,67,0,0,0,0,0,0.498541,0.52025,0.220666,0.547578,0.049037,427,400,27,67,0,0,0,0,0:
0000
0000
0000
0000
,
0000
0000
0000
0000
,
0000
0000
0000
0000
,
0000
0000
0000
0000
,
1000
0100
1000
0000
,
0001
0100
0001
0000
,
1000
0010
1000
0000
,
0001
0000
0010
0000
0000
0010
0000
0000
0100
0000
0000
0100
0000
0000
0100
0000
,
1000
0000
0001
0000
0100
0001
0100
0000
,
0001
0000
1000
0000
0100
1000
0100
0000
,
0010
0000
0001
0000
0010
0001
0010
0000
,
0002
2003
3020
0230
,
0301
0000
0001
0100
0010
0000
0010
1000
,
0002
0000
0023
0000
0130
0100
0000
0000
,
1000
0010
0100
0000
0010
0100
0001
0000
,
1000
0001
1000
0001
0020
0000
0032
0000
,
1003
0100
0010
0000
0010
0100
1000
0000
,
0001
0100
0010
0100
0001
0000
0101
0000
,
1001
0000
1000
0001
0000
0001
1000
0002
,
0000
0103
0100
0000
0010
0010
0000
1000
,
0001
0000
1000
0100
0000
1000
0010
0000
,
1000
0001
0000
0100
0010
0000
0100
0001
,
1000
0000
0001
0100
0000
0001
0010
0010
,
0001
1000
0000
0001
0010
0100
1000
0000
,
0010
0000
0100
0010
0000
1000
0010
0000
,
0100
0010
0000
0100
0001
1000
0100
0010
,
0001
0000
1000
0000
0010
0000
0100
0100
,
0000
0001
1000
0001
1000
0000
0110
0000
,
2001
0000
3200
0000
0302
0000
0103
0010
,
0000
0110
0000
1001
0000
1000
0001
0001
,
0100
0010
1000
0000
0001
0010
0100
0000
,
1000
0010
1000
0010
0100
0001
0100
0001
,
1000
0002
0203
2300
,
3200
0302
0023
2030
,
3010
0001
0010
0000
0001
0100
0001
1000
,
0000
0000
1001
0000
0000
0110
0000
0000
2001
0000
0000
0000
0100
0000
0000
0000
,
3002
0000
0203
0000
2300
0000
3100
0010
,
0000
0110
0000
1001
0000
0001
1000
1000
,
0100
0010
0001
0000
1000
0010
0100
0000
,
0001
0010
0001
0010
0100
1000
0100
1000
,
0001
2000
3200
0302
,
0203
2300
3020
0032
,
0013
1000
0010
0000
1000
0100
1000
0001
,
0000
0000
1001
0000
0000
0110
0000
0000
1002
0000
0000
0000
0100
0000
0000
0000
,
0013
0000
0000
0000
,
0000
0000
0000
0000
,
0200
0000
0000
0000
,
0000
0000
0000
0300
,
2001
0000
0000
0000
0000
0000
0100
0000
0000
0000
0100
0000
0000
0100
0000
0000
,
0100
0000
0000
0000
0000
0000
0100
0000
0000
0000
0100
0000
0000
0100
0000
0000
,
3001
0001
1000
1000
,
0010
0100
0010
1000
0001
1000
0200
0000
,
0310
0000
0110
0000
1001
0000
0001
0100
,
0000
0100
0000
0100
0000
0100
0010
1000
,
0100
0000
0110
0000
1001
0000
0001
0010
,
0000
0010
0000
0010
0000
0010
0100
1000
,
0001
0000
0101
0000
1001
0000
0001
0100
,
0000
0100
0000
0100
0000
0100
0010
1000
,
0100
0000
1100
0000
1001
0000
1000
0001
,
0000
0001
0000
0001
0000
0001
0200
0000
,
0320
0000
0230
0000
2300
0000
3100
0001
,
0000
0001
1000
0001
1000
0100
0020
0000
,
0031
0000
2000
0000
3020
0000
0031
0010
,
0000
0010
1000
0001
0020
0000
0230
0000
,
2300
0000
3002
0000
0203
0000
1300
0100
,
0000
0100
0001
1000
0001
1000
0020
0000
,
0230
0000
0302
0000
0023
0000
0031
0100
,
0000
0001
0010
0001
1000
0000
0000
0000
,
1002
0000
0023
0000
2030
0000
3010
0100
,
0000
0110
0000
1001
0000
0001
1000
1000
,
0001
0100
0001
0000
1000
0100
1000
0000
,
0001
0010
0001
0010
0100
1000
0100
1000
,
0020
2030
3200
0302
,
0203
2300
3020
0032
,
0023
0000
1030
0001
1000
0001
0100
0001
,
0000
0000
1000
0000
0000
0100
0000
0000
0010
0000
0000
0001
0000
0000
2000
0000
,
0000
0000
3010
0000
0000
0100
0000
0000
0001
0000
0000
1000
0000
0000
0001
0000
,
0010
0000
0100
0000
1000
0100
1000
0000
,
0001
0000
0100
0000
0010
0100
0010
0000
,
0100
0000
0001
0000
0010
0100
0010
0000
,
0002
2003
3020
0230
,
0301
0000
1000
0000
0100
0010
0100
0000
,
1000
0000
0010
0000
0100
0010
0100
0000
,
0010
0000
1000
0000
0001
1000
0001
1000
,
0000
0000
0010
0000
0000
0010
0000
0000
0100
0000
0000
0100
0000
0000
1001
0000
;

//--------------- dance-single - ----------------
#NOTES:
     dance-single:
     :
     Hard:
     14:
     0.678343,0.72835,0.433159,0.539405,0.310567,581,528,53,66,0,0,0,0,0,0.678343,0.72835,0.433159,0.539405,0.310567,581,528,53,66,0,0,0,0,0:
0000
0000
0000
0000
,
0000
0000
0000
0000
,
0000
0000
0000
0000
,
0000
0000
0000
0000
,
1000
0000
0001
0000
0100
0002
0000
0000
0013
0100
0000
0010
0000
0000
0001
1000
,
0001
0100
0010
1000
0001
0100
1000
1000
,
0100
0000
0010
0000
1000
0100
0000
0000
0010
0100
0000
1000
0000
0000
1001
0000
,
0000
0000
2000
3000
0000
0020
0030
0000
2000
3000
0000
0001
0020
0000
0000
0000
,
0130
0000
0001
0000
0100
0000
1000
0000
0010
0100
0000
0001
0000
0000
0010
0100
,
0010
0000
0001
0000
1000
0000
0010
0000
0100
0001
0000
0001
0100
0000
0010
0000
,
1000
0000
0001
0000
0100
0000
1000
0000
0100
0010
0000
1000
0000
0000
0001
0000
,
0000
0000
1010
0000
0000
1100
0000
0000
0101
0000
0000
0011
0000
0000
0001
0000
,
2000
0000
3001
0100
0002
0000
1003
1000
,
0100
0010
0001
0000
1000
0020
0000
0130
,
0001
0001
2000
0000
3100
0010
0100
1000
,
0001
0100
1000
0100
0002
0000
2003
0000
,
3001
0010
1000
0010
0200
0000
1300
0010
,
1000
0010
0001
0010
0200
0000
0301
0010
,
0100
0000
0000
0000
0010
0000
0001
2000
0000
0000
3020
0000
0000
0000
0130
0000
,
0000
0010
1000
0000
1000
0000
0100
0000
0000
0010
0001
0000
0001
0000
1000
0000
,
2020
3030
1000
2002
3003
0010
0022
0033
,
1000
2200
3300
0001
0001
0000
1000
0010
,
0220
0330
0100
0202
0303
0001
0001
1000
,
0100
0220
0330
0010
0001
0100
1000
0100
,
0202
0303
0001
0022
0033
1000
2020
3030
,
0010
2002
3003
1000
0100
0100
0010
0001
,
0100
0010
2000
0000
3002
0000
0013
0100
,
0000
1000
0100
0001
0200
0000
0320
0000
,
0031
0000
0100
0000
1000
0000
0100
0000
0001
0000
0000
0020
0000
0000
1000
0000
,
0000
0001
0000
1000
0000
0031
1000
0010
,
1000
0000
0100
0000
0001
0000
0100
0000
1000
0000
0000
0020
0000
0000
0001
0000
,
0000
0000
1030
0000
0100
0000
0020
0000
0000
0000
0031
0000
1000
0001
1000
0000
,
0000
0000
0000
0000
0001
0000
0100
0000
0010
0000
0000
0100
0001
0000
0010
0000
,
0000
0100
1000
0010
0000
0100
0001
1000
,
0000
0000
0100
0000
0010
0000
0100
0000
1000
0000
0000
0001
0000
0000
0100
0000
,
0000
0000
0101
0000
0000
0011
0000
0000
0101
0000
0000
1000
0100
0000
0010
0000
,
0001
0000
0010
0000
1000
0000
0010
0000
0001
0000
0000
0200
0000
0000
1000
0000
,
0000
0001
0000
1000
0000
0301
0010
0100
,
1000
0000
0010
0000
0001
0000
0010
0000
1000
0000
0000
0200
0000
0000
0001
0000
,
0000
0000
1300
0000
0001
0000
0200
0000
0000
0000
0310
0000
1000
0001
2000
0000
,
0000
0000
0000
0000
3100
0000
0010
0000
0100
0000
0000
1000
0000
0000
0010
0000
,
0000
0100
0001
0020
0000
0130
1000
0001
,
0200
0000
0000
0000
0310
0000
1000
0000
0001
0000
0000
0010
0000
0000
0100
0000
,
0000
0000
1100
0000
0000
1010
0000
0000
1100
0000
0000
0000
0102
0000
0000
0000
,
0013
0100
0010
0000
0001
1000
0001
0000
,
1000
0010
1000
0001
0010
0100
0010
0000
,
0001
0100
0001
0000
1000
0100
1000
0000
,
0010
0000
0100
0000
0010
0000
1000
0000
0001
0000
0010
0000
0100
0000
0000
0010
,
0001
0000
0000
0000
1000
0000
1010
0000
0000
0000
0011
0000
0000
1001
0000
0000
,
0101
0000
0000
0000
0010
0000
1001
0000
0000
0000
1100
0000
0000
1010
0000
0000
,
0011
0010
1000
0010
0001
0010
1000
0010
,
0100
0000
1000
0000
0010
0000
1000
0000
0100
0000
0010
0000
0001
1000
0001
1000
,
0002
0000
0203
0010
0301
0000
1000
0100
,
0001
0100
1000
0100
0010
0001
0100
0100
,
0000
0000
0020
0100
1030
0000
0001
0100
,
1000
0100
1000
0100
0001
0010
0100
0100
,
2000
0000
3002
0010
1003
0000
0001
0010
,
1000
0010
0001
0010
0100
1000
0010
0010
,
0000
0000
0200
0010
0301
0000
1000
0010
,
0001
0000
0010
0000
0000
0110
0000
0000
1001
0000
1000
0000
0200
0000
0000
0000
,
0320
0000
0000
0000
0130
0000
0000
0000
1000
0000
0000
0001
0000
0000
0101
0000
,
0000
0010
1000
0000
1000
0000
0100
0000
0001
0000
0100
0000
1000
0000
0001
0000
,
0100
0000
0000
0000
2001
0000
0000
0000
3100
0000
0000
0010
0000
0000
0110
0000
,
0000
0010
0001
0000
1000
0000
0010
0000
0001
0000
0010
0000
0010
0000
0100
0000
,
0001
0000
0000
0000
1000
0000
0000
0000
0001
0000
0000
0010
0000
0000
0012
0000
,
0000
0000
0103
0000
0100
0000
0010
0000
1000
0000
0001
0100
0001
0000
1000
0000
,
0100
0000
0000
0000
1100
0000
0000
0000
0011
0000
0000
1010
0000
0000
1001
0000
,
0000
0000
0000
0000
,
1000
0000
0100
0000
0001
0000
1000
0000
0010
0000
0000
0200
0000
0000
0001
0000
,
0000
1000
0000
0001
0000
1300
0001
0010
,
0001
0000
0100
0000
1000
0000
0001
0000
0010
0000
0000
0200
0000
0000
1000
0000
,
0000
0000
0301
0000
0100
0000
0020
0000
0000
0000
0130
0000
0001
1000
0001
0000
,
0000
0000
0000
0000
1000
0000
0100
0000
0010
0000
0000
0100
1000
0000
0010
0000
,
0000
0100
0001
0010
0000
0100
1000
0001
,
0200
0000
0000
0000
0310
0000
0100
0000
0001
0000
0000
1000
0000
0000
0100
0000
,
0000
0000
1100
0000
0000
1010
0000
0000
0011
0000
0000
0001
0100
0000
0010
0000
,
1000
0000
1010
0000
0000
1100
0000
0000
0101
0000
0000
0001
0010
0000
0100
0000
,
1000
0000
0100
0000
0001
0000
0100
0000
0010
0001
0000
1000
0000
0000
0001
0000
,
1000
0000
0010
0000
0001
0000
0010
0000
0100
0001
0000
1000
0100
0000
0010
0100
,
0010
0000
0000
0000
0001
0000
0100
0000
1000
0000
0000
0100
0000
0000
0010
0000
,
1000
0000
0100
0000
0000
0110
0000
0000
0100
0000
1000
0001
0000
0100
0010
0000
,
2000
0000
0000
0000
3001
0010
0000
0000
0100
0000
0010
0001
0000
0000
1000
0000
,
0000
0001
0100
0000
0010
1000
0000
0000
0001
0010
0001
0010
0000
0000
0100
0000
,
1000
0000
0010
0000
1000
0001
0000
0000
0100
0010
0000
0100
0000
0000
0010
0000
,
1000
0000
1010
0000
0000
1100
0000
0000
0101
0000
0000
0011
0000
0000
1001
0000
;

//--------------- dance-single - ----------------
#NOTES:
     dance-single:
     :
     Challenge:
     16:
     0.862815,0.87448,0.310567,0.457677,0.637479,739,701,38,56,36,0,0,0,0,0.862815,0.87448,0.310567,0.457677,0.637479,739,701,38,56,36,0,0,0,0:
0000
0000
0000
0000
,
0000
0000
0000
0000
,
0000
0000
0000
0000
,
0000
0000
0000
0000
0000
0000
0000
0000
0000
0000
0000
0000
1000
0001
1000
0001
,
0010
0000
0001
0000
0100
0001
0100
0000
0010
1000
0010
1000
0000
0000
0001
1000
,
0100
0000
0010
0000
0001
0100
0001
0000
1000
0001
0010
0100
1000
0000
0001
0000
,
0010
0000
0001
0000
0100
0010
0100
0000
0001
0100
0010
2000
0000
0000
3001
0000
,
0000
0000
0011
0000
0000
1010
0000
0000
0101
0000
0000
1000
0020
0000
1030
0000
,
0100
0000
0001
0000
0100
0000
1000
0000
0001
0010
0001
0010
0000
0000
0100
0000
,
1000
0000
0010
0000
0100
1000
0100
0000
0010
1000
0001
0020
0000
0000
0130
0000
,
1000
0000
0010
0000
0100
0001
0100
0000
0010
1000
0100
0002
0000
0000
0103
0000
,
1000
0000
0001
0000
0010
0100
0000
1000
0010
0000
0100
0001
0000
1000
0001
0000
,
0010
0000
0001
1000
0010
0000
1000
0100
,
1000
0001
0010
0000
0100
0110
1001
0001
,
0100
0001
0020
0000
0130
0100
1000
0010
,
0100
0001
0100
0000
0010
0000
1000
0000
0001
0010
0001
0000
1000
0000
0001
0000
,
1000
0100
0001
0100
2000
0000
3010
0010
,
0100
1000
0100
0001
0010
0110
1001
0001
,
0100
0000
0000
0000
0001
0000
1000
0200
0000
0000
0310
0000
0100
0000
1000
0000
,
0001
1000
0010
0000
0010
0000
1000
0000
0001
1000
0100
0000
0100
0000
1000
0000
,
0002
0000
0203
0010
0000
0302
0010
0000
,
0203
0000
0010
0000
0000
0000
0301
0000
1000
0001
1000
0000
0001
0000
0020
0000
,
0100
0000
0032
0100
0000
0023
0130
0100
,
1000
1100
1001
0100
0010
0110
1001
1000
,
0020
0000
0230
1000
0000
0320
0001
0000
,
0230
0000
1000
0000
0000
0000
0310
0000
1000
0001
1000
0000
0100
0000
0100
0000
,
0010
0001
0200
0000
0320
0000
1030
1100
,
0000
0000
0001
0000
0010
0000
0100
0000
1001
0000
0000
0000
1000
0100
1000
0100
,
1000
0010
0001
0010
1000
0001
0100
1010
,
MMMM
1100
MMMM
1010
MMMM
1100
0001
0010
,
0001
0100
1000
0100
0001
0010
0100
1000
,
0010
0100
1000
0000
0100
0000
0001
0000
0010
0100
0001
0000
0100
1000
0020
0000
,
0030
0000
0000
0000
1001
0000
1000
0000
0010
0000
0100
0010
0000
0100
0001
0000
,
0010
0000
0001
0000
0100
0000
0010
0000
1000
0001
1000
0000
0100
0000
0020
0000
,
0000
0000
0130
0000
0001
0000
0100
0000
1000
0000
0001
1000
0000
1000
0020
0000
,
0000
1030
0100
0000
0001
0100
0000
1000
0100
0000
0010
0001
1000
0001
0100
0010
,
1000
0100
0001
0100
1000
0001
0010
0101
,
MMMM
0011
MMMM
0101
MMMM
0011
1000
0100
,
1000
0010
0001
0010
1000
0100
0010
0001
,
0100
0010
0100
0000
0001
0000
0010
0000
0100
0001
0100
0000
0010
0001
2000
0000
,
0000
0000
0000
0000
3010
0000
0100
0000
0001
0000
0100
0010
0000
0100
0001
0000
,
1000
0000
0100
0000
0100
0000
0001
0000
0100
0010
0100
0000
1000
0000
0010
0000
,
0200
0000
0000
0000
1300
0000
0100
0000
0001
0000
1000
0100
0000
0010
0002
0000
,
0000
1003
0100
0000
0001
0100
0000
1000
0100
0000
0010
0001
1000
0010
0100
0001
,
1000
0000
0100
0010
0100
0000
1000
0000
0001
0000
0100
0010
0100
0000
0001
0000
,
1000
0000
0010
0100
0010
0000
1000
0000
0001
0010
0001
1000
0001
0100
0010
1000
,
0100
0000
0010
0001
0010
0000
0100
0000
1000
0000
0001
0100
0001
0000
1000
0000
,
0100
0000
1000
0010
1000
0000
0001
0000
1000
0000
0010
0100
0000
0010
0100
0001
,
0010
0000
0000
0000
0100
0000
0110
0000
0000
1000
0001
0000
0100
0010
0000
1000
,
0100
0000
0000
0000
0010
0000
0110
0000
0000
0001
1000
0000
0001
0010
0000
0100
,
1000
0000
0001
0100
0010
0000
1000
0100
0010
0000
0001
0100
0010
0000
1000
0001
,
0010
0000
0100
0000
0100
0000
1000
0000
0010
0000
0010
0000
1000
0001
1000
0001
,
1000
0010
2000
0100
3001
0010
0100
2000
,
0010
3001
0010
0100
1000
0010
0110
2002
,
0003
0000
3002
0100
1003
0100
0010
0002
,
0010
2003
0010
3001
0010
0100
1000
0020
,
0000
0000
0230
0001
0310
1000
0001
0020
,
0100
0031
0010
0100
1000
0010
0110
0202
,
0003
0000
0320
0100
1030
0001
0010
0200
,
0010
0000
1300
0000
0001
0100
0000
0001
0010
0100
1000
0010
0100
0000
0001
0000
,
1001
0000
0000
0000
1100
0000
0000
0000
0011
0000
0000
1000
0010
0000
0100
0001
,
1000
0000
0100
0000
0100
0000
0010
0001
1000
0000
0010
0100
0000
0010
0100
0000
,
0001
0000
0010
0000
1000
0000
0010
0000
0100
0000
1000
0001
0000
0001
0100
0000
,
0010
2000
3020
0032
2003
3200
0302
0023
,
0031
0000
0100
0000
1000
0000
0100
0000
0001
0000
1000
0100
0000
0100
0020
0000
,
0000
0031
1000
0100
0001
1000
0010
0001
,
1000
0001
1000
0001
0100
0010
0100
0010
1000
0001
0010
0100
1000
0010
0100
0000
,
0000
0000
0000
0000
,
2001
3100
0001
0100
1000
0010
0100
1001
,
MMMM
0110
MMMM
1001
MMMM
0110
0001
1000
,
0010
0001
0010
1000
0100
0010
0001
1000
,
0010
0100
0010
0000
1000
0000
0100
0000
1000
0001
0010
0000
0001
0100
2000
0000
,
0000
0000
0000
0000
3100
0000
0010
0000
1000
0000
0001
0100
0000
0010
1000
0000
,
0100
1000
0010
0002
0000
0013
0100
0001
,
0020
0000
0000
0000
0130
0000
1000
0000
0001
0000
0000
0011
0000
0000
1001
0000
,
0000
1000
0100
0000
0001
0100
0000
1000
0100
0000
0001
0100
0000
1000
0100
0000
,
0000
1000
0010
0000
0001
0010
0000
1000
0010
0000
0001
0010
0100
0000
0001
0000
,
1000
0000
0100
0000
0010
0001
1000
0000
0001
1000
0010
0002
0000
0000
0013
0000
,
1000
0000
0100
0000
0001
0100
0010
0000
0001
1000
0001
0100
0010
0000
0010
1000
,
0100
0000
0010
0000
0001
0100
0001
0000
1000
0010
0000
0010
0100
0000
0001
1000
,
0001
0010
0001
0000
0010
0100
0010
0000
0100
1000
0100
0000
1000
0001
0100
0020
,
0000
0000
0000
0000
0130
1000
0100
0000
0010
1000
0100
0010
0000
0100
0001
0000
,
0100
0000
1000
0001
0100
0010
1000
0000
0100
1000
0100
0010
0000
0001
0100
0000
,
0010
0000
0001
0000
0010
0100
0010
0000
1000
0100
0010
0001
0000
0100
0010
0000
,
0000
1000
0010
0000
0100
0001
0000
0010
0100
0000
1000
0001
0000
0000
0200
0000
,
0020
0000
0000
0000
0000
0000
0000
0000
0000
0000
0000
0000
0000
0000
0000
0000
0000
0000
0000
0000
0000
0000
0000
0000
0000
0000
0000
0000
0000
0000
0000
0000
0000
0000
0000
0000
0000
0000
0000
0000
0000
0000
0000
0000
0000
0000
0000
0000
0030
0000
0000
0000
0000
0000
0000
0000
0000
0000
0000
0000
0000
0000
0000
0000
0000
0000
0000
0000
0000
0000
0000
0000
0000
0000
0000
0000
0000
0000
0000
0000
0000
0000
0000
0000
0000
0000
0000
0000
0000
0000
0000
0000
0000
0000
0000
0000
0000
0000
0000
0000
0000
0000
0000
0000
0000
0000
0000
0000
0000
0000
0000
0000
0000
0000
0000
0300
0000
0000
0000
0000
0000
0000
0000
0000
0000
0000
0000
0000
0000
0000
0000
0000
0000
0000
0000
0000
0000
0000
0000
0000
0000
0000
0000
0000
0000
0000
0000
0000
0000
0000
0000
0000
0000
0000
0000
0000
0000
0000
0000
0000
0000
0000
0000
0000
0000
0000
0000
0000
0000
0000
0000
0000
0000
0000
0000
0000
0000
0000
0000
0000
0000
0000
0000
0000
0000
0000
0000
0000
0000
0000
0000
0000
;
