#VERSION:0.83;
#TITLE:終点;
#SUBTITLE:;
#ARTIST:cosMo@暴走P;
#TITLETRANSLIT:Shuuten;
#SUBTITLETRANSLIT:;
#ARTISTTRANSLIT:cosMo@BousouP;
#GENRE:;
#CREDIT:;
#MUSIC:Shuuten.ogg;
#BANNER:Shuuten.png;
#BACKGROUND:;
#CDTITLE:;
#SAMPLESTART:58.173;
#SAMPLELENGTH:15.000;
#SELECTABLE:YES;
#OFFSET:-0.065;
#BPMS:0.000=222.000;
#STOPS:;
#SPEEDS:0.000=1.000=0.000=0;
#SCROLLS:0.000=1.000;
#TICKCOUNTS:0.000=4;
#TIMESIGNATURES:0.000=4=4;
#LABELS:0.000=Song Start;
#COMBOS:0.000=1;
#ORIGIN:;
#PREVIEWVID:;
#JACKET:Shuuten-jacket.png;
#CDIMAGE:;
#DISCIMAGE:;
#BGCHANGES:;
#FGCHANGES:;

//--------------- dance-single - ----------------
#NOTEDATA:;
#STEPSTYPE:dance-single;
#DESCRIPTION:;
#DIFFICULTY:Beginner;
#METER:6;
#RADARVALUES:0.252596,0.355172,0.030751,0.09994,0,230,226,4,13,0,0,0,0,0,0.252596,0.355172,0.030751,0.09994,0,230,226,4,13,0,0,0,0,0;
#CHARTNAME:;
#CHARTSTYLE:;
#CREDIT:;
#NOTES:
0000
0000
0000
0000
,
0000
0000
0000
0000
,
0000
0000
0000
0000
,
0000
0000
0000
0000
,
0000
0000
0000
0000
,
0000
0000
0000
0000
,
0000
0000
0000
0000
,
0000
0000
0000
0000
,
0000
0000
0000
0000
,
0000
0000
0000
0000
,
0001
0000
0001
0000
,
1000
0000
1000
0000
,
0001
0000
1000
0000
,
0001
0000
1000
0000
,
0100
0000
0100
0000
,
0100
0000
0100
0000
,
1000
0000
0010
0000
,
0001
0000
0010
0000
,
2000
0000
3000
0000
,
0020
0000
0030
0000
,
0200
0000
0300
0000
,
0002
0000
0003
0000
,
1000
0000
1000
0000
,
0010
0000
0010
0000
,
0100
0000
0100
0000
,
0001
0001
0001
0000
,
0001
0000
0001
0000
,
0010
0000
0010
0000
,
0100
0000
0100
0000
,
1000
1000
1000
0000
,
0001
0000
1000
0000
,
0100
0100
0000
0000
,
1000
0000
0001
0000
,
0100
0100
0000
0000
,
0001
0000
0010
0000
,
0100
0000
1000
0000
,
0010
0000
0100
0000
,
0001
0000
0001
0001
,
0001
0000
0100
0000
,
0010
0000
1000
1000
,
1000
0000
0100
0000
,
1000
0000
0010
0010
,
0010
0000
0100
0000
,
0001
0000
0010
0010
,
0010
0000
0001
0000
,
0100
0000
0010
0000
,
0220
0000
0330
0000
,
2002
0000
3003
0000
,
0220
0000
0330
0000
,
2002
0000
3003
0000
,
1000
0000
1000
0000
,
0100
0000
0100
0000
,
0010
0000
0010
0000
,
0001
0000
0000
0000
,
1000
0000
0010
0000
,
0100
0000
0100
0000
,
0001
0001
0001
0000
,
2002
0000
3003
0000
,
1000
0000
0100
0000
,
1000
0000
0010
0000
,
0100
0000
0100
0000
,
0010
0000
0000
0000
,
1000
0000
0100
0000
,
0010
0000
0001
0000
,
1000
1000
1000
0000
,
2002
0000
3003
0000
,
0001
0000
0100
0000
,
1000
0000
0100
0000
,
0001
0000
1000
0000
,
1001
0000
0000
0000
,
2000
0000
3000
0000
,
0200
0000
0300
0000
,
0002
0000
0003
0000
,
0020
0000
0030
0000
,
2000
0000
3000
0000
,
0200
0000
0300
0000
,
0002
0000
0003
0000
,
0020
0000
0030
0000
,
1000
0000
0001
0000
,
0100
0100
0100
0000
,
0001
0000
1000
0000
,
0100
0100
0100
0000
,
1000
0000
0010
0000
,
0001
0000
0010
0000
,
1000
0000
0010
0000
,
1000
1000
1000
0000
,
0100
0000
0100
0000
,
0010
0000
0010
0000
,
0001
0001
0001
0000
,
2002
0000
3003
0000
,
1000
0000
0010
0000
,
1000
0000
0001
0000
,
0010
0000
0001
0000
,
0200
0000
0000
0000
,
0300
0000
0000
0000
,
0001
0000
0001
0000
,
1000
0000
1000
0000
,
0001
0000
1000
0000
,
0001
0000
1000
0000
,
0010
0000
0010
0000
,
0010
0000
0010
0000
,
1000
0000
0100
0000
,
0001
0000
0100
0000
,
2000
0000
3000
0000
,
0200
0000
0300
0000
,
0020
0000
0030
0000
,
0002
0000
0003
0000
,
1000
0000
0010
0000
,
1000
0000
0000
0000
,
0001
0000
0010
0000
,
0001
0000
0000
0000
,
0200
0000
0300
0000
,
0020
0000
0030
0000
,
1000
0000
0001
0000
,
1000
0001
1000
0000
,
2002
0000
3003
0000
;

//--------------- dance-single - ----------------
#NOTEDATA:;
#STEPSTYPE:dance-single;
#DESCRIPTION:;
#DIFFICULTY:Easy;
#METER:10;
#RADARVALUES:0.412939,0.488361,0.123003,0.107628,0,376,360,16,14,0,0,0,0,0,0.412939,0.488361,0.123003,0.107628,0,376,360,16,14,0,0,0,0,0;
#CHARTNAME:;
#CHARTSTYLE:;
#CREDIT:;
#NOTES:
0000
0000
0000
0000
,
0000
0000
0000
0000
,
0000
0000
0000
0000
,
0000
0000
0000
0000
,
0000
0000
0000
0000
,
0000
0000
0000
0000
,
0000
0000
0000
0000
,
0000
0000
0000
0000
,
0000
0000
0000
0000
,
0000
0000
0000
0000
,
0001
0100
0010
1000
,
0001
0100
0010
0100
,
0001
0010
0001
1000
,
0100
1000
0001
0001
,
0100
0010
0100
0000
0001
0000
0001
0000
,
1000
0100
1000
0000
0001
0000
0001
0000
,
0100
0010
1000
0100
,
1000
0010
0100
0001
,
0020
0000
0030
0200
,
0000
0300
0020
0000
,
0031
0001
1000
1000
,
2002
0000
3003
0000
,
0001
0010
0001
0000
,
1000
0100
1000
0000
,
0001
0100
0010
1000
,
0001
1000
0001
0000
,
1000
0010
1000
0000
,
0001
0010
0001
0000
,
1000
0010
0100
0001
,
1000
0001
1000
0000
,
0001
1000
0010
1000
,
0100
0010
0001
0100
,
0010
1000
0100
1000
,
0001
0100
0010
1000
,
0200
0000
0000
2300
0000
0000
3010
0000
,
2000
0000
0000
3200
0000
0000
0310
0000
,
0002
0000
0000
0000
0103
0010
0100
0000
,
0020
0000
1030
1000
,
1100
0000
0000
0001
0000
0010
0000
0022
,
0000
0033
0001
0100
,
0010
0000
1000
0000
1000
0001
0000
0002
,
0000
0013
0010
0001
,
0202
0000
0303
0000
1000
0010
0000
2000
,
0000
3100
0100
0010
,
0001
0000
1000
0000
0100
0010
0000
0020
,
0000
0000
0130
0100
,
2000
0000
0000
0000
3002
0000
0000
0103
,
0020
0000
0000
0000
2030
0000
0000
3001
,
0020
0000
0130
0010
,
0200
0000
0310
0010
,
0001
1000
0001
0000
0100
0000
0010
1000
,
0010
0100
0001
1000
,
0100
0100
0010
0010
,
2002
0000
3003
0000
,
1000
0000
0010
0000
0100
0010
1000
0000
,
0100
1000
2002
3003
,
0010
0000
0010
0100
0000
0010
0000
2002
,
0000
3003
0001
0010
,
0001
0000
0001
0100
0000
0010
0000
2000
,
0000
0000
3001
0010
,
0022
0033
0202
0303
,
2002
3003
0100
0100
,
0010
1000
0001
0000
0010
0000
0001
0000
,
0022
0033
1100
1000
,
0010
1000
0000
1000
0000
0010
0000
0202
,
0000
0303
0010
0010
,
1000
0010
0100
0000
0001
0000
1000
0000
,
0100
0010
0100
1000
,
0010
0100
0001
0000
0010
0000
0001
0000
,
1000
0000
0000
0000
,
0010
0000
0010
0000
1000
0000
1000
0001
,
0100
0100
0001
0001
,
0010
0000
0010
0000
0001
0000
0001
1000
,
0100
0100
1000
1000
,
0010
0000
0010
0000
0100
0000
0100
0001
,
1000
1000
0001
0001
,
0010
0100
1000
0100
,
0010
0000
0001
0000
0100
0000
0010
0100
,
0010
1000
0000
0000
,
0000
0000
0001
0010
0001
0000
0100
0000
,
0010
0010
1000
1000
,
0100
0001
0100
1000
,
0010
0000
0000
0100
0000
0000
0010
0000
,
1000
1000
0001
0100
,
0001
0010
0001
1000
,
0100
0010
0220
0330
,
0001
0010
0100
1000
,
0010
0100
0010
1000
,
1000
0000
0001
0000
0001
0010
0000
0020
,
0000
0000
0031
0100
,
0202
0303
1010
1000
,
0100
0000
0000
0010
0000
0000
0100
0000
,
1000
1000
0001
0001
,
0200
0000
0320
0000
,
0030
0000
0000
0000
,
1000
0100
0010
0001
,
1000
0100
0010
0100
,
1000
0010
1000
0001
,
0100
0001
1000
1000
,
0100
0010
0100
0000
1000
0000
1000
0000
,
0001
0100
0001
0000
1000
0000
1000
0000
,
0100
0010
0001
0100
,
0001
0010
0100
1000
,
0020
0000
0030
0200
,
0000
0300
0020
0000
,
1030
1000
0001
0001
,
2002
0000
3003
0000
,
0001
1000
0010
1000
,
0100
0010
0001
0100
,
1000
0100
0001
0100
,
0010
1000
0001
0001
,
0100
0001
0010
0100
,
1000
0010
0100
0010
,
1000
1000
0001
0001
,
0010
1000
0010
0001
,
2000
0000
3000
0000
;

//--------------- dance-single - ----------------
#NOTEDATA:;
#STEPSTYPE:dance-single;
#DESCRIPTION:;
#DIFFICULTY:Medium;
#METER:14;
#RADARVALUES:0.516174,0.62155,0.107628,0.115315,0.007688,470,456,14,15,0,0,0,0,0,0.516174,0.62155,0.107628,0.115315,0.007688,470,456,14,15,0,0,0,0,0;
#CHARTNAME:;
#CHARTSTYLE:;
#CREDIT:;
#NOTES:
0000
0000
0000
0000
,
0000
0000
0000
0000
,
0000
0000
0000
0000
,
0000
0000
0000
0000
,
0000
0000
0000
0000
,
0000
0000
0000
0000
,
0000
0000
0000
0000
,
0000
0000
0000
0000
,
0000
0000
0000
0000
,
0000
0000
0000
0000
,
0001
0100
0010
0000
1000
0000
0100
0000
,
0010
0001
1000
0000
0010
0000
0100
0000
,
0001
0010
0100
0000
1000
0010
0100
0000
,
0001
0010
0001
1000
0100
0000
0100
0000
,
1000
0010
0001
0000
0010
0000
1000
0000
,
0001
0010
1000
0000
0010
0000
0001
0000
,
1000
0100
1000
0000
0001
0100
0001
0000
,
0010
0100
0010
0100
0010
0000
0001
0000
,
2000
0100
0100
3002
,
0100
0100
2003
0100
,
3001
0100
0010
1000
0010
1000
0100
0010
,
0002
2000
0000
0000
3003
0000
0100
0010
,
0100
0000
0010
0000
1000
0000
0100
0010
,
0100
0000
0010
0000
0001
0000
0100
0001
,
0010
0000
0001
0000
0100
0000
0010
1000
,
0100
0000
1000
0000
0010
0000
0100
0001
,
0010
0000
0110
0000
0100
1000
0010
0000
,
0100
0000
0100
0000
0010
0000
1000
0001
,
0010
0000
0010
0001
0000
0001
0000
0001
,
0100
0010
1000
0010
0100
0001
1000
0100
,
2000
0000
3010
0100
0002
0000
0013
1000
,
0020
0000
0032
0000
1003
0000
0001
0100
,
0002
0000
0013
0100
2000
0000
3010
0001
,
0020
0000
2030
0000
3001
0000
1000
0010
,
1000
0000
0000
1100
0000
0000
1001
0000
,
0011
0000
0000
0101
0000
0000
1001
0000
,
1000
0000
0100
0000
0010
0100
0010
0100
,
1000
0010
0100
0001
1000
0010
0100
0001
,
0000
0000
1001
0000
0001
0100
0000
1020
,
0000
1000
1030
0000
0001
0000
0010
0000
,
0001
0100
0001
0100
0010
1000
0010
1000
,
0000
0100
1000
0010
0100
0000
0100
0000
,
0010
0000
1001
0000
0001
0010
0000
1200
,
0000
1000
1300
0000
0010
0000
0010
0000
,
0100
0001
0100
0001
1000
0100
1000
0100
,
0000
0010
0100
1000
0010
0100
0010
0000
,
0102
0000
0000
0010
0010
0000
1003
0000
,
2010
0000
0000
0100
0100
0000
3001
0000
,
0102
0000
0000
0010
0010
0000
0103
0000
,
0210
0000
0010
0310
,
1000
0001
1000
0000
0100
1000
0010
0000
,
0100
0001
0100
0000
0001
0010
0100
0000
,
1000
0100
1000
0100
0010
0001
0010
0001
,
1000
1000
0000
0000
0000
0000
0010
0100
,
0010
0000
1000
0001
0000
0010
0001
0000
,
0100
0010
1000
0000
0100
0010
0001
0000
,
0100
0000
0010
0010
0000
1010
0000
0202
,
0000
0303
0001
0010
,
0001
0100
0010
0100
0000
0001
0000
0010
,
0000
0010
0100
0000
1100
0000
0011
0000
,
0002
0000
0103
0010
2000
0000
3100
0010
,
0001
1000
0001
1000
0001
0010
0100
1000
,
0001
0000
0001
0100
0000
0010
1000
0000
,
2020
0000
3030
0000
0102
0000
1003
0100
,
1000
0010
0000
0110
0000
1001
0000
0220
,
0000
0330
1000
1000
,
0001
0100
0010
0000
1000
0100
0010
0000
,
0001
1000
0010
0000
0100
0001
0010
0000
,
0100
1000
0100
1000
0010
0100
0001
0010
,
0100
0100
0000
0000
0000
0000
0000
0000
,
1000
0100
1000
0000
0010
1000
0001
0000
,
0100
0001
0100
0001
1000
0100
1000
0000
,
0010
1000
0010
0000
0100
0001
0010
0000
,
0001
1000
0100
1000
0010
1000
0010
0000
,
0100
0001
1000
0000
0100
0010
0100
0000
,
0010
0001
0100
0000
0001
0010
0100
0000
,
1000
0100
0010
0100
0010
0001
1000
0000
,
0001
0100
0010
0100
0010
1000
0001
0000
,
1000
0000
0001
1000
0002
0000
0100
0000
,
0100
0010
0103
0010
,
1000
0001
0010
0000
0100
1000
0001
0000
,
1000
0100
1000
0100
0010
0001
0010
0001
,
1000
0000
0000
1010
0000
0000
0101
0000
,
1000
0100
1000
0000
0010
0000
0100
0000
,
0001
0100
0001
0000
0001
0010
0001
0000
,
1000
0100
1000
0010
0200
0000
0300
0000
,
0010
1000
0010
0000
0100
0000
0010
0000
,
0001
0010
0001
0000
0010
0000
0100
0000
,
0010
1000
0100
0010
0000
0011
0000
2200
,
0000
3300
1000
0001
,
0001
0010
0001
0010
0100
1000
0010
1000
,
0001
0100
0001
0010
0000
0100
1000
0010
,
0100
0001
1000
0001
1000
0001
1000
0001
,
0100
0000
0010
1000
0000
0001
0010
0000
,
2002
0000
0000
3003
,
1000
0100
0010
0000
0001
0000
0100
0000
,
0010
1000
0001
0000
0010
0000
0100
0000
,
1000
0010
0100
0000
0001
0010
0100
0000
,
1000
0010
1000
0001
0100
0000
0100
0000
,
0001
0010
1000
0000
0010
0000
0001
0000
,
1000
0010
0001
0000
0010
0000
1000
0000
,
0001
0100
0001
0000
1000
0100
1000
0000
,
0010
0100
0010
0100
0010
0000
1000
0000
,
0002
0100
0100
2003
,
0100
0100
3002
0100
,
1003
0100
0010
0001
0010
0001
0100
0010
,
2000
0000
3002
0000
,
1003
0020
0000
1030
0000
0010
1000
0000
,
0001
0200
0000
0301
0000
0100
0001
0000
,
1000
0200
0000
1300
0000
0100
1000
0000
,
0001
0020
0000
0031
0000
0010
0001
0000
,
1000
0020
0000
0031
0000
0010
1000
0000
,
0001
0020
0000
1030
0000
0010
0001
0000
,
1000
0100
1000
0100
0010
0001
0010
0001
,
1000
0010
0100
0010
1000
0001
0100
0001
,
2000
0000
3000
0000
;

//--------------- dance-single - ----------------
#NOTEDATA:;
#STEPSTYPE:dance-single;
#DESCRIPTION:;
#DIFFICULTY:Hard;
#METER:16;
#RADARVALUES:0,0,0,0,0;
#NOTES:
0000
0000
0000
0000
,
0000
0000
0000
0000
,
0000
0000
0000
0000
,
0000
0000
0000
0000
,
0000
0000
0000
0000
,
0000
0000
0000
0000
,
0000
0000
0000
0000
,
0000
0000
0000
0000
,
0000
0000
0000
0000
,
0000
0000
0000
0000
,
1000
0010
1000
0010
0100
0001
1000
0001
,
0100
0010
1000
0001
0010
0100
1000
0100
,
1000
0000
0010
0000
1000
0000
0001
0000
0100
0000
0000
0100
0000
0000
0100
0000
,
0010
1000
0100
0010
0001
0010
0001
0100
,
0010
1000
0010
1000
0010
0001
0010
0001
,
1000
0100
1000
0100
0001
0100
0001
0100
,
0010
1000
0010
0100
0001
1000
0100
0010
,
0100
0010
0001
0100
0001
0010
0100
1000
,
0020
0000
1030
0001
1000
0000
0200
0000
,
1300
0001
1000
0000
0010
1000
0001
0000
,
1001
0000
0001
0010
1000
0010
0001
1000
,
0100
0020
0000
0000
0000
0000
0130
1000
,
0100
0000
1000
0010
1000
0000
0010
0001
,
0020
0000
2030
0000
3002
0000
0013
0001
,
0020
0000
0130
0001
0100
1000
0100
0010
,
0002
0000
0203
0000
1300
0000
0100
0010
,
0100
0000
0000
0001
0000
0000
0010
0100
0010
0100
0000
0000
,
2000
0000
3200
0000
0320
0000
0031
0100
,
0010
1000
0010
1000
0010
1000
0010
1000
,
0001
0010
0100
1000
1001
0000
0001
0100
,
2000
0000
3001
0010
2000
0000
3001
0010
,
2000
0000
3010
0001
1000
0000
0001
1000
,
0002
0000
1003
0010
0002
0000
1003
0100
,
0002
0000
0013
0100
0010
0000
0110
0000
,
1001
0000
0001
0010
1000
0010
0001
0000
,
1000
0100
0001
0100
1000
0010
0100
0001
,
1000
1000
0100
0010
0001
0001
0100
0010
,
1000
0001
0100
0001
0010
0001
0100
0010
,
1000
0000
1000
1100
0000
1010
0000
1002
,
0000
0103
0010
1000
0010
0100
0001
0010
,
0100
0001
0100
1000
0010
0001
0010
2000
,
0000
3001
0010
0001
0010
0100
1000
0001
,
0010
0000
1001
0000
1000
1010
0000
2100
,
0000
3010
0100
0010
0100
0000
0010
0000
,
1000
0100
0010
0001
1000
0200
0000
0320
,
0000
0031
0100
0010
1000
0000
1010
0000
,
0101
0000
0001
0010
0001
0000
0011
0000
,
0001
0100
1000
0100
0001
0000
0101
0000
,
1010
0000
1000
0100
1000
0000
1100
0000
,
1000
0100
0001
0100
1000
0000
1000
0000
,
0100
0010
0001
1000
0010
0100
0001
1000
,
0010
0010
0100
0001
1000
0100
0010
0001
,
0010
0010
0100
1000
0010
0100
0001
0100
,
0010
2000
0000
0000
3000
0000
0010
0100
,
0010
0000
1000
0100
0000
0010
0001
0000
,
0100
0010
0100
0001
0010
0100
1000
0010
,
0100
1000
0100
0001
0000
0101
0000
1010
,
0000
1000
0100
1000
0100
0000
0011
0000
,
2010
0000
0100
0100
0000
0010
0000
3002
,
0000
0100
0103
0000
0110
0000
1001
0000
,
1000
0000
0000
0001
0000
0000
1000
0000
0100
0000
0010
0000
0100
0000
1000
0000
,
0010
0010
0100
0001
1000
1000
0100
0010
,
0100
1000
0010
0000
0010
0001
0000
0001
,
0010
0000
0010
1000
0100
1000
0100
0010
,
0001
0001
0100
0010
0000
0110
0000
1002
,
0000
0010
0013
0000
0110
0000
1001
0000
,
1000
0100
1000
0100
1000
0010
0100
0010
,
0100
1000
0100
1000
0100
0010
1000
0010
,
1000
0001
0010
0001
0010
0100
1000
0001
,
0100
0010
0000
0000
0000
0000
0000
0000
,
1000
0100
0001
0100
1000
0010
0100
0001
,
0100
1000
0100
0001
0010
0100
1000
0000
,
0001
0100
1000
0100
0001
0010
0100
1000
,
0100
0001
0100
1000
0010
0100
0001
0001
,
1000
0010
0001
0010
1000
0100
0010
0001
,
0010
1000
0010
0001
0100
0010
1000
1000
,
0001
0100
1000
0001
0010
1000
0001
0010
,
1000
0001
0100
1000
0001
0010
0001
0010
,
0002
0000
0103
0010
2000
0000
0010
0000
,
0001
0000
3010
0100
0002
0000
2003
0000
,
3001
0010
0100
0010
0100
1000
0001
0010
,
0100
0100
0010
0001
0010
0001
0100
0010
,
2000
0000
0000
3020
0000
0000
0032
0000
,
0013
0100
0010
0100
0010
1000
0100
0010
,
0100
1000
0100
1000
0010
0001
0010
0001
,
0010
1000
0001
0010
0200
0000
0300
0000
,
1000
0100
0010
0001
0100
0010
1000
0001
,
0100
0001
0010
0100
1000
0001
0100
0010
,
1000
1000
0100
1000
0000
1010
0000
0202
,
0000
0003
0010
0310
,
1000
0100
1000
0100
0010
0001
0100
0010
,
0100
0001
0100
0001
0010
0100
0010
0100
,
0010
1000
0010
1000
0010
0001
0100
0010
,
1000
0000
0100
0100
0000
0010
0010
0000
,
2002
0000
0000
3003
,
0001
0010
0001
0010
0100
1000
0001
1000
,
0100
0010
0001
1000
0010
0100
0001
0100
,
0001
0000
0010
0000
0001
0000
1000
0000
0100
0000
0000
0100
0000
0000
0100
0000
,
0010
0001
0100
0010
1000
0010
1000
0100
,
0010
0001
0010
0001
0010
1000
0010
1000
,
0001
0100
0001
0100
1000
0100
1000
0100
,
0010
0001
0010
0100
1000
0001
0100
0010
,
0100
0010
1000
0100
1000
0010
0100
0001
,
0020
0000
0031
1000
0001
0000
0200
0000
,
0301
1000
0001
0000
0010
0001
1000
0000
,
1001
0000
1000
0010
0001
0010
1000
0001
,
0100
0000
0000
0010
0000
0000
1000
0000
0000
0000
0000
0000
0001
0000
0000
0000
0001
0000
0000
0000
0001
0000
0000
0000
,
2000
0100
0000
0010
0000
3010
0100
0000
,
0002
0010
0000
0100
0000
0103
0010
0000
,
2000
0100
0000
0001
0000
3001
0010
0000
,
0002
0100
0000
0100
0000
1003
0010
0100
,
0002
0010
0000
1000
0000
0103
0010
0000
,
2000
0100
0000
0001
0000
3010
0100
0001
,
1000
0010
0100
0001
1000
0010
0001
1000
,
0100
0001
0010
1000
0001
0100
1000
0010
,
0200
0000
0300
0000
;

//--------------- dance-single - ----------------
#NOTEDATA:;
#STEPSTYPE:dance-single;
#DESCRIPTION:;
#DIFFICULTY:Challenge;
#METER:18;
#RADARVALUES:0,0,0,0,0;
#NOTES:
0000
0000
0000
0000
,
0000
0000
0000
0000
,
0000
0000
0000
0000
,
0000
0000
0000
0000
,
0000
0000
0000
0000
,
0000
0000
0000
0000
,
0000
0000
0000
0000
,
0000
0000
0000
0000
,
0000
0000
0000
0000
,
0000
0000
0000
0000
,
0001
0000
0010
0000
0100
0000
1000
0000
0001
0000
0010
0100
0010
0000
0100
0000
,
1000
0100
0010
0001
0010
0001
0100
0010
,
1000
0000
0010
0000
0100
0000
0001
0000
0010
0000
0000
0010
0000
0000
0010
0000
,
0001
0100
0001
0100
0010
1000
0010
1000
,
0001
0010
0001
0010
0001
1000
0010
1000
0010
0100
0010
1000
,
0001
0100
0001
0100
0001
1000
0100
1000
0100
1000
0100
0010
,
0001
0100
0010
1000
0010
1000
0010
0100
0001
0010
0100
0010
,
0001
0010
0100
1000
0100
1000
0001
0100
0010
1000
0100
0010
,
0002
0000
0103
0010
1000
0000
2001
0000
,
3100
0010
0001
0000
0100
0010
0200
0000
,
0310
0000
1000
1000
1000
1000
0100
0010
,
0001
0020
0000
0000
0030
0000
0001
0100
,
0010
0010
1000
1000
,
0001
0000
0001
0000
0010
0000
0010
0001
,
1000
1000
0100
0100
,
0010
0000
0010
0000
0001
0000
0001
1000
,
0010
0000
0000
0110
0000
0000
0001
1000
0001
1000
0000
0000
,
0110
0000
1001
0000
1000
0000
0001
0010
,
0200
0000
0010
0320
0000
0230
0000
0310
,
0001
0000
1000
0000
0010
0000
0100
0000
0001
1000
0001
1000
0001
0000
0000
0000
,
1000
0010
0001
0010
1000
0100
0010
0001
,
0010
1000
0010
0001
0100
0010
1000
0000
,
0001
0010
1000
0010
0001
0100
0010
1000
,
0010
0001
0010
1000
0100
0010
0001
0000
,
0011
0000
0001
0100
1000
0001
0010
0000
,
1010
0000
1000
0100
0001
1000
0010
0000
,
0001
0010
0001
0010
0100
1000
0001
0100
,
0010
0000
0000
0100
0000
0000
0100
0000
0000
0010
0000
0000
1000
0000
0100
0000
1000
0000
0100
0000
0000
0010
0000
0000
,
0001
0100
0001
0100
0001
0000
0000
0000
1000
0000
0100
0000
0010
0000
0012
0000
,
0000
0100
0103
0000
0001
0100
0001
0100
,
0010
0001
1000
0100
0001
0100
0001
0010
,
1000
0001
0100
1000
0100
0010
0001
0001
,
1000
0010
1000
0010
1000
0000
0000
0000
0001
0000
0010
0000
0100
0000
2100
0000
,
0000
0010
3010
0000
1000
0010
1000
0010
,
0100
1000
0001
0010
1000
0010
1000
0100
,
0001
1000
0010
0001
0100
0010
0100
0010
,
2000
0000
0000
3100
1100
0000
0100
1000
,
0010
0100
0001
0000
0001
0100
0010
1000
,
0002
0000
0000
0013
0011
0000
0001
0010
,
0001
0100
0010
1000
0100
0100
0000
0000
,
1000
0010
1000
0001
0010
0001
0100
0010
,
1000
0001
1000
0100
0010
0001
1000
0100
,
0010
0000
0100
0000
1000
0000
0010
0000
0100
0000
0001
1000
0001
0000
0010
0000
,
0100
0200
0000
0000
0300
0000
0010
0001
,
2000
0000
3010
0002
0000
0013
2000
0000
,
3100
0010
0001
1000
0001
0100
0010
1000
,
0001
0010
0001
0011
0000
0101
0000
1001
,
0000
1000
0010
0001
0010
1000
0001
0010
,
0200
0000
0001
0001
0000
1000
0000
0320
,
0000
0031
0100
0010
1000
0000
1010
0000
,
1000
0100
1000
0000
0100
0000
1000
0000
0001
0100
0001
0000
0100
0000
0001
0000
,
0010
0001
0010
0001
0010
0000
0100
0000
1000
0100
1000
0100
1000
0000
0010
0000
,
0100
0010
0100
0000
0010
0000
0000
0000
1000
0000
0001
0000
1000
0000
0100
0000
,
0010
0001
1000
0001
0100
0010
1000
0100
,
0010
0001
0010
0001
0000
0101
0000
2100
,
0000
3010
0100
0001
0020
0000
0230
0000
,
1300
0010
1000
0001
0100
0100
0010
1000
,
0001
0010
0100
0010
0001
0001
1000
0010
,
0001
1000
0100
0001
1000
0100
0001
1000
,
0010
0002
0000
0000
0000
0000
0003
0000
,
0001
0100
0001
0100
0001
0100
0001
0010
0001
0010
0100
1000
,
0010
1000
0010
0100
0010
1000
0001
0100
0010
1000
0000
0000
,
0001
0010
0001
0010
0100
1000
0001
0100
0001
0100
0010
1000
,
0100
1000
0100
0010
0001
0100
0010
0100
0010
1000
0010
0100
,
0001
1000
0001
0100
0001
1000
0010
0100
0010
1000
0010
0100
,
0001
0010
0001
0010
0100
1000
0100
1000
0010
0100
0001
0100
,
0010
1000
0100
1000
0100
0010
0001
0010
0001
1000
0010
0100
,
0001
0100
0010
1000
0100
0010
0001
0100
0010
1000
0100
0010
,
0002
0000
0103
0200
0000
0000
0000
0000
,
0300
0000
0010
0100
0020
0000
2030
0000
,
3001
0010
0001
0010
0100
1000
0100
1000
,
0001
0100
0001
0000
1000
0100
1000
0000
0001
0100
0001
0000
0100
0000
0010
0000
,
2000
0000
0000
3020
0000
0000
0230
0000
,
0310
1000
0001
1000
0100
0010
0001
1000
,
0010
1000
0010
1000
0010
0000
0100
0000
0001
0100
0001
0100
0001
0000
0010
0000
,
0100
1000
0100
0000
0010
0000
0001
0000
2000
0000
0000
0000
3000
0000
0000
0000
,
0001
0100
0010
0100
1000
0100
0010
0100
,
0001
0010
0100
1000
0100
0010
0001
1000
,
0010
1000
0010
0100
0000
0101
0000
2010
,
0000
0000
3200
0320
,
0031
0100
0001
0100
0001
0010
1000
0010
,
1000
0010
0001
1000
0100
0001
0100
1000
,
0001
1000
0001
0100
0010
1000
0100
0010
,
0002
0000
0103
0020
0000
1000
1030
0000
,
2002
0000
0000
0000
3003
0000
0000
0000
1000
0001
1000
0001
1000
0001
1000
0001
,
1000
0000
0010
0000
0100
0000
0001
0000
1000
0000
0010
0100
0010
0000
0100
0000
,
0001
0100
0010
1000
0010
1000
0100
0010
,
0001
0000
0010
0000
0100
0000
1000
0000
0010
0000
0000
0010
0000
0000
0010
0000
,
1000
0100
1000
0100
0010
0001
0010
0001
,
1000
0010
1000
0010
1000
0001
0010
0001
0010
0100
0010
0001
,
1000
0100
1000
0100
1000
0001
0100
0001
0100
0001
0100
0010
,
1000
0100
0010
0001
0010
0001
0010
0100
1000
0010
0100
0010
,
1000
0010
0100
0001
0100
0001
1000
0100
0010
0001
0100
0010
,
2000
0000
3100
0010
0001
0000
1002
0000
,
0103
0010
1000
0000
0100
0010
0200
0000
,
0310
0000
0001
0001
0001
0001
0010
0100
,
1000
0000
0000
0001
0000
0000
1000
0000
0000
0000
0000
0000
0010
0000
0000
0000
0000
0000
0100
0000
0000
0000
0000
0000
0001
0000
0000
0000
0000
0000
0000
0000
0001
0000
0000
0000
0000
0000
0000
0000
0001
0000
0000
0000
0000
0000
0000
0000
,
1000
0010
0100
0001
0000
0001
0100
0010
,
1000
0100
0010
0001
0000
0001
1001
0000
,
0001
1000
0010
0100
0000
0100
0010
1000
,
0001
0010
0100
0020
0000
0100
0130
0000
,
1000
0010
0100
0001
0000
0001
0100
0010
,
1000
0100
0001
0100
1000
0001
0100
1000
,
0100
0001
1000
0010
1000
0010
0001
0010
,
1000
0001
0010
0100
1000
0001
0010
0100
,
2000
0000
3000
0000
;
