#VERSION:0.83;
#TITLE:Showdown;
#SUBTITLE:;
#ARTIST:litmus*;
#TITLETRANSLIT:;
#SUBTITLETRANSLIT:;
#ARTISTTRANSLIT:;
#GENRE:;
#ORIGIN:;
#CREDIT:;
#BANNER:;
#BACKGROUND:;
#PREVIEWVID:;
#JACKET:;
#CDIMAGE:;
#DISCIMAGE:;
#LYRICSPATH:;
#CDTITLE:;
#MUSIC:Showdown.ogg;
#OFFSET:-0.899000;
#SAMPLESTART:82.121307;
#SAMPLELENGTH:14.769000;
#SELECTABLE:YES;
#BPMS:0.000=130.000;
#STOPS:;
#DELAYS:;
#WARPS:;
#TIMESIGNATURES:0.000=4=4;
#TICKCOUNTS:0.000=4;
#COMBOS:0.000=1;
#SPEEDS:0.000=1.000=0.000=0;
#SCROLLS:0.000=1.000,
155.500=0.000,
156.500=1.000;
#FAKES:;
#LABELS:0.000=Song Start;
#BGCHANGES:;
#KEYSOUNDS:;
#ATTACKS:
;

//---------------dance-single - BR FSDS XO-----------------
#NOTEDATA:;
#CHARTNAME:ITG Rated;
#STEPSTYPE:dance-single;
#DESCRIPTION:BR FSDS XO-;
#CHARTSTYLE:;
#DIFFICULTY:Edit;
#METER:11;
#RADARVALUES:0.812982,0.896750,0.630373,0.455270,1.046245,650.000000,578.000000,72.000000,52.000000,41.000000,20.000000,0.000000,0.000000,0.000000,0.812982,0.896750,0.630373,0.455270,1.046245,650.000000,578.000000,72.000000,52.000000,41.000000,20.000000,0.000000,0.000000,0.000000;
#CREDIT:Kingly;
#NOTES:
0000
0000
0000
0000
,
0000
0000
0000
0000
,
0000
0000
0000
0000
,
0000
0000
0000
0000
,
1000
0000
0001
0100
0001
0000
0010
0000
0100
0000
0000
1000
0000
0000
0010
0000
,
1000
0000
0001
0010
0001
0000
0100
0000
0001
0000
0000
1000
0000
0000
0100
0000
,
0010
0000
0001
1000
0001
0000
0100
0000
0010
0000
0000
0100
0000
0000
1000
0000
,
0100
0000
0010
1000
0010
0000
0100
0000
0001
1000
0000
0100
0010
0001
0100
0000
,
0001
0000
1000
0100
1000
0000
0010
0000
0100
0000
0000
0001
0000
0000
0010
0000
,
0001
0000
1000
0010
1000
0000
0100
0000
1000
0000
0000
0001
0000
0000
0100
0000
,
0010
0000
1000
0001
1000
0000
0100
0000
0010
0000
0000
0100
0000
0000
0001
0000
,
0100
0000
0010
0100
1000
0000
0001
0000
0100
0001
0100
0010
1100
0000
0011
0000
,
1000
0000
0000
0000
0001
0000
0100
0000
0000
0000
0010
0000
1000
0000
0001
0010
0001
0000
0000
0000
1000
0000
0100
0000
0000
0000
0010
0000
0001
0000
1000
0010
,
1000
0000
0000
0000
0100
0000
1000
0000
0000
0000
0001
0000
0100
0000
0010
1000
0010
0000
0000
0000
0100
0000
0001
0000
0000
0000
1000
0000
0100
0000
0010
0001
,
0010
0100
1000
0001
0100
0001
0010
0001
1000
0010
0100
0001
1000
0100
1000
0010
,
0100
0000
0000
0000
1000
0000
0100
0000
0000
0000
0001
0000
0100
00M0
0100
0000
1000
0000
0100
0000
0010
0000
0001
0000
2010
0000
0000
0000
0000
0000
0000
0000
,
3100
0000
00M0
0000
0100
0000
0000
0000
0001
0100
0001
0000
1000
0000
0010
0000
2100
0000
0000
0000
0000
0000
3102
0000
0000
0000
0000
0000
1103
0000
0000
0000
,
0010
1000
0001
0010
0102
0000
0000
2103
0000
0000
3102
0000
0010
0000
1003
0000
,
0100
0000
0000
00M0
0000
0000
0100
0000
0000
0000
0000
0000
0001
0000
0100
0000
0010
0000
1000
0000
0000
0001
0000
0000
2100
0000
0000
0000
0000
0000
0000
0000
0000
3102
0000
0000
0000
0000
0000
0000
0000
0000
1103
0000
0000
0000
0000
0000
,
0010
0000
1000
0100
0000
1000
0001
0000
0100
0001
0000
2000
0010
0000
00M0
0000
,
3101
0000
1000
0000
0100
01M0
0100
0100
0012
0000
0000
2103
0000
0000
3101
0000
,
0010
0100
0001
0100
2010
0000
0000
3102
0000
0000
2103
0000
0010
0000
3001
0000
,
0100
0000
0000
00M0
0000
0000
0100
0000
0000
0000
0000
0000
1000
0000
0100
0000
0010
0000
0001
0000
0000
1000
0000
0000
0012
0000
0000
0000
0000
0000
0000
0000
0000
2103
0000
0000
0000
0000
0000
0000
0000
0000
3101
0000
0000
0000
0000
0000
,
0010
0000
0001
0000
0100
0000
0001
0000
1000
0010
0100
0001
1100
0000
0011
0000
,
0100
00M0
0100
0000
1010
0000
0001
1010
0000
0100
01M0
0100
1000
0100
0010
0001
,
1000
0000
0010
0000
0100
0000
0001
0000
0000
0100
0000
0000
0011
0000
0000
0000
0000
0000
1000
0000
0000
0011
0000
0000
0000
0000
0000
0100
0000
0000
01M0
0000
0000
0200
0000
0000
0001
0000
0000
0000
0000
0000
0310
0000
0000
0000
0000
0000
,
0100
00M0
0100
0000
1010
0000
0001
1010
0000
0100
01M0
0100
1000
0100
0010
0001
,
1010
0000
0001
0100
0000
0001
1000
0000
0100
1000
0000
0002
0010
0000
00M0
0000
,
1103
00M0
0100
0000
1010
0000
0001
1010
0000
0100
01M0
0100
1000
0100
0001
0100
,
0010
0000
0001
0000
1000
0000
0010
0000
0000
0100
0000
0000
0011
0000
0000
0000
0000
0000
1000
0000
0000
0011
0000
0000
0000
0000
0000
0100
0000
0000
01M0
0000
0000
0200
0000
0000
0001
0000
0000
0000
0000
0000
0310
0000
0000
0000
0000
0000
,
0100
00M0
0100
0000
1010
0000
0001
1010
0000
0100
01M0
0100
2000
0000
3001
0010
,
0100
0000
0000
0000
0001
0000
0100
0000
0000
0000
1000
0000
0100
00M0
0100
0000
0001
0000
0100
0000
0010
0000
1000
0000
0012
0000
0000
0000
0000
0000
0000
0000
,
1003
0000
0100
0000
1000
0000
0001
0000
0100
0000
0000
1000
0000
0000
0100
0000
,
0010
0000
1000
0000
0001
0000
1000
0000
0100
0000
0000
0001
0000
0000
0100
0000
,
0010
0000
0001
0000
0100
0000
0001
0000
1000
0000
0000
0010
0000
0000
0001
0000
,
0010
0000
0100
0000
0001
0000
1000
0000
0010
0000
0000
1000
0000
0000
0100
0000
,
1001
0000
0000
0000
0001
0000
1000
0000
0100
0000
0000
0001
0000
0000
0100
0000
,
0010
0000
0001
0000
1000
0000
0010
0000
0100
0000
0000
1000
0000
0000
0100
0000
,
0001
1000
0100
0010
0200
0001
0000
2310
,
0000
0000
0000
0000
0000
0000
0000
0000
3100
00M0
0100
0000
0001
0000
1000
0000
0010
0M00
0010
0000
0001
0000
1000
0000
0201
0000
0000
0000
0000
0000
0000
0000
,
0310
0000
0001
0000
1000
0000
0100
0000
0000
0000
1000
0000
0010
0000
0100
0001
0100
0000
0010
0000
1000
0000
0100
0000
0000
0000
0010
0000
0001
0000
1000
0010
,
1000
0000
0100
0000
1000
0000
0001
0000
0000
0000
0100
0000
0010
0000
1000
0001
1000
0000
0100
0000
0010
0000
0001
0000
0000
0000
1000
0000
0010
0000
0100
0001
,
0100
0010
1000
0100
1000
0001
0010
0001
0100
0001
1000
0100
0010
0001
0100
0010
,
2000
0000
0000
0000
0000
0000
0000
0000
0000
0000
0000
0000
3100
00M0
0100
0000
0001
0000
0100
0000
0010
0000
1000
0000
0102
0000
0000
0000
0000
0000
0000
0000
,
1023
0000
0000
0000
0031
0000
001M
2000
0000
3100
01M0
0100
1000
0000
0001
0100
,
0021
0000
0000
0000
1030
0000
M010
0001
0000
0100
0001
0000
2000
0000
0000
0000
,
3021
0000
0000
0000
0130
0001
1000
0100
1010
0000
0001
1010
0000
0100
01M0
0100
,
1000
0000
0100
0000
0010
0000
0001
0000
0000
1000
0000
0000
0011
0000
0000
0000
0000
0000
0100
0000
0000
0011
0000
0000
0000
0000
0000
0100
0000
0000
01M0
0000
0000
0200
0000
0000
0001
0000
0000
0000
0000
0000
0310
0000
0000
0000
0000
0000
,
1200
0000
0000
0000
0301
0000
010M
2000
0000
3100
01M0
0200
1000
0000
0310
0000
,
0201
0000
0000
0000
0000
0000
0000
0000
0000
0000
0000
0000
0000
0000
0000
0000
0000
0000
0000
0000
0000
0000
0000
0000
0000
0000
0000
0000
0000
0000
0000
0000
0000
0000
0000
0000
0000
0000
0000
0000
0000
0000
0000
0000
0000
0000
0000
0000
1300
0000
0000
0000
0000
0000
0000
0000
0001
0000
0000
0000
0000
0000
0000
0000
0100
0000
0000
0000
0000
0000
0000
0000
0010
0000
0000
0000
0000
0000
0000
0000
0000
0000
0000
0000
1000
0000
0000
0000
0000
0000
0000
0000
0000
0000
0000
0000
0011
0000
0000
0000
0000
0000
0000
0000
0000
0000
0000
0000
0000
0000
0000
0000
0000
0000
0000
0000
0000
0000
0000
0000
0100
0000
0000
0000
0000
0000
00M0
0000
0000
0000
0000
0000
0100
0000
0000
0000
0000
0000
0000
0000
0000
0000
0000
0000
2000
0000
0000
0000
0000
0000
0000
0000
0000
0000
0000
0000
0000
0000
0000
0000
0000
0000
0000
0000
0000
0000
0000
0000
0000
0000
0000
0000
0000
0000
0000
0000
0000
0000
0000
0000
0000
0000
0000
0000
0000
0000
0000
0000
0000
0000
0000
0000
,
3201
0000
0000
0000
1300
0000
M100
0002
0000
0103
01M0
0100
0001
0100
0010
1000
,
0101
0000
0000
0000
0000
0000
2000
0000
0000
0010
0000
0000
0000
0000
0000
3001
0000
0000
0100
0000
0000
0001
0000
0000
1000
0000
0100
0000
0010
0000
0001
0000
0000
1000
0000
0000
0011
0000
0000
0000
0000
0000
1100
0000
0000
0000
0000
0000
,
0021
0000
0000
0000
1030
0000
M010
0001
1000
0100
01M0
0100
1000
0000
0001
0100
,
0021
0000
0000
0000
1030
0000
M010
0001
0100
0001
1000
0000
0201
0000
0000
0000
,
1320
0000
0000
0000
0130
1000
0001
0100
0011
0000
1000
0011
0000
0100
01M0
0100
,
0001
0000
0100
0000
0010
0000
1000
0000
0000
0001
0000
0000
1010
0000
0000
0000
0000
0000
0100
0000
0000
1010
0000
0000
0000
0000
0000
0001
0000
0000
0200
0000
0000
0000
0000
0000
0010
0000
0000
0000
0000
0000
0301
0000
0000
0000
0000
0000
,
1200
0000
0000
0000
0301
0000
010M
1000
0001
0100
01M0
0200
0001
0000
0310
0000
,
1200
0000
0000
0000
0000
0000
0000
0000
0000
0000
0000
0000
0000
0000
0000
0000
0000
0000
0000
0000
0000
0000
0000
0000
0000
0000
0000
0000
0000
0000
0000
0000
0000
0000
0000
0000
0000
0000
0000
0000
0000
0000
0000
0000
0000
0000
0000
0000
0301
0000
0000
0000
0000
0000
0000
0000
1000
0000
0000
0000
0000
0000
0000
0000
0100
0000
0000
0000
0000
0000
0000
0000
0010
0000
0000
0000
0000
0000
0000
0000
0000
0000
0000
0000
0001
0000
0000
0000
0000
0000
0000
0000
0000
0000
0000
0000
1010
0000
0000
0000
0000
0000
0000
0000
0000
0000
0000
0000
0000
0000
0000
0000
0000
0000
0000
0000
0000
0000
0000
0000
0100
0000
0000
0000
0000
0000
00M0
0000
0000
0000
0000
0000
0100
0000
0000
0000
0000
0000
0000
0000
0000
0000
0000
0000
0002
0000
0000
0000
0000
0000
0000
0000
0000
0000
0000
0000
0000
0000
0000
0000
0000
0000
0000
0000
0000
0000
0000
0000
0000
0000
0000
0000
0000
0000
0000
0000
0000
0000
0000
0000
0000
0000
0000
0000
0000
0000
0000
0000
0000
0000
0000
0000
,
1203
0000
0000
0000
0301
0000
010M
1000
0001
0100
01M0
0100
0001
0100
0010
1000
,
0100
0000
0000
0000
0001
0000
0100
0000
0000
0000
1000
0000
0100
00M0
0100
0000
0001
0000
0100
0000
0010
0000
1000
0000
0011
0000
0000
0000
1100
0000
0000
0000
,
2002
3003
0000
0000
;

//---------------dance-single - FS XO DS-----------------
#NOTEDATA:;
#CHARTNAME:;
#STEPSTYPE:dance-single;
#DESCRIPTION:FS XO DS-;
#CHARTSTYLE:;
#DIFFICULTY:Challenge;
#METER:15;
#RADARVALUES:0.730433,0.817625,0.245145,0.306432,0.954315,584.000000,556.000000,28.000000,35.000000,14.000000,0.000000,0.000000,0.000000,0.000000,0.730433,0.817625,0.245145,0.306432,0.954315,584.000000,556.000000,28.000000,35.000000,14.000000,0.000000,0.000000,0.000000,0.000000;
#CREDIT:Kingly;
#NOTES:
// measure 0
0000
0000
0000
0000
,  // measure 1
0000
0000
0000
0000
,  // measure 2
0000
0000
0000
0000
,  // measure 3
0000
0000
0000
0000
,  // measure 4
1000
0000
0100
0000
0010
0000
0001
0000
0100
0000
0000
0001
0000
0000
0010
0000
,  // measure 5
0001
0000
1000
0000
0010
0000
0100
0000
0001
0000
0000
1000
0000
0000
0100
0000
,  // measure 6
0010
0000
0001
0000
1000
0000
0001
0000
0100
0000
0000
0010
0000
0000
0001
0000
,  // measure 7
0010
0000
1000
0000
0100
0000
0001
0000
0100
0000
0000
0010
0000
0000
0001
0000
,  // measure 8
2001
0000
0000
0000
3010
0000
1000
0000
0100
0000
0000
1000
0000
0000
0010
0000
,  // measure 9
1000
0000
0001
0000
0010
0000
0100
0000
1000
0000
0000
0001
0000
0000
0100
0000
,  // measure 10
0010
0000
1000
0000
0001
0000
1000
0000
0100
0000
0000
0010
0000
0000
1000
0000
,  // measure 11
0010
0000
0001
0000
0100
0000
1000
0000
0100
0010
0100
0001
1000
0000
0001
0000
,  // measure 12
2001
0000
3010
1000
0000
1000
0001
1000
0100
0000
0010
0001
0000
1000
0100
0001
,  // measure 13
0100
0000
0010
0001
0000
0001
1000
0001
0100
0000
0010
1000
0000
0001
0100
1000
,  // measure 14
0100
0010
1000
0010
0100
0001
1000
0100
0010
0001
0010
0100
1000
0010
1000
0001
,  // measure 15
0100
0000
1000
0100
0000
0001
0100
0100
1000
0100
0010
0001
2000
0000
0000
0000
,  // measure 16
3100
00M0
0100
0000
0001
0100
0010
0100
0001
0000
0000
1100
0000
0000
0101
0000
,  // measure 17
1000
0100
1000
0010
0100
0000
0000
0101
0000
0000
1100
0000
0001
0000
0010
0000
,  // measure 18
0001
0000
0000
0000
0000
0000
0100
0000
0000
0000
0000
0000
0010
0000
1000
0000
0010
0000
1000
0000
0000
0001
0000
0000
0100
0000
0000
0000
0000
0000
0000
0000
0000
1100
0000
0000
0000
0000
0000
0000
0000
0000
0101
0000
0000
0000
0000
0000
,  // measure 19
1000
0000
0010
1000
0000
0100
1000
0000
0001
0100
0000
0001
2000
0000
0000
0000
,  // measure 20
3100
00M0
0100
0000
0001
1000
0001
1000
0100
0000
0000
0011
0000
0000
1010
0000
,  // measure 21
0001
0100
1000
0100
0001
0000
0000
1010
0000
0000
0011
0000
1000
0000
0100
0000
,  // measure 22
1000
0000
0000
0000
0000
0000
0010
0000
0000
0000
0000
0000
0100
0000
0001
0000
0100
0000
0001
0000
0000
1000
0000
0000
0100
0000
0000
0000
0000
0000
0000
0000
0000
0011
0000
0000
0000
0000
0000
0000
0000
0000
1010
0000
0000
0000
0000
0000
,  // measure 23
0001
0000
0100
0000
0010
0000
1000
0000
0001
0010
0100
1000
0001
0000
1002
0000
,  // measure 24
0103
00M0
0100
0000
1000
0000
0010
1000
0000
0100
1000
0100
0010
0001
1000
0010
,  // measure 25
0100
0000
0001
0000
0100
0000
0001
0000
0000
1000
0000
0000
0100
0000
0000
0000
0000
0000
0100
0000
0000
1000
0000
0000
0000
0000
0000
0001
0000
0000
0100
0000
0000
0010
0000
0000
1000
0000
0000
0000
0000
0000
0001
0000
0000
0000
0000
0000
,  // measure 26
0100
00M0
0100
0000
1000
0000
0010
1000
0000
0100
1000
0100
0010
0001
1000
0001
,  // measure 27
0100
0000
0010
1000
0000
0100
1000
0000
0001
0100
0000
0001
2000
0000
0000
0000
,  // measure 28
3100
00M0
0100
0000
0001
0000
0010
0001
0000
0100
0001
0100
0010
1000
0001
0010
,  // measure 29
0100
0000
1000
0000
0100
0000
1000
0000
0000
0001
0000
0000
0010
0000
0000
0000
0000
0000
0001
0000
0000
0100
0000
0000
0000
0000
0000
0010
0000
0000
1000
0000
0000
0001
0000
0000
1000
0000
0000
0000
0000
0000
0001
0000
0000
0000
0000
0000
,  // measure 30
0100
00M0
0100
0000
1000
0000
0010
1000
0000
0100
1000
0100
0010
0000
0001
1000
,  // measure 31
0100
0000
0001
0100
0000
1000
0100
0100
0001
0100
0010
1000
0002
0000
0000
0000
,  // measure 32
0013
0000
0100
0000
1000
0000
0001
0000
0100
0000
0000
1000
0000
0000
0100
0000
,  // measure 33
0001
0000
1000
0000
0100
0000
0010
0000
0100
0000
0000
0001
0000
0000
0100
0000
,  // measure 34
0010
0000
0001
0000
1000
0000
0001
0000
0100
0000
0000
0010
0000
0000
0001
0000
,  // measure 35
0010
0000
1000
0000
0001
0000
1000
0000
0100
0000
0000
0010
0000
0000
0001
0000
,  // measure 36
1001
0000
0000
0000
0001
0000
1000
0000
0100
0000
0000
0001
0000
0000
0100
0000
,  // measure 37
1000
0000
0001
0000
0100
0000
0010
0000
0100
0000
0000
1000
0000
0000
0100
0000
,  // measure 38
0010
1000
0001
1000
0200
0001
0000
1300
,  // measure 39
0000
0000
0000
0000
0001
0100
0001
0100
1000
0100
0010
1000
0002
0000
0000
0000
,  // measure 40
1003
0100
0010
0100
0000
1000
0010
1000
0001
0100
0010
0100
0000
0001
0010
0001
,  // measure 41
1000
0100
0010
0100
0000
1000
0010
1000
0001
0100
0010
0100
0000
0001
0010
0001
,  // measure 42
1000
0100
0010
0001
1000
0010
1000
0001
0100
0010
1000
0100
0010
0001
1000
0001
,  // measure 43
0200
0000
0000
0000
0000
0000
0310
1000
0001
1000
0100
0010
0001
0000
0000
0000
,  // measure 44
1002
0000
0000
0000
0103
00M0
0100
1000
0000
0100
0010
0001
1000
0000
0010
0100
,  // measure 45
0002
0000
0000
0000
0013
0M00
0010
1000
0000
0100
2000
0000
0002
0000
3003
0000
,  // measure 46
2001
0000
0000
0000
3100
0100
0001
0100
0010
0000
1000
0100
0000
0010
0001
1000
,  // measure 47
0001
0000
0100
0000
0001
0000
0100
0000
0000
0010
0000
0000
1000
0000
0000
0000
0000
0000
0001
0000
0000
0010
0000
0000
0000
0000
0000
0001
0000
0000
0100
0000
0000
0010
0000
0000
1000
0000
0000
0000
0000
0000
0001
0000
0000
0000
0000
0000
,  // measure 48
2001
0000
0000
0000
3100
00M0
0100
0001
0000
0100
0010
1000
0001
0000
0010
0000
,  // measure 49
0200
0000
0000
0000
0000
0000
0000
0000
0000
0000
0000
0000
1300
0000
0100
0000
1000
0000
0100
0000
0000
0010
0000
0000
0001
0000
0000
0000
0000
0000
1000
0000
0000
0020
0000
0000
0200
0000
0000
0000
0000
0000
0330
0000
0000
0000
0000
0000
,  // measure 50
2001
0000
0000
0000
3010
0M00
0010
0001
0000
0010
0100
1000
0100
0010
0001
2000
,  // measure 51
0010
0000
0000
0000
0000
0000
3002
0000
0000
0100
0000
0000
0000
0000
0000
1003
0000
0000
0100
0000
0000
0010
0000
0000
0001
0000
1000
0000
0001
0000
1000
0000
0000
0000
0000
0000
1010
0000
0000
0000
0000
0000
0101
0000
0000
0000
0000
0000
,  // measure 52
2001
0000
0000
0000
3100
00M0
0100
0001
0100
0010
1000
0001
0020
0000
0130
1000
,  // measure 53
0002
0000
0000
0000
0013
0M00
0010
1000
0010
0100
0001
0000
2000
0000
3000
0000
,  // measure 54
1002
0000
0000
0000
0103
0100
1000
0100
0010
0000
0001
0100
0000
0010
1000
0001
,  // measure 55
1000
0000
0100
0000
1000
0000
0100
0000
0000
0010
0000
0000
0001
0000
0000
0000
0000
0000
1000
0000
0000
0010
0000
0000
0000
0000
0000
1000
0000
0000
0002
0000
0000
0000
0000
0000
0100
0000
0000
0000
0000
0000
1003
0000
0000
0000
0000
0000
,  // measure 56
1002
0000
0000
0000
0103
00M0
0100
1000
0100
0010
0001
1000
0001
0000
0100
0000
,  // measure 57
0020
0000
0000
0000
0000
0000
0000
0000
0000
0000
0000
0000
1030
0000
0010
0000
1000
0000
0010
0000
0000
0100
0000
0000
0001
0000
0000
0000
0000
0000
1000
0000
0000
0200
0000
0000
0020
0000
0000
0000
0000
0000
0330
0000
0000
0000
0000
0000
,  // measure 58
2001
0000
0000
0000
3010
0M00
0010
0001
0010
0100
1000
0001
0100
0001
1000
0010
,  // measure 59
0100
0000
1000
0100
0000
0001
0100
0100
1000
0100
0010
0001
1000
0000
1001
0000
,  // measure 60
0220
0330
0000
0000
;

//---------------dance-single - ----------------
#NOTEDATA:;
#CHARTNAME:;
#STEPSTYPE:dance-single;
#DESCRIPTION:;
#CHARTSTYLE:;
#DIFFICULTY:Hard;
#METER:13;
#RADARVALUES:0.625371,0.633000,0.341452,0.262656,0.525311,500.000000,461.000000,39.000000,30.000000,0.000000,0.000000,0.000000,0.000000,0.000000,0.625371,0.633000,0.341452,0.262656,0.525311,500.000000,461.000000,39.000000,30.000000,0.000000,0.000000,0.000000,0.000000,0.000000;
#CREDIT:Kingly;
#NOTES:
0000
0000
0000
0000
,
0000
0000
0000
0000
,
0000
0000
0000
0000
,
0000
0000
0000
0000
,
1001
0000
0000
0000
0001
0000
0010
0000
0100
0000
0000
1000
0000
0000
0010
0000
,
1000
0000
0001
0000
0010
0000
0001
0000
0100
0000
0000
0010
0000
0000
1000
0000
,
0001
0000
1000
0000
0100
0000
0010
0000
0100
0000
0000
1000
0000
0000
0010
0000
,
1000
0000
0001
0000
0100
0000
1000
0000
0100
0000
0000
0010
0000
0000
1000
0000
,
1001
0000
0000
0000
1000
0000
0010
0000
0100
0000
0000
0001
0000
0000
0010
0000
,
0001
0000
1000
0000
0010
0000
1000
0000
0100
0000
0000
0010
0000
0000
0001
0000
,
1000
0000
0001
0000
0100
0000
0010
0000
0100
0000
0000
0001
0000
0000
0010
0000
,
0001
1000
0100
0001
0100
1000
1001
0000
,
0001
0000
1000
0100
0000
1000
0010
0000
0100
0000
0001
0100
0000
0001
0010
0000
,
0100
0000
1000
0010
0000
1000
0001
0000
0100
0000
0001
0010
0000
0001
1000
0000
,
0010
0000
1000
0100
1000
0000
0001
0100
0001
0000
1000
0010
1000
0000
0001
0010
,
0001
0000
1000
0100
0000
0010
0001
2000
0002
0000
3003
0000
1001
0000
0000
0000
,
1000
0000
0100
0000
0001
0000
0100
0010
0001
0000
0000
0011
0000
0000
0011
0000
,
1000
0000
0010
0000
1010
0000
0000
1010
0000
0000
1010
0000
0001
0000
0010
0000
,
0001
0000
0100
0000
1000
0000
0100
0010
1000
0000
0000
1010
0000
0000
1010
0000
,
0001
0000
1000
0100
0000
1000
0100
0000
0010
0001
0000
0010
0002
0000
0000
0000
,
1003
0000
0010
0000
0100
0001
0100
0001
0100
0000
0000
1100
0000
0000
1100
0000
,
0001
0000
0010
0000
1100
0000
0000
0101
0000
0000
0101
0000
1000
0000
0010
0000
,
1000
0000
0100
0000
0001
0000
0100
0010
0001
0000
0000
0011
0000
0000
0011
0000
,
1000
0000
0010
0000
1000
0000
0010
0000
0100
0001
1000
0000
0001
0000
1001
0000
,
1000
0000
0100
0000
0001
0000
0100
1000
0000
0001
0100
0000
0010
0000
1000
0000
,
0001
0000
0100
0000
1000
0000
0100
0001
0000
1000
0100
0000
0010
0000
0001
0000
,
1000
0000
0100
0000
0001
0000
0100
1000
0000
0001
0100
0000
0010
0000
1000
0000
,
0001
0000
1000
0010
0000
1000
0010
0000
0100
0001
0000
0100
0002
0000
0000
0000
,
1003
0000
0010
0000
0001
0000
0010
0100
0000
0001
0100
0000
0010
0000
1000
0000
,
0001
0000
0010
0000
1000
0000
0010
0100
0000
1000
0100
0000
0010
0000
0001
0000
,
1000
0000
0010
0000
0001
0000
0010
0100
0000
0001
0100
0000
0010
0000
1000
0001
,
1000
0000
0001
0010
0000
0100
1000
0002
2000
0000
3003
0000
0110
0000
0000
0000
,
1001
0000
0000
0000
1000
0000
0100
0000
0010
0000
0000
0001
0000
0000
0100
0000
,
0001
0000
1000
0000
0100
0000
1000
0000
0010
0000
0000
0100
0000
0000
0010
0000
,
1000
0000
0000
0000
0001
0000
0100
0000
0010
0000
0000
0100
0000
0000
2000
0000
,
0000
0000
3100
0000
0001
0000
1000
0000
0100
0000
0000
0010
0000
0000
0001
0000
,
1001
0000
0000
0000
0001
0000
0100
0000
0010
0000
0000
1000
0000
0000
0100
0000
,
1000
0000
0001
0000
0100
0000
0001
0000
0010
0000
0000
0100
0000
0000
0010
0000
,
0001
1000
0100
0010
0100
0001
0000
0110
,
0000
0000
0000
0000
1000
0001
1000
0000
0001
1000
0001
0000
1001
0000
0000
0000
,
1000
0000
0001
0100
0000
0001
0010
0000
0100
0000
1000
0100
0000
1000
0010
0000
,
0100
0000
0001
1000
0000
0001
0010
0000
0100
0000
1000
0001
0000
1000
0010
0000
,
0100
0000
0001
0010
0001
0000
1000
0100
1000
0000
0001
0100
0001
0000
1000
0010
,
2000
0000
0000
0000
0000
0000
3001
0010
0100
0000
1000
0002
2000
0000
3003
0000
,
1002
0000
0000
0000
1003
0000
0001
0100
0000
0001
0010
0000
0100
0000
1000
0010
,
2000
0000
0000
0000
3001
0000
0010
0100
0000
0010
0002
0000
2000
0000
3003
0000
,
1002
0000
0000
0000
0103
0010
1000
0000
1010
0000
0001
0010
0000
0001
0010
0000
,
0100
0000
1000
0000
0001
0000
1000
0010
0000
1000
0010
0000
0100
0000
0001
0000
,
2001
0000
0000
0000
3001
0000
1000
0100
0000
1000
0010
0000
0100
0000
0001
0000
,
0020
0000
0000
0000
0130
0000
1000
0001
0100
0000
0001
1000
0200
0000
0300
0000
,
2001
0000
0000
0000
3100
0000
0010
0001
0000
0010
0001
0000
1000
0010
1000
0000
,
0001
0000
0100
0010
0000
0010
0100
0001
1000
0000
0100
0000
0110
0000
0110
0000
,
2001
0000
0000
0000
3001
0000
1000
0010
0000
1000
0100
0000
0010
0000
0001
0100
,
0002
0000
0000
0000
1003
0000
0100
0010
0000
0100
2000
0000
0002
0000
3003
0000
,
2001
0000
0000
0000
3010
0100
0001
0000
0101
0000
1000
0100
0000
1000
0100
0000
,
0010
0000
0001
0000
1000
0000
0001
0100
0000
0001
0100
0000
0010
0000
1000
0000
,
1002
0000
0000
0000
1003
0000
0001
0010
0000
0001
0100
0000
0010
0000
1000
0000
,
0200
0000
0000
0000
0310
0000
0001
1000
0010
0000
1000
0001
0020
0000
0030
0000
,
1002
0000
0000
0000
0013
0000
0100
1000
0000
0100
1000
0000
0001
0100
0001
0000
,
1000
0000
0010
0100
0000
0100
0010
1000
0001
0000
0010
0000
0110
0000
0110
0000
,
2002
3003
0000
0000
;
