#TITLE:Shout;
#SUBTITLE:;
#ARTIST:Black Tide;
#TITLETRANSLIT:;
#SUBTITLETRANSLIT:;
#ARTISTTRANSLIT:;
#GENRE:;
#CREDIT:;
#MUSIC:Shout.ogg;
#BANNER:Shout-bn.png;
#BACKGROUND:Shout-bg.png;
#CDTITLE:;
#SAMPLESTART:35.980;
#SAMPLELENGTH:13.063;
#SELECTABLE:YES;
#OFFSET:1.088;
#BPMS:0.000=84.963
,20.000=169.925
,65.000=170.280
,73.000=169.840
,81.000=170.460
,83.500=169.320
,86.000=169.910
,90.000=170.340
,103.500=169.360
,106.000=169.520
,108.000=169.740
,121.000=169.930
,124.000=170.620
,126.000=169.750
,131.500=170.090
,145.500=169.000
,148.500=171.150
,150.000=169.950
,180.000=170.230
,185.000=169.840
,194.000=170.060
,208.000=170.860
,210.000=171.190
,214.000=169.160
,222.000=170.390
,232.000=169.360
,234.000=168.930
,237.000=170.340
,244.000=169.520
,245.000=170.600
,246.000=169.730
,254.000=170.850
,256.000=170.000
,277.333=178.000
,278.000=171.190
,280.000=170.000
,290.000=169.790
,294.000=169.800
,300.000=171.000
,302.000=170.000
,306.000=168.000
,308.000=170.570
;
#STOPS:;
#DISPLAYBPM:170.000;
#BGCHANGES:1.800=Shout.mp4=1.000=0=0=1,
99999.000=-nosongbg-=1.000=0=0=0=StretchNoLoop====
;
#FGCHANGES:;

//--------------- dance-single - OrangeRight ----------------
#NOTES:
     dance-single:
     OrangeRight:
     Beginner:
     5:
     0,0,0,0,0:
0000
0000
0000
0000
,
0000
0000
0000
0000
,
0000
0000
0000
0000
,
0000
0000
0000
0000
,
0000
0000
0000
0000
,
0000
0000
1000
0000
,
1000
0000
0001
0000
,
0001
0000
0200
0300
,
0000
0000
0200
0300
,
0000
0000
0001
0000
,
0001
0000
1000
0000
,
1000
0000
0200
0300
,
0000
0000
0200
0300
,
0000
0000
1000
0000
,
0010
0000
0100
0000
,
0001
0000
1000
0000
,
0100
0000
0010
0000
,
0001
0000
1000
0000
,
0001
0000
0100
0000
,
0010
0000
1000
0000
,
0001
0000
1000
0000
,
1000
0000
2002
0000
,
3003
0000
1000
0000
,
0100
0000
0010
0000
,
0001
0000
0100
0000
,
0000
0000
0110
0000
,
0000
0000
0100
0000
,
0010
0000
1000
0000
,
0100
0000
1000
0000
,
0000
0000
2002
0000
,
3003
0000
0001
0000
,
0100
0000
0010
0000
,
1000
0000
0100
0000
,
0000
0000
0110
0000
,
0000
0000
0100
0000
,
1000
0000
0001
0000
,
0100
0000
0001
0000
,
0001
0000
1000
0000
,
0000
0000
0001
0000
,
0000
0000
1000
0000
,
0000
0000
0001
0000
,
1000
0000
0001
0000
,
0000
0000
1000
0000
,
0000
0000
0001
0000
,
0000
0000
1000
0000
,
0001
0000
1000
0000
,
0000
0000
0100
0000
,
0000
0000
0010
0000
,
0000
0000
0001
0000
,
1000
0000
0001
0000
,
0000
0000
0100
0000
,
0000
0000
0010
0000
,
0000
0000
1000
0000
,
0001
0000
1000
1000
,
1000
1000
0001
0001
,
0001
0001
0010
0000
,
0100
0000
1000
0000
,
0001
1000
0001
0000
,
1000
0000
0010
0000
,
0100
0000
0001
0001
,
0001
0000
1000
1000
,
1000
0000
0001
0001
,
1000
1000
0001
0001
,
1000
1000
0001
0000
,
0010
0000
0100
0000
,
1000
0000
0010
0000
,
0001
0000
0010
0000
,
1000
0000
0001
0000
,
1000
0000
1001
0000
,
0000
0000
1001
0000
,
0000
0000
1000
0000
,
0010
0000
0100
0000
,
0001
0000
1000
0000
,
0001
0000
1001
0000
,
0000
0000
0001
0000
,
0010
0000
0100
0000
,
1000
0000
0001
0000
,
0000
0000
2002
0000
,
0000
0000
0000
0000
,
0000
0000
3003
0000
;

//--------------- dance-single - OrangeRight ----------------
#NOTES:
     dance-single:
     OrangeRight:
     Easy:
     7:
     0,0,0,0,0:
0000
0000
0000
0000
,
0000
0000
0000
0000
,
0000
0000
0000
0000
,
0000
0000
0000
0000
,
0000
0000
0000
0000
,
1000
0001
1000
0100
,
1000
0010
0100
0001
,
1000
0000
2001
0000
,
3100
1000
0020
0000
,
1030
0001
1000
0010
,
1000
0100
0010
0001
,
1000
0000
1002
0000
,
0013
0001
0200
0000
,
0301
1000
0001
0010
,
0100
1000
0020
0000
,
0130
0001
0010
0001
,
0100
0010
1000
0100
,
1000
0001
1000
0100
,
0010
0001
1000
0001
,
0010
0100
1000
0010
,
0100
0001
1000
1000
,
0001
0001
2002
0000
,
3003
0000
1000
0001
,
0010
0000
0010
0100
,
1000
0010
0100
0001
,
0100
0000
0001
0010
,
1000
0010
0001
0100
,
0001
0000
0202
0000
,
0303
0000
2020
0000
,
3030
0000
2002
0000
,
3003
0000
0001
1000
,
0100
0000
0100
0010
,
0001
0100
0001
1000
,
0001
0000
1000
0100
,
0001
0100
1000
0010
,
0100
0000
0220
0000
,
0330
0000
2002
0000
,
3003
0000
1000
0100
,
0010
0100
1000
0100
,
0010
0100
1000
0010
,
0100
0010
1000
0001
,
0001
1000
0001
0100
,
0010
0100
0001
0100
,
0010
0100
0001
0010
,
0100
0010
0001
1000
,
1000
0001
1000
0100
,
1000
0100
0010
0001
,
0020
0030
0001
0100
,
0001
0100
0010
1000
,
0200
0300
0100
1000
,
0010
0100
0001
0001
,
1000
0000
1000
1000
,
0001
0000
1001
0000
,
1001
0000
0000
0000
1000
0100
1000
0000
,
0100
0010
0100
0000
0010
0001
0010
0000
,
0001
1000
0001
0000
2000
0000
3002
0000
,
0013
0100
2000
0000
,
3001
1000
0001
0010
,
1000
0010
0002
0000
,
1003
0001
2002
3003
,
1000
0001
0202
0303
,
0001
0000
0100
0000
0001
0000
0001
1000
,
0000
1000
0100
0000
0100
0010
0000
0010
,
0001
1000
0001
0010
,
1000
0010
0001
1000
,
0010
0100
0001
1000
,
0100
0001
0100
1000
,
0010
0100
0001
0010
,
0100
1000
2002
3003
,
0220
0330
2002
3003
,
1000
0001
0100
0010
,
1000
0100
2200
0000
,
3300
0000
1000
0001
,
0100
0010
0220
0330
,
0100
0010
1000
0100
,
0010
0001
2002
3003
,
0220
0330
1001
0000
,
0000
0000
2002
0000
,
0000
0000
0000
0000
,
0000
0000
0000
3003
;

//--------------- dance-single - OrangeRight ----------------
#NOTES:
     dance-single:
     OrangeRight:
     Medium:
     11:
     0,0,0,0,0:
0000
0000
0000
0000
,
0000
0000
0000
0000
,
0000
0000
0000
0000
,
0000
0000
0000
0000
,
0000
0000
0000
0000
,
1000
0001
1000
0002
0000
0000
0103
0000
,
0001
1000
0000
0010
0000
1000
0001
0000
,
0010
0100
0010
0002
0000
0000
0010
0000
,
1000
0100
2003
0100
,
3001
1000
0001
2000
0000
0000
3010
0000
,
1000
0001
0000
0100
0000
0001
1000
0000
,
0010
0100
0010
2000
0000
0000
0100
0000
,
0001
0010
3002
0010
,
1003
0001
1000
0002
0000
0000
0013
0000
,
0001
1000
0000
1200
0000
0000
0310
0000
,
0001
0100
0000
0120
0000
0000
1030
0000
,
0100
1000
0000
0010
0000
0100
0000
0001
,
0000
1000
0001
2000
0000
0000
3100
0000
,
0010
0001
0000
0102
0000
0000
0013
0000
,
0100
1000
0000
1020
0000
0000
0130
0000
,
0001
0000
1000
0001
0000
1001
0000
1001
,
0000
1000
0100
0000
2100
0000
0000
0000
,
3001
0000
0001
0100
0002
0000
0000
0000
,
1003
0000
0100
0000
0020
0000
0000
0032
,
0000
0000
2003
0000
3100
1000
0001
1000
,
0001
0000
0100
0000
0001
0010
0100
1000
,
0001
0000
0100
0000
0010
0100
0001
0000
,
0010
0100
0000
0100
2000
0000
0001
0000
,
3100
0000
0100
1000
0002
0000
0203
0000
,
0320
1030
1002
0000
,
0103
0000
0100
0001
2000
0000
0000
0000
,
3100
0000
1000
0000
0002
0000
0000
0203
,
0000
0000
0320
0000
1030
0001
0000
1000
,
0000
0001
1000
0001
1000
0100
0010
0001
,
1000
0000
0010
0000
1000
0001
0100
0000
,
0001
1000
0000
1000
0002
0000
1000
0000
,
1003
0000
0001
0010
0100
1000
0000
1001
,
0000
1001
0000
0001
1000
0000
1000
0100
,
0000
0000
0100
0010
0000
0000
0010
0002
,
0000
0103
0001
0100
0001
0000
0001
0010
,
0000
0000
0010
0100
1000
0001
1000
0000
,
0001
1000
0001
0000
0001
0000
0001
0010
,
0000
0000
0010
0100
0000
0000
0100
2000
,
0000
3010
1000
0010
1000
0000
1000
0200
,
0000
0300
0100
0010
0001
1000
0001
0000
,
1000
0001
1000
0000
1000
0000
1000
0002
,
0000
0003
0001
2000
0000
3000
1000
0002
,
0000
0013
0100
1000
0001
0000
0001
2000
,
0000
3000
1000
0001
0100
0010
0100
0000
,
0001
1000
0001
0000
1000
0100
0010
0002
,
0000
0013
0100
2000
0000
3100
0010
0002
,
0000
1003
0010
0100
0001
0100
0010
2000
,
0000
3001
0010
0100
1000
0010
0000
0100
,
0000
0001
1000
0000
0001
0100
0001
0100
,
0010
1000
0010
1000
0100
0010
0100
0010
,
0001
1000
0001
1000
0002
0000
0103
0010
,
1000
0100
0010
0001
2000
0000
0100
0000
,
3001
0100
0000
0100
0010
0000
0100
0001
,
1000
0001
0010
0100
1000
0001
1000
0000
,
0010
0100
0010
0000
1000
0001
1001
0000
,
0001
0100
0001
0000
0001
1000
1001
0000
,
1000
0100
0010
0001
1000
0001
0100
0001
,
1000
0100
1000
0001
0010
0001
1000
0010
,
1000
0001
0010
1000
0020
0000
0031
0100
,
0010
0100
0001
2000
0000
3100
0010
0001
,
1000
0010
0100
0000
0002
0000
0013
0100
,
2000
0000
3010
0100
0002
0000
1003
0010
,
0100
0001
0010
0200
0000
1300
0010
0001
,
0010
0000
0000
1000
0000
0000
0100
0000
0000
0000
0000
0000
1000
0000
0000
0000
1000
0000
0000
0000
1000
0000
0000
0000
,
0001
0000
0001
0000
0001
0000
2001
0000
0000
3100
0000
0000
,
1000
0010
1000
0000
0001
0100
0001
0000
,
0010
0000
0000
0001
0000
0000
0100
0000
0002
0000
0000
0000
0010
0000
0000
0000
,
1000
0000
0103
0000
0001
0100
0010
0100
,
0001
1000
1002
0013
,
0001
0010
0001
0000
1000
0100
1000
0000
,
0001
0000
0000
0000
0000
0000
0000
0000
0000
1000
0000
0000
0000
0000
0000
0000
0000
0000
0001
0000
0000
0000
0000
0000
0010
0000
0000
0000
0000
0000
0000
0000
0001
0000
0000
0000
0000
0000
0000
0000
0100
0000
0000
0000
0000
0000
0000
0000
,
0010
0000
1000
0000
0001
0000
1001
0000
0000
0000
0000
0000
,
0100
0000
0220
0000
,
0000
0000
0000
0000
,
0000
0000
0000
0330
;

//--------------- dance-single - OrangeRight ----------------
#NOTES:
     dance-single:
     OrangeRight:
     Hard:
     13:
     0,0,0,0,0:
0000
0000
0000
0000
,
0000
0000
0000
0000
,
0000
0000
0000
0000
,
0000
0000
0000
0000
,
0000
0000
0000
0000
,
1000
0100
0010
0002
0000
0100
0103
0001
,
0010
0100
1000
0010
0100
0010
1000
0000
,
0010
1000
0100
0020
0000
0000
0001
0000
,
0100
0000
0031
1000
0010
0100
0010
0000
,
1000
0010
0100
0002
0000
0010
0013
0001
,
0100
0010
1000
0100
1000
0001
0010
0000
,
0010
0001
0100
0020
0000
0000
1000
0000
,
0100
0000
1030
0001
0100
0010
0100
0000
,
0001
0010
0100
2000
0000
0010
3010
1000
,
0100
0010
0001
2000
0000
3001
0100
0010
,
0100
0001
1000
0002
0000
1003
0100
0010
,
0001
0200
0000
2300
0000
3200
0000
0302
,
0000
1003
0001
2000
0000
0100
3100
1000
,
0010
0100
0000
0210
0000
0000
0301
0010
,
0100
1000
0000
1002
0000
0100
0103
0001
,
0010
0100
1000
1010
0000
0110
0000
0101
,
0000
1001
1001
0000
2001
0000
0000
0000
,
3010
0000
0010
1000
0001
0010
0000
0010
,
0100
0000
1000
0000
2020
0000
3030
0220
,
0000
0330
0202
0000
0303
0001
0100
0001
,
1000
0001
0010
0100
1000
0010
0100
0010
,
1000
0200
0000
0310
0001
0200
0000
0310
,
1000
0000
0001
0000
0000
1000
0000
0000
0002
0000
0000
0000
0100
0000
0000
0000
,
1000
0000
0000
0000
0000
0000
0013
0000
0000
0001
0000
0000
1000
0000
0010
0000
1000
0000
0010
0000
1000
0000
0010
0000
,
0100
0001
0100
0001
0000
0000
1002
0000
0000
0000
0000
0000
,
0103
0000
0100
0001
1000
0100
0000
0100
,
0010
0000
0001
0000
0202
0000
0303
0220
,
0000
0330
2020
0000
3030
1001
0000
0110
,
0000
0100
0010
0100
0001
0010
1000
0010
,
0001
0200
0000
0310
1000
0200
0000
1300
,
0001
0000
1000
0000
0000
0001
0000
0000
2000
0000
0000
0000
0010
0000
0000
0000
,
0001
0000
3100
1000
0001
0101
0000
0110
,
0000
1010
0000
1001
1000
0100
0010
0002
,
0000
0013
0100
2000
0000
3001
0100
0002
,
0000
1003
0010
1000
0001
0010
0100
2000
,
0000
3100
0010
0001
1000
1000
0010
0010
,
0100
0100
0001
1000
0001
0100
0010
2000
,
0000
3010
0100
0002
0000
1003
0100
2000
,
0000
3001
0010
0001
1000
0010
0100
0002
,
0000
0013
0100
1000
0001
0001
0100
0100
,
0010
0010
1000
0001
2000
0000
3100
1000
,
0020
0000
1030
0010
0200
0000
0310
0100
,
0002
0000
1003
0001
0020
0000
0130
1000
,
0001
1000
0010
0100
0001
0010
0001
0010
,
0100
1000
0100
1000
0002
0000
0013
0001
,
0200
0000
0000
0000
0301
0000
0100
0000
0010
0000
0000
1000
0000
0000
0100
0000
,
0010
0000
0000
0000
0011
0000
0000
0000
0010
0000
0000
0001
0000
0000
0100
0000
,
0000
0101
0000
0011
0000
1100
0000
1010
,
0000
0000
0210
0000
0000
0000
0000
0000
0301
0010
0001
0000
0100
0000
0010
0000
,
1000
0100
1000
0000
0010
0000
0100
0000
0001
0100
0001
0000
0010
0000
0100
0000
,
1000
0001
1000
0001
0010
0000
0001
0000
0200
0000
0000
0000
0310
1000
0010
0000
,
0100
0000
0001
0000
0010
0000
1000
0000
0010
0000
0001
0000
0100
0001
0100
0000
,
0001
1000
0001
1000
0100
0000
1000
0000
0010
0000
1000
0000
0001
0000
1000
0000
,
0100
0000
0010
0000
0001
0100
0001
0000
1000
0000
0001
0000
0100
0010
0100
0000
,
0001
0000
1000
0000
0100
0010
0100
0000
1000
0000
0010
0000
1020
0000
0000
0000
,
0130
0000
0001
0000
0010
0001
0010
0000
0001
0000
0100
0000
0201
0000
0000
0000
,
0310
1000
0010
1000
0001
0000
1000
0000
0001
0010
0100
0000
1000
0000
1000
0100
,
0010
0000
0001
0000
0001
0100
0010
0000
1000
0000
1000
0010
0100
0000
0001
0000
,
1000
0001
1000
0001
1000
0000
0100
0000
0020
0000
0000
0000
0031
0010
0001
0000
,
1000
0000
0010
0000
0100
0001
0100
0000
0001
0000
0010
0000
0100
1000
0100
0000
,
1000
0000
0001
1000
0001
0000
1000
0000
0010
0000
0100
0000
0001
0000
1000
0000
,
0100
0000
1000
0100
1000
0000
0001
0000
0100
0000
0001
0100
0001
0000
1000
0000
,
0100
0010
0001
0200
0000
0310
1000
0100
,
1000
0000
0000
0001
0000
0000
1000
0000
0000
0000
0000
0000
0001
0000
0000
0000
0000
0000
1000
0000
0000
0000
0000
0000
0001
0000
0000
0000
0000
0000
0000
0000
0100
0000
0000
0000
0000
0000
0000
0000
0101
0000
0000
0000
0000
0000
0000
0000
,
1000
0000
0000
0000
0100
0000
0000
0000
1100
0000
0000
0000
1002
0000
0000
0000
0000
0000
0103
0000
0000
0001
0000
0000
,
1000
0001
0010
0001
0100
0001
0010
0001
,
1000
0000
0100
0000
0000
0010
0000
0000
0001
0000
0010
0000
0100
0000
1000
0000
,
0001
0100
0010
1000
0100
0010
0001
1000
,
0010
0001
0010
1000
2001
0000
3100
1000
,
0001
1000
0010
1000
0100
1000
0010
1000
,
0001
0000
0000
0000
0000
0000
0010
0000
0000
0000
0000
0000
0000
0000
0000
0100
0000
0000
0000
0000
0000
0000
0000
0000
1000
0000
0000
0000
0000
0000
0000
0000
0010
0000
0000
0000
0000
0000
0000
0000
1010
0000
0000
0000
0000
0000
0000
0000
,
0001
0000
0010
0000
0011
0000
1001
0000
0000
0000
0000
0000
,
0200
0300
2002
0000
,
0000
0000
0000
0000
,
0000
0000
0000
3003
;

//--------------- dance-single - OrangeRight ----------------
#NOTES:
     dance-single:
     OrangeRight:
     Challenge:
     15:
     0,0,0,0,0:
0000
0000
0000
0000
,
0000
0000
0000
0000
,
0000
0000
0000
0000
,
0000
0000
0000
0000
,
0000
0000
0000
0000
,
1000
0001
1000
1002
0000
0103
0001
0010
,
0100
0010
0001
0101
0000
1010
1000
0100
,
0010
0001
1000
1002
0000
0013
0001
0100
,
0010
1000
0001
2001
0000
3010
0100
0010
,
1000
0001
1000
2001
0000
3100
1000
0010
,
0100
0010
1000
1100
0000
0011
0001
0100
,
0010
1000
0001
2001
0000
3100
1000
0010
,
0100
0001
1000
1002
0000
0103
0010
0100
,
0001
0010
0100
2100
0000
3010
1000
0100
,
0001
0100
0010
0012
0000
0103
0001
1000
,
0100
1000
0010
0210
0000
0301
0010
0100
,
1000
0010
0100
0001
0100
1000
0100
0010
,
1000
0100
0010
0012
0000
0103
0001
0010
,
1000
0010
0100
2100
0000
3010
1000
0100
,
0001
0100
0010
0012
0000
1003
0001
0100
,
0010
1000
0001
1001
0000
0110
0000
1001
,
0000
1010
0011
0000
1002
0000
0100
0000
,
1000
0000
0013
0001
1000
1100
0000
0001
,
0101
0000
1000
0000
2020
0000
3030
0220
,
0000
0330
0101
0001
1000
0100
0010
0001
,
1000
0001
0010
0100
1000
0010
0100
0001
,
1000
1002
0000
0013
0001
0201
0000
0310
,
0100
0000
0001
0000
0000
1000
0000
0000
1002
0000
0000
0000
0010
0000
0000
0000
,
1000
0000
0000
0000
0000
0000
0103
0000
0000
0001
0000
0000
1000
0000
0100
0000
1000
0000
0100
0000
0010
0000
0100
0000
,
0010
0001
0010
0001
1000
0001
2001
0000
0000
0010
0000
0000
,
0001
0000
3100
1000
0001
0011
0000
1000
,
1010
0000
0001
0000
0202
0000
0303
2002
,
0000
3003
1010
1000
0001
0101
0000
0011
,
0000
1010
1000
0100
0010
0001
0100
0001
,
0010
0210
0000
1300
0001
0201
0000
0310
,
0100
0000
0001
0000
0000
1000
0000
0000
1020
0000
0000
0000
0100
0000
0000
0000
,
0001
0000
0130
0001
1000
1001
0000
0110
,
0000
1001
1000
0001
1000
0100
0010
0002
,
0000
0013
0100
2000
0000
3010
0100
0002
,
0000
0103
0010
1000
0100
0010
0001
2000
,
0000
0000
3001
0000
0100
0000
0010
0000
1000
0000
0001
0000
0100
0010
0100
0000
,
0001
0000
1000
0000
0100
0010
0100
0000
1000
0000
0010
0000
0100
0000
0002
0000
,
0000
0103
0010
2000
0000
3100
0010
0002
,
0000
0013
0100
1000
0010
0100
0001
2000
,
0000
0000
3001
0000
0010
0000
0100
0000
1000
0000
0010
0000
0100
0001
0100
0000
,
0001
0000
0010
0000
0100
1000
0100
0000
1000
0000
0010
0000
0100
0000
0002
0000
,
0000
1003
0100
0010
0001
0101
0000
1010
,
0000
1000
0010
0100
0001
0010
0100
2000
,
0000
0000
3010
0000
0100
0000
0001
0000
1000
0000
0010
0000
1000
0100
1000
0000
,
0001
0000
0010
0000
0001
0100
0001
0000
1000
0000
0001
0000
0100
0000
0020
0000
,
0000
0000
1030
0000
0100
0000
0010
0000
0011
0000
0000
0101
0000
0000
0110
0000
,
1010
0000
0000
0000
1100
0000
0000
0000
1010
0000
0000
0110
0000
0000
0101
0000
,
0000
0011
0000
1100
0000
1010
0000
0101
,
0000
0000
1002
0000
1000
0000
1000
0000
1003
0100
0010
0001
0100
0010
1000
0010
,
0100
0001
0010
0100
1000
0010
0100
0010
1000
0001
0010
0001
1000
0010
0100
0001
,
0100
0010
1000
0100
0010
0001
0010
0100
2000
0000
0001
0000
3001
1000
0100
0000
,
0010
0000
0001
0000
0100
0010
1000
0000
0002
0000
1000
0000
1003
0001
0100
0000
,
0001
0100
0001
1000
0100
0010
0100
0000
1000
0000
0001
0000
0100
0000
1000
0000
,
0100
0000
0010
0000
0100
0001
0100
0000
0010
0000
1000
0000
0100
1000
0100
0000
,
0010
0000
0000
0000
0000
0000
0001
0000
0000
0000
0000
0000
1000
0000
0000
0001
0000
0000
1000
0000
0000
0000
0000
0000
0001
0000
0000
0000
0100
0000
0000
0000
0010
0000
0000
0000
2000
0000
0000
0000
0000
0000
0001
0000
0000
0000
0000
0000
,
3001
0000
1000
0000
0100
1000
0100
0000
1000
0000
0010
0100
0001
0000
0010
0000
,
0100
1000
0010
0100
0001
1000
0001
0000
1000
0010
0100
0001
0010
0001
1000
0100
,
0010
0001
0100
0001
1000
0010
0100
0001
1000
0100
0001
0100
1000
0010
0100
0001
,
0010
1000
0010
0001
0100
0010
1000
0001
2000
0000
0000
0000
3001
0100
0010
0000
,
1000
0000
0100
0000
1000
0010
0100
0000
0001
0000
1000
0000
0100
0010
0001
0000
,
0100
0000
0010
1000
0010
0000
0100
0000
0001
0000
1000
0000
0100
0000
0001
0000
,
0100
0000
1000
0001
0100
0000
0010
0000
1000
0000
0001
1000
0100
0000
0010
0000
,
0001
0100
0001
2001
0000
3100
1000
0010
,
0001
0000
0000
0010
0000
0000
1000
0000
0000
0000
0000
0000
0001
0000
0000
0000
0000
0000
1000
0000
0000
0000
0000
0000
1001
0000
0000
0000
0000
0000
0000
0000
1100
0000
0000
0000
0000
0000
0000
0000
0101
0000
0000
0000
0000
0000
0000
0000
,
0011
0000
0000
0000
1010
0000
0000
0000
1100
0000
0000
0000
1010
0000
0000
0010
0000
0000
1000
0000
0000
0100
0000
0000
,
1000
0000
0010
0000
0100
0000
0001
0000
0010
0000
0001
0000
1000
0001
1000
0000
,
1001
0000
0000
1100
0000
0000
0110
0000
0011
0000
0001
0000
0100
0000
0001
0000
,
1000
0001
0010
0100
1000
0001
0100
0010
,
1000
0100
1000
0100
0010
0000
0001
0000
0101
0000
0100
0000
0001
0000
1000
0000
,
0001
0000
0010
0000
0001
0000
0100
0000
0010
0000
1000
0000
0001
1000
0001
0000
,
1001
0000
0000
0000
0000
0000
0000
0000
0000
0110
0000
0000
0000
0000
0000
0000
0000
0000
1001
0000
0000
0000
0000
0000
1100
0000
0000
0000
0000
0000
0000
0000
0101
0000
0000
0000
0000
0000
0000
0000
1100
0000
0000
0000
0000
0000
0000
0000
,
0011
0000
1010
0000
0011
0000
1001
0000
0000
0000
0000
0000
,
0220
0330
2002
0000
,
0000
0000
0000
0000
,
0000
0000
0000
3003
;
