#TITLE:She is my wife;
#SUBTITLE:;
#ARTIST:SUPER STAR 満-MITSURU-;
#TITLETRANSLIT:;
#SUBTITLETRANSLIT:;
#ARTISTTRANSLIT:SUPER STAR -MITSURU-;
#GENRE:;
#CREDIT:;
#BANNER:She is my wife.png;
#BACKGROUND:She is my wife-bg.png;
#LYRICSPATH:;
#CDTITLE:;
#MUSIC:She is my wife.ogg;
#OFFSET:0.000000;
#SAMPLESTART:50.130001;
#SAMPLELENGTH:15.000000;
#SELECTABLE:YES;
#DISPLAYBPM:85.000000:170.000000;
#BPMS:0.000000=85.106003
,4.000000=84.988998
,52.000000=170.007996
;
#STOPS:52.000000=1.060000
;
#BGCHANGES:0.000=She is my wife.avi=1.000=0=0=0=StretchNoLoop====,
99999=-nosongbg-=1.000=0=0=0 // don't automatically add -songbackground-
;
#KEYSOUNDS:;
#ATTACKS:;

//---------------dance-single - ----------------
#NOTES:
     dance-single:
     :
     Challenge:
     15:
     0.686980,0.893797,0.326182,0.214348,0.810796,516.000000,481.000000,35.000000,23.000000,0.000000,0.000000,0.686980,0.893797,0.326182,0.214348,0.810796,516.000000,481.000000,35.000000,23.000000,0.000000,0.000000:
// measure 0
0000
0000
0000
0000
,  // measure 1
0000
0000
0000
0000
,  // measure 2
0000
0000
0000
0000
,  // measure 3
0000
0000
0000
0000
,  // measure 4
0000
0000
0000
0000
0000
0000
0000
0000
0000
0000
0000
0000
0000
1000
0100
0010
,  // measure 5
0001
0000
0100
0010
0100
0000
0010
0010
0010
0000
1000
0001
0010
0000
0100
0000
,  // measure 6
0110
0000
0001
0100
0010
0000
0100
0000
0110
0000
1000
0001
0010
0000
0100
0000
,  // measure 7
0110
0000
0000
0000
0000
0000
0100
0000
0000
1000
0000
0000
0001
0000
0000
0000
0000
0000
1000
0000
0010
0000
1000
0000
0001
0000
0100
0000
0001
0000
1000
0000
0100
0000
1000
0000
0001
0000
0010
0000
0100
0000
1000
0000
0010
0000
0100
0000
,  // measure 8
0001
0000
0000
0000
0000
0000
0000
0000
0010
0000
0000
0000
0000
0000
0000
0000
0100
0000
0000
0000
0000
0000
1000
0001
1000
0000
1000
0000
0100
0000
0000
0000
,  // measure 9
0010
0000
0001
1000
0001
0000
0100
0010
1000
0000
0001
0010
2000
0000
3010
0100
,  // measure 10
1000
0000
0001
1000
0001
0000
0100
0001
0010
0000
0000
0100
0010
0000
0110
0000
,  // measure 11
1000
0000
0001
0100
0010
0000
1000
0001
0010
0000
0001
1000
0010
0000
0100
0001
,  // measure 12
0010
0000
1000
0010
0001
0000
1000
0000
0220
0000
0000
0000
0000
0000
0000
0000
,  // measure 13
0000
0330
0000
0000
0000
0000
0000
0000
0000
0000
0000
0000
0000
0000
0000
0000
2200
0000
0000
0000
0000
0000
0000
0000
0000
0000
0000
0000
0000
0000
0000
0000
0000
0000
0000
0000
0000
0000
0000
0000
0000
0000
0000
0000
0000
0000
0000
0000
0000
0000
0000
0000
0000
0000
0000
0000
0000
0000
0000
0000
0000
0000
0000
0000
,  // measure 14
3300
0202
0000
0000
,  // measure 15
0303
0220
0000
0000
,  // measure 16
0330
0000
0100
0100
0100
0000
0100
0010
,  // measure 17
1001
0000
0000
0000
0001
0100
0000
0001
0000
1000
0000
0010
0000
1000
0000
0001
,  // measure 18
0010
0100
1000
0000
0010
1000
0010
1000
0000
0010
0000
0100
0000
0001
0000
1000
,  // measure 19
0100
0010
0001
0000
1000
0010
1000
0010
1000
0010
1000
0010
0100
0001
0100
0001
,  // measure 20
0100
0001
0100
0001
1000
0000
0000
1100
0000
0000
0011
0000
0001
0000
0000
0101
,  // measure 21
0000
0000
1010
0000
2002
0000
0000
0000
3000
0000
0000
0000
1003
0000
0001
0010
,  // measure 22
0100
0000
0000
0000
1000
0000
0000
0000
0001
0000
0000
0000
0001
0000
0000
0000
0000
0000
0100
0000
0000
0010
0000
0000
0100
0000
0000
0000
0000
0000
0001
0000
0000
0000
0000
0000
1000
0000
0000
0000
0000
0000
0001
0000
0000
0010
0000
0000
,  // measure 23
0100
0000
1000
0000
0010
0000
1000
0001
0000
1000
0100
0000
0010
0000
0001
0000
,  // measure 24
1000
0000
0010
0100
0001
0000
0010
0000
0100
0000
0010
0001
1000
0000
0010
0100
,  // measure 25
0000
1000
0100
0000
0110
0000
0000
0000
1010
0000
0000
0000
1001
0000
0000
0000
,  // measure 26
0001
1000
0100
0010
0001
0000
1000
0000
0001
0000
0001
0100
0001
0000
0010
0100
,  // measure 27
0000
1000
0001
0000
1000
0000
0100
0000
1000
0000
1000
0100
1000
0000
0010
0100
,  // measure 28
0000
0001
1000
0000
0001
0000
0001
0000
1000
0000
0001
0010
0001
0010
0100
1000
,  // measure 29
0001
0100
0010
1000
0001
0000
0000
0000
0101
0000
0000
0000
0011
0000
0000
0000
,  // measure 30
1100
0000
0000
0000
0001
0000
0010
0000
0100
0000
0010
0001
1000
0000
0010
0000
,  // measure 31
0100
0000
0010
1000
0001
0000
0100
0000
0010
0000
1000
0000
0100
0000
0000
0001
,  // measure 32
0100
0000
1000
0000
0001
0000
0100
0001
0100
0000
0010
1000
0010
0000
1000
0001
,  // measure 33
1000
0000
0200
0000
0310
0000
0100
1000
0100
0000
0010
0001
0010
0000
0000
0010
,  // measure 34
0001
0100
0020
1000
0000
0100
0000
0031
,  // measure 35
0010
0000
1000
0000
0000
0000
0101
0000
0101
0000
0000
0000
1100
0000
0000
0101
,  // measure 36
0000
0000
1000
0100
0020
0000
0001
0000
0000
0000
0100
0000
0000
0000
1030
0000
,  // measure 37
0010
0000
0001
0000
0000
0000
1100
0000
1100
0000
0000
0000
0101
0000
0000
1100
,  // measure 38
0000
0000
0001
0100
0020
0000
1000
0000
0000
0000
0001
0000
0000
0000
0130
0000
,  // measure 39
0001
0010
0200
1000
0000
0001
0000
0310
,  // measure 40
0001
0000
1000
0100
0010
0001
0010
0001
0010
0000
0100
0000
1000
0010
1000
0010
,  // measure 41
1000
0000
0010
0000
0100
0001
0100
0001
1000
0100
1000
0100
0010
0100
1000
0001
,  // measure 42
0100
0001
1000
0010
0200
0000
0000
0000
0000
0000
0000
0000
0000
0000
0000
0000
,  // measure 43
0000
0000
0000
0000
0020
0000
0000
0000
0030
0000
0000
0000
0301
1000
0001
1000
,  // measure 44
0100
0010
0001
0010
0100
1000
0100
1000
0000
0001
0000
0100
0000
1000
0000
0100
,  // measure 45
0001
0100
0010
0000
1000
0100
1000
0100
0000
0001
0000
0100
0000
1000
0000
0001
,  // measure 46
0100
0010
1000
0000
0001
0010
0001
0010
0000
1000
0000
0010
0000
0001
0000
0100
,  // measure 47
0010
1000
0001
0000
0100
0001
0100
0010
1000
0000
0001
0010
0100
0000
1000
0010
,  // measure 48
0100
0010
1000
0001
1000
0000
0010
1000
0000
0001
0000
0100
0000
1000
0000
0100
,  // measure 49
0010
1000
0010
0000
1000
0001
0010
0100
0000
0010
0000
1000
0000
0010
0000
0100
,  // measure 50
0010
0001
0010
0000
0001
1000
0010
0100
0000
0001
1000
0100
0010
0100
1000
0001
,  // measure 51
0100
0010
1000
0001
0100
0000
0010
1000
0100
0000
0010
0001
0100
0010
0000
1000
,  // measure 52
0001
0000
0010
0000
0120
0000
0100
0000
0130
0000
1000
0100
0020
0000
0001
0000
,  // measure 53
0031
0000
1000
0010
0200
0000
1000
0000
1300
0000
0100
0001
0010
0000
0000
0100
,  // measure 54
0000
1000
0020
0001
0000
0100
0000
1030
,  // measure 55
0001
0000
1000
0100
0020
0000
1000
0000
0000
0000
0100
0000
0000
0000
0031
0000
,  // measure 56
0100
0000
0010
0000
1000
0010
0100
0001
1000
0000
0001
0000
0010
0100
1000
0001
,  // measure 57
0100
0000
0010
0000
1010
0000
0000
0101
0000
0000
1100
0000
0011
0000
0000
1010
,  // measure 58
0000
1001
0000
0000
0000
0000
0000
0000
;

//---------------dance-single - ----------------
#NOTES:
     dance-single:
     :
     Hard:
     14:
     0.487276,0.568780,0.177070,0.372780,0.223668,366.000000,347.000000,19.000000,40.000000,0.000000,0.000000,0.487276,0.568780,0.177070,0.372780,0.223668,366.000000,347.000000,19.000000,40.000000,0.000000,0.000000:
// measure 0
0000
0000
0000
0000
,  // measure 1
0000
0000
0000
0000
,  // measure 2
0000
0000
0000
0000
,  // measure 3
0000
0000
0000
0000
,  // measure 4
0000
0000
0000
0000
,  // measure 5
0001
0000
0100
0000
1000
0000
0100
0010
0100
0000
0000
0001
0000
0000
0010
0000
,  // measure 6
0100
0000
1000
0000
0100
0000
0001
0000
0100
0000
0000
1000
0000
0000
0010
0000
,  // measure 7
0100
0001
1000
0002
0023
0230
2300
3002
,  // measure 8
1003
0100
0010
0100
,  // measure 9
1000
0000
0100
0000
0001
0000
0100
0010
0001
0000
0100
0000
1000
0000
0100
0010
,  // measure 10
1000
0000
0100
0000
0001
0000
0100
0000
1000
0000
0000
0010
0000
0000
0001
0000
,  // measure 11
0010
0000
1000
0000
0100
0000
1000
0000
0010
0000
1000
0000
0100
0000
0010
0001
,  // measure 12
0100
1000
0100
0001
2002
0000
0000
0000
,  // measure 13
0000
3003
0000
0000
0000
0000
0000
0000
0000
0000
0000
0000
0000
0000
0000
0000
0022
0000
0000
0000
0000
0000
0000
0000
0000
0000
0000
0000
0000
0000
0000
0000
0000
0000
0000
0000
0000
0000
0000
0000
0000
0000
0000
0000
0000
0000
0000
0000
0000
0000
0000
0000
0000
0000
0000
0000
0000
0000
0000
0000
0000
0000
0000
0000
,  // measure 14
0033
0220
0000
0000
,  // measure 15
0330
2200
0000
0000
,  // measure 16
3300
0000
0100
0100
0100
0000
0100
0010
,  // measure 17
1001
0000
0001
0100
0010
1000
0100
1000
,  // measure 18
0001
0010
0001
0000
1000
0000
0100
0000
0010
0000
0001
0000
0100
0000
0001
0000
,  // measure 19
1000
0010
1000
0000
0001
0100
0001
0000
0010
0000
0100
0000
1000
0001
1000
0000
,  // measure 20
0100
0000
0010
0000
0001
0000
0000
0101
0000
0000
0010
0000
1000
0000
0000
1100
,  // measure 21
0000
0010
2002
0000
0000
0000
0000
0000
,  // measure 22
3003
0000
0001
0100
1000
0100
0000
0100
,  // measure 23
0010
0000
0100
0000
0002
0000
0000
0010
0000
0000
1000
0000
1003
0000
0000
0000
,  // measure 24
0100
0000
0010
0001
0020
0000
0000
0000
0031
0000
1000
0001
2000
0000
0000
0100
,  // measure 25
0000
0010
3002
0000
0010
0000
2003
0000
,  // measure 26
3001
0000
0100
0001
2000
0000
0000
0000
3100
0000
1000
0100
2000
0000
0000
0010
,  // measure 27
0000
0000
0001
0000
3002
0000
0000
0000
1003
0000
0001
0100
0002
0000
0000
0010
,  // measure 28
0000
0000
1000
0000
2003
0000
0000
0000
3001
0000
1000
0100
1000
0000
0100
0000
,  // measure 29
0010
0001
0100
0000
1010
0000
1001
0000
,  // measure 30
1100
0000
0000
0000
0002
0000
0000
0000
0013
0000
0001
1000
0002
0000
0000
0000
,  // measure 31
0103
0000
0010
1000
0020
0000
0000
0000
0130
0000
0000
0000
0001
0000
0000
0010
,  // measure 32
0000
0100
1000
0100
0001
0100
1000
0100
,  // measure 33
0010
0000
0002
0000
0103
0000
1000
0000
0100
0000
0001
0000
0010
0000
0000
0100
,  // measure 34
0000
1000
0020
0000
0000
0001
0000
0031
,  // measure 35
0010
0000
0200
0000
0000
0000
0001
0000
0001
0000
0000
0000
0310
0000
0000
0110
,  // measure 36
0000
0000
1000
0001
0020
0000
0000
0000
0000
0000
1000
0000
0000
0000
1030
0000
,  // measure 37
0010
0000
0200
0000
0000
0000
1000
0000
1000
0000
0000
0000
0310
0000
0000
0001
,  // measure 38
0000
1000
0010
0200
0000
1000
0000
0310
,  // measure 39
0100
0001
0010
0200
0000
0001
0000
0310
,  // measure 40
0100
0000
0010
0001
1000
0000
0010
0000
1000
0000
0100
0000
1000
0000
0010
0000
,  // measure 41
0100
0000
0001
0000
0010
0000
0001
0000
0100
0000
0001
0000
0010
0000
0000
0100
,  // measure 42
0000
1000
0200
0000
0000
0000
0000
0000
,  // measure 43
0000
0020
0000
0000
,  // measure 44
0330
0000
0010
0001
0010
0100
0010
1000
,  // measure 45
0010
0001
1000
0000
0010
0000
1000
0000
0010
0000
0100
0000
0010
0000
0001
0000
,  // measure 46
0010
1000
0001
0000
0100
0000
0001
0000
0100
0000
0010
0000
0100
0000
1000
0000
,  // measure 47
0100
0001
1000
0000
0001
0000
0010
0001
0010
0000
0100
0010
0100
0000
0001
0000
,  // measure 48
0100
1000
0001
0000
1000
0000
0010
0000
0001
0000
0010
0000
0100
0000
1000
0000
,  // measure 49
0100
0001
1000
0000
0001
0000
0010
0000
1000
0000
0010
0000
0100
0000
0001
0000
,  // measure 50
0100
1000
0001
0000
0010
0000
1000
0000
0010
0000
0001
0100
0001
0000
0100
0000
,  // measure 51
0010
1000
0100
0000
0011
0000
1001
0000
,  // measure 52
0101
0000
0000
0000
0002
0000
0000
0000
1003
0000
0100
0010
0002
0000
0000
0000
,  // measure 53
0103
0000
0010
1000
0002
0000
0000
0000
0013
0000
1000
0000
0010
0000
0000
0001
,  // measure 54
0000
1000
0010
0100
1000
0100
1000
0100
,  // measure 55
0000
0001
0010
0100
0001
0100
0001
0100
,  // measure 56
0000
0000
1000
0000
0001
0100
0010
0000
1000
0000
0001
0000
1000
0100
0010
0000
,  // measure 57
0001
0000
1000
0000
0010
0000
0000
1010
0000
0000
0110
0000
0001
0000
0000
0011
,  // measure 58
0000
1001
0000
0000
0000
0000
0000
0000
;
