#VERSION:0.83;
#TITLE:灼熱にて純情(wii-wii-woo);
#SUBTITLE:;
#ARTIST:星街すいせい;
#TITLETRANSLIT:Shakunetsu nite Junjou (wii-wii-woo);
#SUBTITLETRANSLIT:;
#ARTISTTRANSLIT:Hoshimachi Suisei;
#GENRE:;
#CREDIT:;
#MUSIC:Shakunetsu nite Junjou (wii-wii-woo).ogg;
#BANNER:Shakunetsu nite Junjou (wii-wii-woo).png;
#BACKGROUND:Shakunetsu nite Junjou (wii-wii-woo)-bg.png;
#CDTITLE:cdtitle.png;
#SAMPLESTART:56.341;
#SAMPLELENGTH:11.525;
#SELECTABLE:YES;
#OFFSET:0.000;
#BPMS:0.000=176.000
,4.000=177.000
,12.000=182.000
,14.000=177.000
,45.000=164.000
,48.000=177.000
,371.000=169.000
,375.000=177.000
;
#STOPS:;
#SPEEDS:0.000=1.000=0.000=0;
#SCROLLS:0.000=1.000;
#TICKCOUNTS:0.000=4;
#TIMESIGNATURES:0.000=4=4,
276.000=3=4,
279.000=4=4
;
#LABELS:0.000=Song Start;
#COMBOS:0.000=1;
#DISPLAYBPM:177.000;
#ORIGIN:;
#TAGS:;
#PREVIEWVID:;
#JACKET:Shakunetsu nite Junjou (wii-wii-woo)-jacket.png;
#CDIMAGE:;
#DISCIMAGE:;
#BGCHANGES:0.000=Shakunetsu nite Junjou (wii-wii-woo).mp4=1.000=0=0=0=StretchNoLoop====,
99999.000=-nosongbg-=1.000=0=0=0=StretchNoLoop====
;
#FGCHANGES:;

//--------------- dance-single - MEGAtive ----------------
#NOTEDATA:;
#STEPSTYPE:dance-single;
#DESCRIPTION:MEGAtive;
#DIFFICULTY:Beginner;
#METER:5;
#RADARVALUES:0.197964,0.291776,0.16167,0.361834,0,180,159,21,47,0,0,0,0,0,0.197964,0.291776,0.16167,0.361834,0,180,159,21,47,0,0,0,0,0;
#DISPLAYBPM:177.000;
#CHARTNAME:;
#CHARTHASH:1228561924:;
#BANNER:;
#CHARTSTYLE:;
#METERF:0.000000;
#CREDIT:;
#NOTES:
0000
0000
0000
0000
,
0000
0000
0000
0000
,
0000
0000
0000
0000
,
0000
0000
0000
0000
,
0001
0000
0000
0000
,
0001
0000
0000
0000
,
0010
0000
0000
0000
,
0010
0000
0000
0000
,
0100
0000
0000
0000
,
0100
0000
0000
0000
,
2002
0000
0000
0000
,
3003
0000
0000
0000
,
1002
0000
0203
0000
,
0310
0000
1000
0000
,
0001
0000
1000
0000
,
0100
0000
0010
0000
,
0002
0000
0000
0000
,
1003
0000
0000
0000
,
1001
0000
0000
0000
,
0010
0000
0000
0000
,
0110
0000
0000
0000
,
1000
0000
0000
0000
,
1001
0000
0000
0000
,
0001
0000
0000
0000
,
2001
0000
0000
0000
,
3100
0010
0100
0000
,
1000
0001
1000
0000
,
0001
0001
1000
1000
,
0010
0000
0010
0000
,
0200
0000
0000
0000
,
0302
0000
0000
0000
,
1003
0100
1000
0000
,
0020
0000
0130
0000
,
1002
0000
0000
0000
,
0000
0000
0000
0000
,
2003
0000
0000
0000
,
0000
0000
0000
0000
,
3100
0000
0100
0000
,
1000
0000
1000
0000
,
0020
0000
0000
0000
,
0030
0000
0000
0000
,
2001
0000
0000
0000
,
3100
0010
0100
0000
,
1000
0001
1000
0000
,
0001
0100
0001
0000
,
1000
0010
2000
0000
,
3000
0001
0010
0000
,
0001
1000
0001
0000
,
0220
0330
2002
3003
,
1000
0100
0020
0000
,
0030
0100
1000
0000
,
0001
1000
0010
0000
,
0100
0001
1000
0000
,
0200
0000
0000
0000
0020
0000
0000
0330
,
0000
0001
1000
0001
,
1000
0010
0200
0000
,
0302
0000
0000
0000
,
2000
0000
0000
0000
,
3003
0000
0000
0000
,
0000
0000
0000
0000
,
0000
0000
0000
0000
,
2001
0000
0000
0000
,
3100
0010
0100
0000
,
1000
0001
1000
0000
,
0010
0100
0010
0000
,
0100
0001
0100
0000
,
0002
0000
0000
0003
0000
0000
2000
0000
,
0000
3000
0000
0000
0200
0000
0000
0300
,
0000
0020
0000
0000
,
0000
0030
0000
1002
,
0000
1000
0000
0100
,
0000
0100
0000
2003
,
0000
0001
0000
0100
,
0000
0000
3100
0000
0000
1001
0000
0000
,
1000
0010
0000
0010
,
1000
0000
0100
0000
0000
0000
0220
0330
,
0000
0000
2002
3003
0000
0000
2000
0000
,
0000
0000
3010
0000
0000
1002
0000
0000
,
0103
0010
0000
0010
,
1000
0100
0000
0100
,
0010
0001
0000
0002
,
0000
0000
0103
0000
0000
1001
0000
0000
,
1000
0100
0000
0100
,
1000
0001
0000
0002
,
0000
0000
0000
0203
,
0000
0300
0000
2001
,
0000
0000
0000
3020
,
0000
0000
0000
0230
,
0000
0000
0000
0301
,
0010
0000
0100
0000
0000
1001
0000
0000
,
0001
0100
0000
0010
,
1000
0001
0000
0220
,
0000
0000
0000
0330
,
0000
0000
0000
0000
,
2002
0000
0000
3003
;

//--------------- dance-single - MEGAtive ----------------
#NOTEDATA:;
#STEPSTYPE:dance-single;
#DESCRIPTION:MEGAtive;
#DIFFICULTY:Easy;
#METER:9;
#RADARVALUES:0.309043,0.437665,0.130876,0.469614,0.011548,281,264,17,61,0,0,0,0,0,0.309043,0.437665,0.130876,0.469614,0.011548,281,264,17,61,0,0,0,0,0;
#DISPLAYBPM:177.000;
#CHARTNAME:;
#CHARTHASH:3746174573:;
#BANNER:;
#CHARTSTYLE:;
#METERF:0.000000;
#CREDIT:;
#NOTES:
0000
0000
0000
0000
,
0000
0000
0000
0000
,
0000
0000
0000
0000
,
0000
0000
0000
0000
,
1000
0000
1000
0000
,
0010
0000
0010
0000
,
0100
0000
0100
0000
,
0001
0000
0001
0000
,
0010
0000
0010
0000
,
0100
0000
0100
0000
,
2020
0000
0000
0000
,
0000
3030
0000
0000
,
0002
0000
1000
1000
,
1003
0100
0010
0001
,
0100
0000
0010
0000
0100
0001
0100
0001
,
1000
0001
0010
0100
,
2000
0000
0000
0000
,
3001
0100
0000
0100
,
0001
0010
0000
0010
,
0100
1000
0000
1000
,
0001
0100
0000
0100
,
0100
0001
0000
0001
,
1000
0100
0000
0100
,
0010
0001
0000
0001
,
2000
0000
3020
0000
,
1030
0100
0001
0000
,
0100
1000
0010
0000
,
0100
0010
0100
0000
0001
1000
0001
0000
,
0010
0010
0200
0000
,
2300
0000
3020
0000
,
0032
0000
2003
0000
,
3200
0010
0010
0010
,
0302
0000
0000
0000
0000
0000
0000
0000
0020
0000
0000
0033
0000
0000
0000
0000
,
2100
0000
0000
0000
,
3002
0000
0000
0000
,
0203
0000
0000
0000
,
0320
0000
0000
0000
,
1030
0000
1000
0000
,
0001
0000
0001
0000
,
0022
0000
0000
0000
,
0033
0000
0000
0000
,
2100
0000
0002
3003
,
1000
0000
0010
0000
0100
0001
0100
0000
,
0001
0000
0010
0000
0100
1000
0100
0000
,
1000
0010
0001
0010
,
0100
0000
0010
0000
2000
0000
0000
3100
,
0000
1000
0100
0010
,
0001
0000
0100
0000
0010
0000
0100
0001
,
0100
0000
0001
1000
0001
0000
1000
0100
,
1000
0000
0001
0000
0020
0000
0000
0031
,
0000
1000
0010
0100
,
0001
0000
0010
0000
0100
0000
1000
0100
,
1000
0000
0010
0000
0100
0000
0001
1000
,
0002
0000
0023
0000
0200
0330
0000
2001
,
0000
0000
3020
0000
,
0230
0000
0302
0000
,
1003
0000
0100
0010
0100
0010
0100
0010
,
0002
0000
0000
0000
,
2003
0000
0000
0000
,
0010
0000
0000
0000
,
3002
0000
0000
0000
,
0023
0000
0230
0000
,
1300
0001
1000
0010
,
0100
0001
1000
0000
0001
0000
0010
0000
,
0100
1000
0100
0000
0010
0000
0001
0000
,
0100
0010
1000
0001
,
0022
0000
0000
0033
0000
0000
2020
0000
,
0000
3030
0000
0000
0220
0000
0000
0330
,
0000
2002
0000
0000
,
0000
0000
0000
3003
0000
0000
0000
0000
0000
0000
0000
0000
0012
0000
0000
0000
,
0000
0203
0000
0320
,
0000
2030
0000
3002
,
0000
0023
0000
0230
,
0000
0000
1300
0000
0000
0201
0000
0000
,
0310
1000
0001
1000
,
0100
0000
0010
0000
0001
1000
0001
0000
,
0100
0010
0100
0000
0001
1000
0200
0000
,
0000
0000
0310
0000
0000
1002
0000
0000
,
0103
0010
0001
0010
,
0100
0001
0100
0010
,
1000
0100
0010
0002
,
0000
0000
1003
0000
0000
1100
0000
0000
,
0100
1000
0010
1000
,
0100
0010
0001
0100
,
0001
1000
0001
1000
0001
1000
0002
0000
,
0000
0013
0000
1001
,
1000
0010
0100
0001
,
1000
0100
0010
0001
,
0001
1000
0010
0200
,
0000
0000
0301
0000
0000
1200
0000
0000
,
0310
0010
0100
0100
,
1000
0000
1000
0010
1000
0010
2000
0000
,
0000
0000
0000
0000
0000
0000
0000
0000
0000
0000
0000
3000
0000
0000
0000
0000
,
0000
0000
0000
0110
,
2002
0000
0000
3003
;

//--------------- dance-single - MEGAtive ----------------
#NOTEDATA:;
#STEPSTYPE:dance-single;
#DESCRIPTION:MEGAtive;
#DIFFICULTY:Medium;
#METER:12;
#RADARVALUES:0.532302,0.583553,0.21556,0.5466,0.157821,484,456,28,71,0,0,0,0,0,0.532302,0.583553,0.21556,0.5466,0.157821,484,456,28,71,0,0,0,0,0;
#DISPLAYBPM:177.000;
#CHARTNAME:;
#CHARTHASH:4287119644:;
#BANNER:;
#CHARTSTYLE:;
#METERF:0.000000;
#CREDIT:;
#NOTES:
0000
0000
0000
0000
,
0000
0000
0000
0000
,
0000
0000
0000
0000
,
0000
0000
0000
0000
,
1000
1000
1000
1000
,
0100
0100
0100
0100
,
0010
0010
0010
0010
,
0001
0001
0001
0001
,
0100
0100
0010
0010
,
1000
1000
0001
0001
,
0101
0000
0000
0100
0000
0000
0010
0000
0000
1000
0000
0000
0100
0000
0000
0010
,
0000
0000
0000
0000
,
0002
0000
0100
0100
,
0013
0100
1000
0000
0001
0000
0100
0010
,
0100
0000
0001
0000
1000
0100
1000
0010
,
0100
0000
0010
1000
0001
0000
1000
0100
,
0020
0230
2300
3002
,
0103
0000
0000
0100
0000
0000
0020
0000
0000
0000
1030
0000
0010
0000
0100
0000
,
0001
0000
0000
0001
0000
0000
0020
0000
0000
0000
0100
0000
0130
0000
0000
0000
,
1000
0000
0000
1000
0000
0000
0200
0000
0000
0000
0310
0000
0001
0000
1000
0000
,
0010
0000
0000
0010
0000
0000
0200
0000
0000
0000
0001
0000
0301
0000
0000
0000
,
0010
0000
0000
0010
0000
0000
0200
0000
0000
0000
1300
0000
0100
0000
0010
0000
,
0001
0000
0000
0001
0000
0000
0200
0000
0000
0000
0010
0000
0310
0000
0000
0000
,
0100
0000
0000
0100
0000
0000
0002
0000
0000
0000
0010
0000
0013
0000
0000
0000
,
0001
0010
0100
0000
0010
0001
1000
0001
,
0100
0000
0000
0100
0010
0000
1000
0000
0001
0000
1000
0000
0000
0000
1000
0000
,
0100
0010
0001
0100
0010
0100
0000
0100
,
0001
0010
0001
1000
0010
0001
0010
0000
,
0110
0000
0100
0001
1000
0100
0000
0100
,
1000
0000
0000
0010
0000
0000
0100
0000
0100
0000
0000
0001
0000
0000
0010
0000
,
0010
0000
0000
0100
0000
0000
1000
0000
1000
0000
0000
0000
0010
0000
0100
0000
,
0001
0000
1001
0000
1000
0010
0100
0001
,
2000
0000
0000
0000
0000
0000
0000
0000
3100
0000
0000
0110
0000
0000
0000
0000
,
2000
0000
3200
0000
,
0320
0000
0032
0000
,
0203
0000
0320
0000
,
2030
0000
3002
0000
,
0013
0000
0010
0000
0010
0001
1000
0001
,
0100
0000
0100
0000
0100
0010
1000
0001
,
0010
0000
0100
0000
0001
0000
0100
0000
0010
0000
0100
0000
,
2000
3000
0000
0000
,
1002
0000
0203
0000
,
0301
0000
0010
0000
0100
0000
0010
0000
0001
0000
0000
0001
1000
0000
0000
0000
,
0010
0000
0100
0000
1000
0000
0100
0000
0010
0000
0000
1000
0001
0000
0000
0000
,
0010
0100
0001
0100
0010
0100
1000
0001
,
0200
0000
0000
0000
0320
0000
0000
0000
0130
0000
0000
0100
0000
0000
2001
0000
,
0000
0000
3100
0010
0001
0100
0010
0000
,
0100
0000
0000
0001
0000
0000
0010
0000
0020
0000
0000
0000
0130
0000
1000
0000
,
0010
0000
0100
0001
0010
0000
0100
1000
,
0002
0000
0000
0000
0203
0000
0000
0000
0310
0000
0000
0010
0000
0000
1020
0000
,
0000
0000
1030
0100
0010
0100
1000
0000
,
0001
0000
0100
0000
0010
0000
0100
0000
1000
0000
0000
0100
0000
0000
0010
0000
,
0010
1000
0100
1000
0010
1000
0001
0010
,
0200
0000
0000
0000
0302
0000
0000
0000
1003
0000
0000
0010
0000
0000
0120
0000
,
0000
0000
0031
0010
0100
0000
1000
0010
,
0100
0000
0001
0010
0100
0000
1001
0000
,
0001
0200
0320
2030
,
3001
0010
0001
0010
0200
0000
0001
0000
,
1300
1100
0001
0101
,
1000
1010
0001
0011
,
1000
1100
0001
0101
,
2001
3200
0320
0032
,
1003
0100
0010
0001
0100
0010
2000
0000
,
3001
0100
0010
1000
0001
1000
0200
0000
,
0310
0001
0100
0010
1000
0100
0020
0000
,
0130
1000
0001
0100
0020
0000
0230
0000
,
0301
0000
0000
0001
0000
0000
0002
0000
0000
0000
0000
0000
0013
0000
0000
0010
,
0000
0000
0020
0000
0000
0000
0000
0000
0130
0000
0000
0100
0000
0000
0200
0000
,
0000
0000
0000
1300
0000
0010
0000
0001
0000
1000
0000
0100
,
0000
0010
0000
0000
0000
0000
0000
0000
0000
2002
0000
0000
,
0000
3003
2200
0000
0000
0300
3002
0000
,
0000
0000
0013
0100
1000
0010
0200
0000
,
0000
0000
0302
0000
0000
0000
1003
0010
,
0100
0000
0001
0000
0010
0000
0000
0010
0000
0000
2001
0000
0000
0000
0000
0000
,
3100
0010
0001
1000
0010
0000
0101
0000
,
1000
0000
0011
0000
0001
0010
0100
0000
,
1000
0010
0100
0000
0001
1000
0100
0010
,
0001
0000
0100
0000
0010
0000
0000
0010
0000
0000
1002
0000
0000
0000
0000
0000
,
0103
0010
1000
0000
1000
0100
0010
0000
,
0010
0001
0100
0000
0100
0010
1000
0000
,
1000
0000
0001
0000
0010
0000
0000
0000
0010
0000
0100
0000
1000
0000
0000
1000
,
0000
0000
0010
0000
0100
0000
0000
0100
0000
0000
0201
0000
0000
0000
0000
0000
,
0310
0100
0001
0000
1000
0100
0010
0000
,
0100
1000
0001
0000
0100
0010
2000
0000
,
3002
0000
0023
0000
0230
0000
1300
0001
,
1000
0001
0100
0000
0100
0000
2001
0000
,
0010
0000
3001
0010
0100
0010
0001
0000
,
1001
0100
0110
2000
,
0001
0000
3100
0010
0001
0100
0020
0000
,
0230
0000
0000
0000
0301
0000
0000
0001
0000
0000
0012
0000
0000
0000
0000
0000
,
1003
0100
1000
0100
0010
0001
0010
0001
,
1000
0000
0010
0000
1000
0000
0010
0000
0100
0000
0001
0000
0010
0000
0000
0010
,
0000
0000
0010
0000
0000
0100
0000
0000
0100
0000
0000
0100
0000
0000
0000
0000
,
0000
0000
0000
0000
0000
0000
0100
1000
,
2002
0000
0000
3003
;

//--------------- dance-single - MEGAtive ----------------
#NOTEDATA:;
#STEPSTYPE:dance-single;
#DESCRIPTION:MEGAtive;
#DIFFICULTY:Hard;
#METER:15;
#RADARVALUES:0.773158,0.875329,0.423422,0.554298,0.48886,703,648,55,72,0,0,0,0,0,0.773158,0.875329,0.423422,0.554298,0.48886,703,648,55,72,0,0,0,0,0;
#DISPLAYBPM:177.000;
#CHARTNAME:;
#CHARTHASH:1918366402:;
#BANNER:;
#CHARTSTYLE:;
#METERF:0.000000;
#CREDIT:;
#NOTES:
0000
0000
0000
0000
,
0000
0000
0000
0000
,
0000
0000
0000
0000
,
0000
0000
0000
0000
,
0001
0001
0001
0001
,
0100
0100
0100
0100
,
0010
0010
0010
0010
,
1000
1000
1000
1000
,
0001
0000
0001
0010
0001
1000
0001
0100
,
0010
1000
0010
0100
0010
1000
0001
0010
,
0011
0000
0000
0001
0000
0000
1001
0000
0000
1010
0000
0000
0010
0000
0000
0220
,
0000
0330
0000
0000
,
0001
0000
0001
0100
0000
0100
0010
0000
2000
3000
0010
0000
2000
3000
0001
0000
,
0011
0000
0010
0000
0001
0000
0100
0000
0010
1000
0010
0000
0100
0000
0001
0000
,
0010
0000
0100
1000
0000
1000
0100
0000
0010
0000
2000
0000
3010
0000
0002
0000
,
0103
0000
0010
0000
0100
0000
0001
0000
1000
0100
1000
0000
0001
0000
0100
0000
,
0010
0000
0100
0001
0100
0000
0001
1000
0001
0000
0010
0000
0010
0000
0010
0000
,
0011
0000
0000
0010
0001
0000
0200
0000
0000
0000
1300
0000
0100
0000
0010
0000
,
1000
0000
0000
0001
0100
0000
0020
0000
0000
0000
0130
0000
0102
0000
0000
0000
,
1003
0000
0000
0010
1000
0000
0200
0000
0000
0000
0301
0000
0100
0000
0010
0000
,
0001
0000
0000
1000
0100
0000
0020
0000
0000
0000
0130
0000
2100
0000
0000
0000
,
3001
0000
0000
0001
0100
0000
0020
0000
0000
0000
0031
0000
0010
0000
0100
0000
,
0001
0000
0000
1000
0010
0000
0200
0000
0000
0000
0310
0000
0210
0000
0000
0000
,
0301
0000
0000
1000
0100
0000
0020
0000
0000
0000
0031
0000
2001
0000
0000
0000
,
3010
0000
0000
0010
1000
0000
0000
1000
0100
0000
0010
0100
0010
0000
0100
1000
,
0001
0000
0000
0001
0100
0000
0010
0000
0001
0000
0001
0000
0010
0000
1000
0000
,
0100
0000
0000
0100
1000
0000
0100
0000
0001
0000
0001
0000
0100
0000
0010
0000
,
0010
0001
0100
0010
0010
1000
0100
0010
,
0110
0000
0000
0001
1000
0000
0010
0000
0100
0000
0100
0000
1000
0000
0100
0000
,
0002
0000
0000
0023
0000
0000
0230
0000
0001
0000
0000
0320
0000
0000
0032
0000
,
2003
0000
0000
3020
0000
0000
0230
0000
1000
0000
0000
0320
0000
0000
2030
0000
,
3001
0000
0021
0000
0130
1000
0010
0100
,
2000
0000
0000
0000
0000
0000
0000
0000
3100
0000
0000
0110
0000
0000
0000
0000
,
2001
3200
0302
0203
,
0320
0032
0203
0320
,
2030
3200
0302
0203
,
0320
0032
0203
0320
,
1030
0000
0000
1000
0010
0000
0100
0000
0010
0000
0000
0010
1000
0000
0001
0000
,
0010
0000
0000
0010
0100
0000
1000
0000
0100
0000
0000
0100
1000
0000
0010
0000
,
0110
0000
0100
0000
0001
0000
1001
0000
1000
0000
0100
0000
,
0220
0330
0000
0000
,
1000
0000
0010
0000
0100
0000
0001
0000
0010
0000
0100
1000
0100
1000
0100
1000
,
0001
0000
0100
0000
1000
0000
0100
0000
0010
0000
0100
0001
0000
0001
1000
0000
,
0100
0000
0010
0000
1000
0000
0010
0000
0001
0000
0010
0100
0000
0100
1000
0000
,
0001
0000
1000
0010
1000
0000
0001
0010
0001
0000
1000
0010
0100
0000
0100
0000
,
0010
0000
1000
0000
0100
0000
0010
0000
1000
0000
0000
1010
0000
0000
0210
0000
,
0000
0000
1300
0100
0010
0100
1000
0010
,
0001
0000
0000
0001
0010
0000
0100
0000
0101
0000
0000
0000
1001
0000
0001
0010
,
0001
0000
0000
0000
1001
0000
1000
0010
1000
0000
0000
0000
0110
0000
1000
0000
,
0001
0000
0010
0000
0100
0000
1000
0000
0010
0000
0000
0110
0000
0000
2001
0000
,
0000
0000
3001
0010
0100
1000
1000
0010
,
0100
0000
0010
0000
0001
0000
0010
0000
0100
0000
0000
0100
0001
0000
0010
0000
,
0100
0000
0010
0001
0010
0000
0001
1000
0001
0000
1000
0100
0010
0000
0010
0000
,
0100
0000
1000
0000
0010
0000
0100
0000
0001
0000
0000
0011
0000
0000
1002
0000
,
0000
0000
0000
0000
0103
0000
0010
0000
0100
0000
1000
0100
0000
0000
0010
0000
,
0100
0010
1000
0001
0010
0010
0100
1000
,
0020
0000
0000
0000
0130
0001
0100
0000
0001
1000
0001
0000
1000
0100
1000
0000
,
0001
0000
0001
0000
0100
0000
0100
0000
0010
0000
1000
0100
0010
0000
0001
0100
,
0010
0000
0000
0010
1000
0000
0100
0000
0010
0100
0000
0000
0010
0000
0010
0000
,
0001
0100
0000
0100
0010
0000
0001
0000
0010
0100
0000
0000
0001
0000
0001
0000
,
0010
0000
0100
1000
0000
0000
0010
0000
0100
0010
0000
0000
0100
0000
0100
0000
,
0010
0000
1000
0000
0100
0000
0010
0000
0001
0000
1000
0010
0100
0000
0001
0010
,
0100
0000
1000
0001
1000
0000
0010
0000
1000
0001
1000
0000
0100
0000
0010
0000
,
0001
0010
0001
1000
0001
0000
0100
0000
0100
0010
0100
0000
0001
0000
0001
0000
,
0010
0000
0100
1000
0100
0000
0010
0000
0001
0100
0001
0000
0010
0000
0010
0000
,
0001
1000
0010
0100
0001
0010
0100
1000
,
0010
0000
0000
0110
0000
0000
2002
0000
0000
0000
3003
0000
1100
0000
0000
0110
,
0000
0000
2002
0000
0000
0000
3003
0000
0101
0000
0000
0110
0000
0000
2002
0000
,
0000
0000
0000
3003
0000
0000
2100
0000
0000
0000
0100
0000
0000
0000
0100
0000
0000
0000
0100
0000
0000
0000
0100
0000
,
0000
3100
0000
0000
0000
0000
0000
0000
0000
0201
0000
0000
,
0320
0000
0000
0000
0000
0000
0000
0000
0000
0000
0000
0000
1030
0000
0000
0000
0000
0000
0000
0000
1000
0000
0000
0000
0001
0000
0000
0000
0000
0000
0000
0000
0001
0000
0000
0000
0010
0000
0000
0000
0000
0000
0100
0000
0000
1000
0000
0000
,
0100
0000
1000
0001
2000
0000
0000
0000
3010
0000
0010
0100
0010
0000
0100
0001
,
0100
0000
0000
0000
0000
0000
0001
0000
0000
1000
0000
0000
0001
0000
0000
0000
0000
0000
0000
0000
1000
0000
0000
0000
0100
0000
0000
0000
0000
0000
0000
0000
0010
0000
0000
0000
0100
0000
0000
1000
0000
0000
0100
0000
0000
1000
0000
0000
,
0001
0000
1000
0000
0010
0000
0000
0110
0000
0000
2002
0000
3000
0000
1000
0000
,
1003
0000
0100
0000
0010
0000
1000
0000
0010
0000
0100
0000
0010
0000
0000
0010
,
0001
0000
0100
0000
0010
0000
0000
0000
1001
0000
0001
0010
0100
0000
0000
0000
,
1001
0000
1000
0010
0100
0000
0000
0000
0210
0000
0001
0000
0301
0000
0010
0000
,
0100
0000
1000
0000
0010
0000
0000
0110
0000
0000
1002
0000
0000
0000
0000
0000
,
0013
0000
0100
0000
0010
0000
0001
1000
0001
0000
0200
0000
0000
0000
0310
0000
,
1000
0000
0001
0000
0001
0000
0010
0100
0010
0000
0002
0000
0000
0000
1003
0000
,
1000
0000
0100
0010
0100
0000
1000
0001
1000
0000
0001
0000
0100
0000
0000
0110
,
0000
0000
0010
0000
1010
0000
0000
1000
0000
0000
1002
0000
0000
0000
0000
0000
,
1003
0000
0100
0000
0010
0000
0100
1000
0100
0000
0010
0000
0001
0000
1000
0000
,
0010
0000
0100
0000
1000
0000
0100
0000
0010
0000
0100
0000
0101
0000
0001
0100
,
0001
0000
0100
0001
1000
0000
0001
1000
0100
0000
1000
0100
0010
0000
0010
0000
,
0100
0100
2000
3000
1001
0000
0001
0100
,
1000
0000
0100
0000
0010
0000
0100
0001
0100
0000
0001
0000
1000
0000
0100
0000
,
0010
0000
0100
1000
0100
0000
0010
0000
0001
0000
0100
0000
0010
0000
1000
0000
,
0100
0000
1000
0000
0001
0000
0100
0000
0010
0000
1000
0001
0010
0000
0001
0010
,
0100
0000
0010
0100
1000
0000
0000
1001
0000
0000
1020
0000
0000
0000
0000
0000
,
1030
0010
0100
0010
1000
0100
0010
0100
,
1000
0000
0010
0000
0100
0000
0001
0100
0001
0100
0001
0000
1000
0000
0000
1100
,
0000
0000
0100
0000
0000
0110
0000
0000
0010
0000
0000
0011
0000
0000
0000
0000
,
0000
0000
0000
0000
0000
0000
0010
0010
,
2002
0000
0000
3003
;

//--------------- dance-single - MEGAtive ----------------
#NOTEDATA:;
#STEPSTYPE:dance-single;
#DESCRIPTION:MEGAtive;
#DIFFICULTY:Challenge;
#METER:18;
#RADARVALUES:0.965623,1.057689,0.515805,0.307943,0.962323,878,811,67,40,0,0,0,0,0,0.965623,1.057689,0.515805,0.307943,0.962323,878,811,67,40,0,0,0,0,0;
#DISPLAYBPM:177.000;
#CHARTNAME:;
#CHARTHASH:789197247:;
#BANNER:;
#CHARTSTYLE:;
#METERF:0.000000;
#CREDIT:;
#NOTES:
0000
0000
0000
0000
,
0000
0000
0000
0000
,
0000
0000
0000
0000
,
0000
0000
0000
0000
,
1000
1000
1000
1000
,
0010
0010
0010
0010
,
0100
0100
0100
0100
,
0001
0000
0001
0000
0001
1000
0100
0010
,
0001
0000
0001
1000
0001
0010
0001
1000
,
0010
0000
0100
0000
0010
0000
1000
0000
0100
0000
0010
0000
0001
1000
0001
1000
,
0010
0000
0000
0110
0000
0000
1001
0000
0000
0011
0000
0000
0110
0000
0000
2002
,
0000
3003
0000
0000
,
1000
0000
1000
0100
0000
0100
0010
0000
0010
0001
1000
0001
0010
0001
1000
0001
,
0100
0000
0010
0100
0001
0000
0010
0000
0100
0010
0001
0000
1000
0001
1000
0010
,
0100
0000
0010
1000
0100
0000
0010
0000
0100
0000
0002
0000
0103
0000
2000
0000
,
3001
0000
1000
0010
0100
0000
1000
0000
0100
0010
1000
0000
0001
1000
0001
0010
,
0100
0000
0010
0100
0010
0001
1000
0001
0100
0010
1000
0001
1000
0100
1000
0000
,
1100
0000
0000
0100
1000
0000
0020
0000
0000
0130
1000
0000
0100
0000
0010
0000
,
0100
0000
0000
0001
0010
0000
0200
0000
0000
0301
0100
0000
0010
0000
0001
0000
,
0100
0000
0000
1000
0100
0000
0020
0000
0000
0130
0001
0000
1000
0000
0100
0000
,
0010
0000
0000
1000
0010
0000
0200
0000
0000
0310
0001
0000
1000
0000
0010
0000
,
1010
0000
0000
0010
1000
0000
0200
0000
0000
0310
1000
0000
0010
0000
0100
0000
,
0010
0000
0000
0010
0001
0000
0200
0000
0000
0310
0001
0000
0010
0000
0100
0000
,
0001
0000
0000
1000
0100
0000
0020
0000
0000
1030
0010
0000
0110
0000
0000
0000
,
1000
0000
0001
0010
0001
0000
1000
0010
1000
0000
0001
0010
0100
0000
0010
0001
,
1000
0000
1000
0010
0100
0000
0100
0001
0010
0000
0100
0000
0110
0000
1000
0001
,
0100
0010
0100
0010
0001
0000
0001
0010
1000
0000
1000
0000
1001
0000
0001
0010
,
0200
0000
0001
0000
0310
0000
0001
0100
0020
0000
0001
0000
0130
0000
0010
1000
,
0100
0000
0100
0010
0001
0000
0001
0100
0010
0000
0010
0000
1001
0000
1000
0010
,
0200
0000
0000
1300
0100
0000
0010
0000
2000
0000
0000
3100
0010
0000
0001
0000
,
0200
0000
0000
1300
0100
0000
0010
0000
2000
0000
0000
3100
0010
0000
0001
0100
,
0010
0000
0000
0000
1002
0000
0000
0000
1003
0000
0010
0000
0100
0000
0001
0010
,
0200
0000
0000
0000
0310
0001
0010
0001
1000
0000
0000
0101
0000
0000
0000
0000
,
1000
0000
0001
0200
0000
0000
0320
0000
0000
1000
0000
0000
,
0130
0000
0001
0020
0000
0000
0230
0000
0000
1000
0000
0000
,
0310
0000
0001
0200
0000
0000
0320
0000
0000
1000
0000
0000
,
0130
0000
0001
0020
0000
0000
0230
0000
0000
1000
0000
0000
,
0310
0000
0000
0001
0010
0000
0100
0000
0010
0000
1000
0010
0000
0100
0010
0000
,
0001
0000
0000
0100
0001
0000
0100
0000
0010
0000
0100
1000
0000
0100
0010
0000
,
0110
0000
0101
0000
1001
0000
1100
0000
0110
0000
1100
0000
,
2002
3003
0000
0000
,
0001
1000
0001
1000
0001
1000
0001
1000
0010
0000
0010
1000
0001
0010
0100
1000
,
0001
0100
0010
0000
1000
0100
0010
0000
0001
0000
0100
1000
0000
1000
0100
0000
,
0001
0000
1000
0000
0010
0000
1000
0000
0100
0000
0001
0100
0000
0100
0010
0000
,
0001
0000
1000
0010
0100
0000
1000
0100
0010
0000
0100
0001
0010
0000
0100
0000
,
0001
0000
0100
0000
0010
0100
1000
0001
0100
0000
0000
0110
0000
0000
1002
0000
,
0000
0000
0000
0000
0013
0000
0100
1000
0001
0000
0100
0000
0010
0000
1000
0000
,
0001
0000
0010
1000
0000
1000
0010
0000
0120
0000
0000
0000
0031
0000
1000
0010
,
0100
0000
0001
0000
0010
0000
1000
0010
0100
0000
1000
0000
0001
0000
0100
0000
,
0100
0010
0100
0001
1000
0001
0010
0100
1000
0000
0000
1100
0000
0000
0012
0000
,
0000
0000
0103
0010
1000
0000
0001
0000
1000
0000
0100
0010
0100
0000
1000
0000
,
0010
0000
0100
0000
0001
0000
0100
0000
0010
0000
0001
0010
0000
0010
0100
0000
,
0001
0000
0010
0100
1000
0000
0001
0100
0010
0000
0001
0010
0100
0000
0010
0100
,
0001
1000
0001
0010
0100
1000
0001
0100
0010
0000
0000
0110
0000
0000
2001
0000
,
0000
0000
0000
3001
0010
0000
0100
0000
0001
0000
0100
0000
0010
0000
0100
0000
,
1000
0010
0001
0010
0100
0100
0001
0001
,
0102
0000
0000
0000
0103
0010
1000
0001
0010
0100
1000
0001
1000
0010
0100
0001
,
0010
0000
0010
0000
0010
0000
0010
0000
0100
0010
0001
1000
0001
0100
0010
1000
,
0100
0000
0010
0100
0010
0000
1000
0000
0010
0100
0000
0000
0010
0001
0010
0001
,
1000
0010
0000
0010
0100
0000
1000
0000
0100
0010
0100
0000
0100
0000
0001
0010
,
0100
0000
0100
0010
0100
0000
0001
0000
0100
0010
0000
0000
0100
0000
0100
0000
,
1001
0000
0001
0000
0100
0001
1000
0001
0010
0100
0010
0001
1000
0010
0100
0001
,
0010
0000
0100
1000
0010
0000
0100
0000
0010
1000
0100
0000
0010
0000
0010
0000
,
0100
1000
0001
1000
0010
0000
0100
0010
1000
0010
0100
0000
0001
0000
0001
0000
,
0010
0100
0010
0100
0001
0000
0100
0010
0100
0010
0001
0000
1000
0000
1000
0000
,
0001
0100
0010
0000
0110
0000
0100
0000
0010
0100
0010
1000
0001
0010
0100
1000
,
0010
0000
0000
0110
0000
0000
1001
0000
0001
0000
0010
0000
0011
0000
0000
0110
,
0000
0000
1001
0000
1000
0000
0010
0000
1010
0000
0000
0110
0000
0000
1001
0000
,
0001
0000
0000
0010
0000
0000
0110
0000
0000
0000
0110
0000
0000
0000
0110
0000
0000
0000
0110
0000
0000
0000
0110
0000
,
0000
0110
0000
0000
0000
0000
0000
0000
0000
0021
0000
0000
,
0100
0000
0000
0000
0000
0000
0000
0000
0000
0000
0000
0000
0031
0000
0000
0000
1000
0000
0000
0000
0010
0000
0000
0000
0100
0000
0000
0000
0010
0000
0000
0000
1000
0000
0000
0000
0001
0000
0000
0010
0000
0000
0001
0000
0000
0010
0000
0000
,
0100
0010
0100
1000
0001
0100
0000
0000
0101
0000
0001
0100
0010
1000
0010
1000
,
0001
0000
0000
1000
0000
0000
0001
0000
0000
1000
0000
0000
0100
0000
0000
0000
0000
0000
0000
0000
0100
0000
0000
0000
1000
0000
0000
0000
0010
0000
0000
0000
1000
0000
0000
0000
0001
0000
0000
0100
0000
0000
0001
0000
0000
0100
0000
0000
,
0010
0100
0010
1000
0001
0000
0000
1100
0000
0000
2001
0000
0000
0000
3001
0100
,
0010
0000
1000
0000
0100
0000
1000
0000
0001
0000
0100
0000
0010
0000
0001
0010
,
0000
0010
0100
0000
0001
0000
1000
0000
0100
0000
1000
0010
0100
0000
0001
0000
,
0010
0000
1000
0010
0100
0000
1000
0000
0001
0000
0100
0000
0100
0010
1000
0001
,
0010
0100
0010
0001
1000
0000
0010
1000
0000
0000
2100
0000
0000
0000
3100
0010
,
0001
0000
1000
0000
1010
0000
0010
0001
0000
0001
0010
0000
0100
0000
0001
0000
,
1000
0000
0100
0010
0100
0000
0010
1000
0000
1000
0010
0000
0100
0000
1000
0000
,
1000
0000
0010
0100
0001
0000
1000
0100
0010
0000
1000
0000
1010
0000
0000
0110
,
0000
0000
0011
0000
2001
0000
0000
3010
0000
0000
0101
0000
0100
0010
0100
0000
,
0001
0000
1000
0000
0001
0000
0010
0100
0010
0000
0001
0000
1000
0000
0010
0100
,
0010
0000
1000
0000
0001
0000
0010
0000
0100
0000
0001
0000
0101
0000
0100
0010
,
0100
0010
0001
1000
0010
0100
0001
1000
0001
0010
0100
1000
0010
0000
0010
0000
,
0010
0000
0010
0000
0110
0000
0000
0000
1001
0000
0000
0000
1000
0100
1000
0000
,
0001
0100
0001
0000
1000
0100
0010
0100
0010
0001
1000
0001
0100
0000
0010
0000
,
0001
0000
0010
0100
0010
0000
1000
0000
0001
0010
0100
0010
0001
0000
1000
0000
,
0001
0100
0001
0000
1000
0010
0100
0010
0100
0001
1000
0100
0010
0001
1000
0001
,
0100
0001
1000
0100
0010
0000
0000
1100
0000
0000
1001
0000
0000
0000
0001
0100
,
0010
0000
0100
0000
1000
0000
0100
0010
0100
0000
0001
0000
0010
0000
0100
0010
,
0100
0000
0010
0000
1000
0000
0010
0100
0010
0001
1000
0001
0100
0000
0000
1010
,
0000
0000
0101
0000
0000
1001
0000
0000
1100
0000
0000
0110
0000
0000
0000
0000
,
0000
0000
0000
0000
0000
0000
0100
0110
,
2002
0000
0000
3003
;
