#VERSION:0.83;
#TITLE:Sex Over The Phone;
#SUBTITLE:;
#ARTIST:Village People;
#TITLETRANSLIT:;
#SUBTITLETRANSLIT:;
#ARTISTTRANSLIT:;
#GENRE:;
#CREDIT:;
#MUSIC:Sex Over The Phone.ogg;
#BANNER:;
#BACKGROUND:;
#CDTITLE:;
#SAMPLESTART:49.041;
#SAMPLELENGTH:15.001;
#SELECTABLE:YES;
#OFFSET:-0.601;
#BPMS:0.000=118.910;
#STOPS:;
#BGCHANGES:-1.500=Sex Over The Phone.mp4=1.000=0=0=0=StretchNoLoop====,
99999.000=-nosongbg-=1.000=0=0=0=StretchNoLoop====
#FGCHANGES:;

//--------------- dance-single - eataninja ----------------
#NOTEDATA:;
#STEPSTYPE:dance-single;
#DESCRIPTION:eataninja;
#DIFFICULTY:Beginner;
#METER:1;
#RADARVALUES:0,0,0,0,0;
#CREDIT:eataninja;
#NOTES:
0000
0000
0000
0000
,
0000
0000
0000
0000
,
0000
0000
0000
0000
,
0000
0000
0000
0000
,
1000
0000
0000
0000
,
0010
0000
0000
0000
,
1000
0000
0000
0000
,
1000
0000
0000
0000
,
0001
0000
0000
0000
,
0010
0000
0000
0000
,
0100
0000
0000
0000
,
1000
0000
0000
0000
,
1000
0000
0000
0000
,
0010
0000
0000
0000
,
0100
0000
0000
0000
,
0001
0000
0000
0000
,
0010
0000
0010
0000
,
0010
0000
0000
0000
,
0100
0000
0100
0000
,
0100
0000
0000
0000
,
1000
0000
1000
0000
,
1000
0000
0000
0000
,
0001
0000
0001
0000
,
0001
0000
0000
0000
,
1001
0000
0000
0000
,
0000
0000
0000
0000
,
1001
0000
0000
0000
,
0000
0000
0000
0000
,
1001
0000
0000
0000
,
0000
0000
0000
0000
,
1001
0000
0000
0000
,
0001
0000
0001
0000
,
1000
0000
1000
0000
,
0100
0000
0000
0000
,
0010
0000
0000
0000
,
0001
0000
0001
0000
,
1000
0000
0000
0000
,
0010
0000
0000
0000
,
0100
0000
0000
0000
,
0001
0000
0000
0000
,
0010
0000
0000
0000
,
1001
0000
0000
0000
,
0000
0000
0000
0000
,
0110
0000
0000
0000
,
0000
0000
0000
0000
,
1001
0000
0000
0000
,
0000
0000
0000
0000
,
0110
0000
0000
0000
,
0001
0000
0001
0000
,
1000
0000
1000
0000
,
1001
0000
0000
0000
,
0000
0000
0000
0000
,
0110
0000
0000
0000
,
0000
0000
0000
0000
,
1001
0000
0000
0000
,
0000
0000
0000
0000
,
0110
0000
0000
0000
,
0001
0000
1000
0000
,
1001
0000
0000
0000
0MMM
M000
M000
0MM0
,
000M
000M
MMM0
0000
MMMM
M000
M000
MMM0
,
M000
M000
MMMM
0000
M00M
M00M
M00M
0MM0
,
M00M
M00M
M00M
0000
0000
0000
0000
0000
;

//--------------- dance-single - eataninja ----------------
#NOTEDATA:;
#STEPSTYPE:dance-single;
#DESCRIPTION:eataninja;
#DIFFICULTY:Easy;
#METER:4;
#RADARVALUES:0,0,0,0,0;
#CREDIT:eataninja;
#NOTES:
0000
0000
0000
0000
,
0000
0000
0000
0000
,
0000
0000
0000
0000
,
0000
0000
0000
0000
,
1000
0100
0100
0000
,
1000
0001
1000
0000
,
0001
0100
0100
0000
,
0001
1000
0100
0000
,
1000
0000
1001
0000
,
0001
0000
1001
0000
,
0100
0010
0001
0000
,
1000
0010
1000
0000
,
0001
0000
1001
0000
,
1000
0000
1001
0000
,
0010
0100
1000
0000
,
0001
0100
0001
0000
,
1000
1000
0001
0000
,
0010
0000
0000
0000
,
0001
0001
1000
0000
,
0010
0100
1001
0000
,
0001
0001
1000
0000
,
0010
0000
0000
0000
,
1000
1000
0001
0000
,
0010
0100
1000
0010
,
1001
0000
0000
0000
0100
0000
0000
0001
,
0000
0000
0000
0000
,
1001
0000
0000
0000
0100
0000
0000
1000
,
0000
0000
0000
0000
,
1001
0000
0000
0000
0010
0000
0000
0001
,
0000
0000
0000
0000
,
1001
0000
0010
1000
,
0001
0001
0001
0001
,
1000
1000
1000
1000
,
0001
0100
0100
0000
,
0010
0000
0110
0000
,
0010
1000
0001
0010
,
0100
0100
0000
0000
,
1000
0010
0010
0000
,
0100
0000
0110
0000
,
0010
1000
0001
0010
,
0000
0100
1000
0000
,
1001
0000
1001
0000
0010
0000
0000
0001
,
0000
0000
0000
0000
,
1001
0000
1001
0000
0010
0000
0000
1000
,
0000
0000
0000
0000
,
1001
0000
1001
0000
0100
0000
0000
1000
,
0000
0000
0000
0000
,
1001
1001
0100
0000
,
1000
1000
1000
1000
,
0001
0001
0001
0001
,
1001
0000
1001
0000
0100
0000
0000
0001
,
0000
0001
0010
0000
,
1001
0000
1001
0000
0100
0000
0000
1000
,
0000
1000
0010
0000
,
1001
0000
1001
0000
0010
0000
0000
1000
,
0000
1000
0100
0000
,
1001
1001
0010
0000
,
0001
0001
1000
1000
,
1001
0000
0000
0000
0MMM
M000
M000
0MM0
,
000M
000M
MMM0
0000
MMMM
M000
M000
MMM0
,
M000
M000
MMMM
0000
M00M
M00M
M00M
0MM0
,
M00M
M00M
M00M
0000
0000
0000
0000
0000
;

//--------------- dance-single - eataninja ----------------
#NOTEDATA:;
#STEPSTYPE:dance-single;
#DESCRIPTION:eataninja;
#DIFFICULTY:Medium;
#METER:7;
#RADARVALUES:0,0,0,0,0;
#CREDIT:eataninja;
#NOTES:
0000
0000
0000
0000
,
0000
0000
0000
0000
,
0000
0000
0000
0000
,
0000
0000
0000
0000
,
1000
0000
1100
0000
0001
1000
0010
0000
,
0100
0000
0101
0000
1000
0010
1000
0000
,
0001
0000
0011
0000
1000
0001
0100
0000
,
0010
0000
1010
0000
1000
0001
0001
0000
,
0010
0100
0000
0001
0000
0100
0010
0000
,
0001
1000
0000
0010
0000
1000
0001
0000
,
0100
1000
0000
0100
0000
0010
1000
0000
,
0001
0010
0100
1000
0000
0000
1001
0000
,
1000
0100
0000
0001
0000
0100
1000
0000
,
0010
1000
0000
0001
0000
1000
0010
0000
,
0100
0001
0000
1000
0000
0001
0100
0000
,
0001
0010
0100
1000
0000
0000
0000
0000
,
1000
0100
0100
0000
1000
0000
1001
0000
,
0010
0100
0001
0000
0010
0000
0100
0000
,
1000
0001
1000
0000
0010
0100
0001
0000
,
0010
0000
0100
0000
0001
0100
1000
0000
,
0001
0010
0010
0000
0001
0000
1001
0000
,
0100
0010
1000
0000
0100
0000
0010
0000
,
0001
1000
0001
0000
0100
0010
1000
0000
,
0001
0010
0100
1000
,
1001
0000
0000
0000
0010
0100
0001
2000
,
0000
0100
0001
3001
,
1001
0000
0000
0000
0100
0010
1000
0002
,
0000
0010
1000
0103
,
1001
0000
0000
0000
0010
0100
1000
0002
,
0000
0100
1000
1003
,
1001
0000
0000
0000
1000
0100
0001
0000
,
0100
0100
0100
0100
,
0100
0100
0100
0100
,
1000
0010
1000
0000
0001
0000
0100
0000
,
1000
0100
1000
0000
0100
0000
0000
0000
,
0010
1000
0001
0000
0010
0000
1000
0000
,
0010
0100
0010
0000
0001
0000
0000
0000
,
1000
0010
0100
0000
0001
1000
0001
0000
,
0010
0100
1000
0000
0001
0000
0000
0000
,
1000
0100
1000
0000
0001
0010
1000
0000
,
0010
0110
1001
0000
,
1010
0000
0101
0000
0001
0010
0100
2000
,
0000
0010
0001
3001
,
0011
0000
1100
0000
1000
0010
0100
0002
,
0000
0010
1000
0103
,
0101
0000
1010
0000
1000
0100
0010
0002
,
0000
0100
1000
1003
,
1100
0000
0011
0000
0001
0010
1000
0000
,
0010
0010
0010
0010
,
0010
0010
0010
0010
,
0011
0000
1010
0000
1000
0010
0100
0002
,
0000
0100
1000
0103
,
0101
0000
1100
0000
1000
0100
0010
0002
,
0000
0010
1000
0103
,
0101
0000
1100
0000
1000
0100
0010
0002
,
0000
0010
1000
0013
,
0011
0000
1010
0000
0001
0010
1000
0000
,
0010
0010
0100
0100
,
1001
0000
0000
0000
0MMM
M000
M000
0MM0
,
000M
000M
MMM0
0000
MMMM
M000
M000
MMM0
,
M000
M000
MMMM
0000
M00M
M00M
M00M
0MM0
,
M00M
M00M
M00M
0000
0000
0000
0000
0000
;

//--------------- dance-single - eataninja ----------------
#NOTEDATA:;
#STEPSTYPE:dance-single;
#DESCRIPTION:eataninja;
#DIFFICULTY:Hard;
#METER:11;
#RADARVALUES:0,0,0,0,0;
#CREDIT:eataninja;
#NOTES:
0000
0000
0000
0000
,
0000
0000
0000
0000
,
0000
0000
0000
0000
,
0000
0000
0000
0000
0000
0000
0000
0000
0000
0000
0001
1000
0001
0000
0000
0000
,
1000
0010
0100
0000
0100
0100
1001
0000
,
0001
0000
0010
0000
0100
0000
0000
0000
0010
0100
0000
0100
1000
0000
0000
0000
,
0001
1000
0010
0000
0100
0100
1001
0000
,
1000
0000
0001
0010
0001
0000
0000
0000
1000
0000
0010
0000
0001
0000
0010
0000
,
0100
0001
0000
2001
0000
3100
0010
0001
,
1000
0000
0010
0000
0000
0000
0110
0000
0000
0100
0000
0000
1000
0000
0100
0000
,
0001
1000
0000
1100
0000
0100
0010
0001
,
1000
0010
0100
0010
0000
1000
0001
0010
,
1000
0010
0000
0210
0000
1300
0001
0100
,
0010
0100
0000
0101
0000
1000
0001
0010
,
0100
1000
0000
1001
0000
0001
1000
0001
,
0100
0000
1000
0000
0100
0000
0010
0000
0000
0000
1000
0010
1000
0000
0001
0000
,
0100
0000
0010
0000
0010
0000
1000
0001
0000
1000
0100
0000
0010
0000
0000
0000
,
0001
1000
1010
0000
0010
0100
0110
0000
,
1000
0000
0001
0000
0001
0000
0010
0100
0000
0010
0100
0000
1000
0000
0000
0000
,
0001
0000
0010
0000
0001
0100
0000
1000
0000
0000
0100
0000
0110
0000
0000
0000
,
0010
0000
1000
0000
1000
0000
0001
0010
0000
0001
1000
0000
0100
0000
0000
0000
,
0010
0001
1001
0000
1000
0010
1010
0000
,
0010
0000
0100
0000
0100
0000
0010
1000
0000
0010
1000
0000
0001
0000
0000
0000
,
1000
0000
0100
0000
0010
0000
0001
0000
1000
0010
1000
0010
1000
0000
0000
0000
,
1010
0010
0100
0000
0001
0010
0100
0002
,
0000
0103
1000
0010
0100
0001
1000
0000
,
1100
0100
0010
0000
0001
0100
0010
0002
,
0000
0013
1000
0001
0001
1000
0100
0010
,
0011
0001
0100
0000
1000
0100
0010
2000
,
0000
3001
0010
0100
1000
0010
0100
0000
,
0101
0001
0010
0000
1000
0001
0100
0010
,
0002
0013
2000
3010
0002
0013
2000
3010
,
0002
0000
0103
0000
2000
0000
3100
0000
0002
0000
0103
0000
2000
0000
3100
0010
,
0100
0010
1000
0001
0010
0100
1000
1001
,
0000
0000
0001
0000
0100
0000
1000
0000
0100
0000
0001
0000
0000
0000
1000
0100
,
1000
0001
0100
0010
0001
1000
0100
0001
,
0000
0000
0010
0000
0100
0000
1000
0000
1100
0000
0000
0000
0011
0000
0001
1000
,
0001
1000
0010
0100
0001
0010
0100
2100
,
0000
0000
3001
0000
0010
0000
1000
0000
0010
0000
0000
0000
0100
0000
1000
0001
,
1000
0010
0100
0001
0010
0100
0001
0000
,
1000
0010
0001
1000
0010
0100
0100
0000
,
0101
0100
1010
0000
1000
0001
0010
2000
,
0000
3010
0100
1000
0001
0100
0010
0000
,
1010
0010
0101
0000
0001
1000
0100
0002
,
0000
1003
0010
0100
2000
0000
3001
0000
,
0011
0100
1100
0000
1000
0001
0100
2000
,
0000
3100
0010
1000
0001
0010
0001
1000
,
1100
0010
0011
0000
0010
1000
0001
0100
,
2000
3100
0002
0103
2000
3100
0002
0103
,
2000
3010
0002
0013
0100
0100
0001
0001
,
0101
0010
1010
0000
0010
1000
0100
0002
,
0000
0000
0103
0000
0010
0000
0001
0000
1000
0000
0010
0000
0000
0010
0000
0000
,
1010
0010
0101
0000
0100
0001
0010
2000
,
0000
0000
3010
0000
0100
0000
1000
0000
0001
0000
1000
0100
1000
0000
0001
0000
,
0011
0010
1100
0000
0100
1000
0010
0002
,
0000
0000
0013
0000
0100
0000
0001
1000
0001
0000
0010
0000
0100
1000
0000
0000
,
1100
0010
0011
0000
0010
1000
0001
0100
,
2000
3100
0002
0103
2000
3100
0002
0103
,
1000
0000
0000
0000
0MMM
M000
M000
0MM0
,
000M
000M
MMM0
0000
MMMM
M000
M000
MMM0
,
M000
M000
MMMM
0000
M00M
M00M
M00M
0MM0
,
M00M
M00M
M00M
0000
0000
0000
0000
0000
;
