#TITLE:Scientification;
#SUBTITLE:;
#ARTIST:t+pazolite feat. ななひら;
#TITLETRANSLIT:;
#SUBTITLETRANSLIT:;
#ARTISTTRANSLIT:t+pazolite feat. Nanahira;
#GENRE:J-Pop;
#CREDIT:;
#BANNER:Scientification.png;
#BACKGROUND:Scientification-bg.png;
#LYRICSPATH:;
#CDTITLE:cdtitle.png;
#MUSIC:Scientification.ogg;
#OFFSET:-3.495924;
#SAMPLESTART:65.887230;
#SAMPLELENGTH:13.913048;
#SELECTABLE:YES;
#BPMS:0.000000=138.000000
;
#STOPS:
;
#BGCHANGES:;
#KEYSOUNDS:;
#ATTACKS:;

//---------------dance-single - ----------------
#NOTES:
     dance-single:
     :
     Challenge:
     14:
     0.629384,0.632862,0.273080,0.436928,0.819239,484.000000,454.000000,30.000000,48.000000,0.000000,0.000000,0.629384,0.632862,0.273080,0.436928,0.819239,484.000000,454.000000,30.000000,48.000000,0.000000,0.000000:
0000
0000
0000
0000
,
0000
0000
0000
0000
,
0000
0000
0000
0000
,
0000
0000
0000
0000
,
0002
0000
0000
0100
0000
0000
2003
0000
0000
0100
0000
0000
3001
0100
0010
0100
,
0002
0000
0000
0010
0000
0000
1003
0000
0000
1010
0000
0000
1001
0000
0000
0000
,
2000
0000
0000
0100
0000
0000
3002
0000
0000
0100
0000
0000
1003
0100
0010
0100
,
1000
0000
0000
1010
0000
0000
0110
0000
0000
0101
0000
0000
1000
0100
0010
0001
,
1000
0000
0100
0000
1000
0100
0000
0000
1000
0000
0100
0010
0000
0000
0100
0000
,
1000
0000
0010
0000
1000
0010
0000
0000
0001
0000
0010
1000
0000
0000
1000
0000
,
0001
0000
0100
0000
0001
0100
0000
0000
0001
0000
0100
0010
0000
0000
0100
0000
,
0001
0000
0010
0000
0001
0010
0000
0000
1000
0000
0010
0001
0000
0000
1000
0000
,
0001
0000
0100
0000
0100
0010
0000
0100
0010
0000
1000
0001
0000
1000
0100
0000
,
0010
0000
0001
0000
0100
0010
0000
0100
1000
0000
0100
0010
0000
0100
0001
0000
,
1000
0000
0100
0000
0100
0010
0000
0100
0010
0000
0001
1000
0000
0001
0100
0000
,
0010
0000
1000
0000
0100
0010
0000
0100
0001
0000
0100
0010
0000
0100
1000
0000
,
0001
0000
0200
0010
0000
0310
0000
0000
0101
0000
0000
0110
0000
0000
0001
0100
,
0001
0000
0020
0001
0000
0130
0000
0000
0011
0000
0000
1010
0000
0000
1000
0010
,
1000
0000
0200
0010
0000
0310
0000
0000
1100
0000
0000
0110
0000
0000
1000
0100
,
1000
0000
0020
1000
0000
0130
0000
0000
1010
0000
0000
0011
0000
1000
0010
0100
,
0001
0000
0100
0000
0001
0200
0000
0000
0310
0000
0100
0002
0000
0000
1003
0000
,
0001
0000
0010
0000
0001
0010
0000
0000
0001
0000
0000
1000
0010
0000
0000
0000
,
1000
0000
0100
0000
1000
0200
0000
0000
0310
0000
0100
2000
0000
0000
3001
0000
,
1000
0000
0010
0000
1000
0010
0000
0000
0100
0000
0001
0020
0000
0000
0130
0000
,
1000
0000
0001
0000
0100
0020
0000
0000
0031
0000
0010
0200
0000
0000
0301
1000
,
0001
0000
1000
0000
0100
0020
0000
0000
1030
0000
0010
0200
0000
0000
1300
0001
,
1000
0000
0001
0000
0100
0020
0000
0000
1030
0000
0100
0020
0000
0000
0031
1000
,
0010
0100
0001
0000
0001
0000
1000
0001
0000
0000
0000
0000
0001
0000
0000
0012
,
0000
0000
0010
0000
1000
0000
0000
1003
0000
1000
0010
0000
1000
0000
0000
2010
,
0000
0000
0010
0000
0001
0000
0000
3001
0000
0001
0010
0000
0100
0000
0000
0210
,
0000
0000
0010
0000
1000
0000
0000
1300
0000
1000
0010
0000
0100
0000
0000
0210
,
0000
0000
0010
0000
0001
0000
0000
0301
0000
1000
0001
0000
1000
0100
0000
0010
,
0002
0010
0010
1000
,
2003
0010
0010
0001
,
3001
0000
1000
0000
0100
0000
0010
0000
0001
0000
1000
0000
0100
0000
0010
0001
,
1000
0010
1000
0010
0100
0001
0100
0001
1000
0000
0000
0000
0000
0000
0001
0010
,
0001
0000
0010
0100
0000
0010
0000
0002
0000
0000
1000
0000
1003
0000
0001
0100
,
0001
0000
0100
0010
0000
0100
0000
0002
0000
0000
0103
0001
0010
0000
0000
0000
,
0001
0000
0010
0000
1000
0000
0010
0002
0000
0000
0103
0000
1000
0000
0100
0002
,
0000
0000
0000
0000
1003
0000
0000
0000
0001
0000
0010
0000
0001
0000
1000
0010
,
1000
0000
0010
0100
0000
0010
0000
2000
0000
0000
0001
0000
3001
0000
1000
0100
,
1000
0000
0100
0010
0000
0100
0000
2000
0000
0000
3100
1000
0010
0000
0000
0000
,
1000
0000
0010
0000
0001
0000
0010
2000
0000
0000
3100
0000
0001
0000
0100
2000
,
0000
0000
3001
0000
0100
0000
0010
0000
2000
0000
0000
3200
0000
0000
0301
0100
,
0010
0000
0100
1000
0000
0001
0000
0002
0000
1003
0010
1000
0010
0000
0100
0010
,
0001
0000
0010
0100
0000
0001
0000
0002
0000
0103
0010
1000
0100
0000
0000
0000
,
0001
0000
0100
0000
1000
0000
0001
0100
0000
0001
0100
0000
0010
1000
0001
1000
,
0100
0000
0010
0000
0001
1000
0000
1000
0002
0000
0000
0203
0000
0000
1300
0100
,
0010
0000
0100
0001
0000
1000
0000
2000
0000
3001
0010
0001
0010
0000
0100
0010
,
1000
0000
0010
0100
0000
1000
0000
2000
0000
3100
0010
0001
0100
0000
0000
0000
,
1000
0000
0100
0000
0001
0000
1000
0100
0000
1000
0100
0000
0010
0001
1000
0001
,
0100
0000
0010
0000
1000
0000
0000
0000
0001
0100
0001
0000
1000
0100
1000
0000
,
0001
0000
0200
0001
0000
0310
0000
0000
0101
0000
0000
0110
0000
0010
0100
0001
,
1000
0000
0200
1000
0000
0310
0000
0000
1100
0000
0000
0110
0000
0010
0100
1000
,
0001
0000
2000
0010
0000
3001
0000
0000
0011
0000
0000
1001
0000
1000
0010
1000
,
0100
0000
0000
1001
0000
0000
0101
0000
0000
1002
0000
0000
0013
0001
0100
0001
,
0010
0000
0000
1100
0000
0000
1010
0000
0000
0101
0000
0000
1001
0000
0000
0000
,
0001
1000
0002
0010
0000
0000
1003
0001
2000
0010
0000
0000
3001
1000
0001
0010
;

//---------------dance-single - ----------------
#NOTES:
     dance-single:
     :
     Hard:
     10:
     0.412220,0.474647,0.227566,0.509749,0.263977,317.000000,292.000000,25.000000,56.000000,0.000000,0.000000,0.412220,0.474647,0.227566,0.509749,0.263977,317.000000,292.000000,25.000000,56.000000,0.000000,0.000000:
// measure 0
0000
0000
0000
0000
,  // measure 1
0000
0000
0000
0000
,  // measure 2
0000
0000
0000
0000
,  // measure 3
0000
0000
0000
0000
,  // measure 4
0002
0000
0000
0100
0000
0000
2003
0000
0000
0100
0000
0000
3001
0000
0000
0000
,  // measure 5
2000
0000
0000
0010
0000
0000
3001
0000
0000
1001
0000
0000
1001
0000
0000
0000
,  // measure 6
2000
0000
0000
0100
0000
0000
3002
0000
0000
0100
0000
0000
1003
0000
0000
0000
,  // measure 7
0200
0000
0000
2300
0000
0000
3020
0000
0000
0230
0000
0000
0302
0000
0000
0000
,  // measure 8
1003
0100
1000
0000
0100
0000
1000
0000
,  // measure 9
0001
0100
0001
0000
0100
0000
0001
0000
,  // measure 10
1000
0010
0100
0000
0001
0000
1000
0000
,  // measure 11
0001
0010
0100
0000
1000
0000
0001
0000
,  // measure 12
1000
0000
0010
0000
1000
0020
0000
0000
0130
0000
0000
0010
0100
0000
0000
0000
,  // measure 13
0010
0000
1000
0000
0001
2000
0000
0000
3100
0000
0000
0100
0010
0000
0000
0000
,  // measure 14
0001
0000
0010
0000
0001
0020
0000
0000
0130
0000
0000
0010
0100
0000
0000
0000
,  // measure 15
0010
0000
0001
0000
1000
0002
0000
0000
0103
0000
0000
0100
0010
0000
0000
0000
,  // measure 16
1000
0000
0002
0000
0000
0100
0000
0000
2003
0000
0000
0010
0000
0000
3001
0000
,  // measure 17
0000
0000
0002
0000
0000
0103
0000
0000
0101
0000
0000
1010
0000
0000
0001
0000
,  // measure 18
0000
0000
2000
0000
0000
0100
0000
0000
3002
0000
0000
0010
0000
0000
1003
0000
,  // measure 19
0000
0000
2000
0000
0000
3100
0000
0000
1100
0000
0000
0011
0000
0000
1000
0000
,  // measure 20
0000
0001
0100
0000
1000
0100
0001
0000
,  // measure 21
0002
0000
1000
1003
,  // measure 22
0000
1000
0100
0000
0001
0100
1000
0000
,  // measure 23
2000
0000
0000
0000
0000
0000
0000
0000
3001
0000
1000
0001
0000
0000
0000
0000
,  // measure 24
1000
0000
0010
0000
1000
0020
0000
0000
0100
0000
0000
0000
1030
0000
0000
0000
,  // measure 25
0001
0000
0010
0000
0001
0020
0000
0000
0100
0000
0000
0000
0031
0000
0000
0000
,  // measure 26
1000
0000
0001
0000
1000
0002
0000
0000
0100
0000
0000
0000
1003
0000
0000
0000
,  // measure 27
0001
0000
1000
0000
0001
0000
1000
0100
0000
0000
0000
0000
0010
0000
0000
0012
,  // measure 28
0000
0000
0000
0000
1000
0000
0000
1003
0000
0000
0000
0000
0010
0000
0000
2010
,  // measure 29
0000
0000
0000
0000
0001
0000
0000
3001
0000
0000
0000
0000
1000
0000
0000
2100
,  // measure 30
0000
0000
0000
0000
0001
0000
0000
3001
0000
0000
0000
0000
0001
0000
0000
0102
,  // measure 31
0000
0000
0000
0000
1000
0000
0000
1003
0000
0000
1000
0000
0001
0000
0000
0000
,  // measure 32
2001
0010
0010
0001
,  // measure 33
3002
0010
0010
1000
,  // measure 34
1003
0010
0100
0000
0001
0010
0100
0000
,  // measure 35
1000
0010
0100
0001
1000
0000
0000
0001
,  // measure 36
0010
0100
0010
0000
0022
0000
0033
0001
,  // measure 37
0100
0010
0100
0000
0202
0000
0303
0000
,  // measure 38
0001
0000
0010
0000
1000
0000
0000
0010
0000
0000
0001
0000
0100
0000
0000
0000
,  // measure 39
1000
0100
0001
0000
1000
0000
0000
1000
,  // measure 40
0010
0100
0010
0000
2020
0000
3030
1000
,  // measure 41
0100
0010
0100
0000
2200
0000
3300
0000
,  // measure 42
1000
0000
0010
0000
0001
0000
0000
0010
0000
0000
1000
0000
0100
0000
0000
0000
,  // measure 43
0001
0100
1000
0000
0002
0000
0203
0000
,  // measure 44
0301
0100
0010
0100
2000
0000
3100
0000
,  // measure 45
1000
0100
0010
0100
0002
0000
0013
0000
,  // measure 46
1000
0000
0010
0000
0001
0000
0010
0002
0000
0000
0103
0000
0010
0000
1000
0020
,  // measure 47
0000
0000
1030
0001
2000
0000
3200
0000
,  // measure 48
1300
0100
0010
0100
0002
0000
0103
0000
,  // measure 49
0001
0100
0010
0100
2000
0000
3010
0000
,  // measure 50
0001
0000
0010
0000
1000
0000
0010
2000
0000
0000
3100
0000
0010
0000
0001
0020
,  // measure 51
0000
0000
0031
0100
0010
1000
0001
0000
,  // measure 52
1000
0000
0200
0000
0000
1000
0000
0000
0320
0000
0000
0001
0000
0000
0130
0000
,  // measure 53
0000
0000
0200
0000
0000
1300
0000
0000
1001
0000
0000
1010
0000
0000
0001
0000
,  // measure 54
0000
0000
0200
0000
0000
0001
0000
0000
0320
0000
0000
1000
0000
0000
0130
0000
,  // measure 55
0001
0000
0000
0001
0000
0000
0101
0000
0000
1001
0000
0000
0011
0000
0000
0000
,  // measure 56
1000
0000
0000
1000
0000
0000
1100
0000
0000
1001
0000
0000
1010
0000
0000
0000
,  // measure 57
0001
0100
0000
0001
0000
0000
1000
0100
0000
1000
0000
0000
0110
0000
0000
1001
;

//---------------dance-single - ----------------
#NOTES:
     dance-single:
     :
     Medium:
     7:
     0.295186,0.316431,0.072821,0.327696,0.000000,227.000000,219.000000,8.000000,36.000000,0.000000,0.000000,0.295186,0.316431,0.072821,0.327696,0.000000,227.000000,219.000000,8.000000,36.000000,0.000000,0.000000:
0000
0000
0000
0000
,
0000
0000
0000
0000
,
0000
0000
0000
0000
,
0000
0000
0000
0000
,
0001
0000
0001
0000
0001
0000
0100
0010
,
1000
0100
0010
0001
,
1000
0000
1000
0000
1000
0000
0100
0010
,
0002
0203
0320
2030
,
3001
0001
0010
0000
,
1000
1000
0010
0000
,
0001
0001
0100
0000
,
1000
1000
0100
0000
,
0001
0100
0001
0000
1000
0000
1000
0000
,
0001
0010
0001
0000
0010
0000
0100
0000
,
1000
0010
1000
0000
0001
0000
0001
0000
,
1000
0100
1000
0000
0010
0000
0100
0000
,
0001
0000
0001
0000
0001
0000
0010
0001
,
1000
0000
1000
0000
1000
0000
0010
1000
,
0001
0000
0001
0000
0001
0000
0100
0001
,
2000
3200
0320
0032
,
0003
1000
0010
0000
1000
0000
0010
0000
,
0200
0000
0301
0001
,
0000
0001
0010
0000
0001
0000
0010
0000
,
0200
0000
1300
0001
,
1000
0010
0100
0000
0010
0000
0010
0000
,
0100
0010
1000
0000
0001
0000
1000
0000
,
0001
0010
0100
0000
0010
0000
0010
0000
,
0100
0010
0001
0000
1001
0000
0000
0000
,
2000
0000
0010
0000
,
3002
0000
0010
0000
,
2003
0000
0100
0000
,
3002
0000
0100
0000
,
1003
0010
1000
0010
,
0100
0001
0100
0001
,
0010
0100
1000
0002
,
2000
0000
3003
0000
,
0001
0010
0001
0000
0022
0000
0033
0000
,
0001
0100
0001
0000
0202
0000
0303
0000
,
1000
0000
0010
0000
0100
0000
0001
1000
,
0002
0000
1003
0001
,
1000
0010
1000
0000
2020
0000
3030
0000
,
1000
0100
1000
0000
2200
0000
3300
0000
,
0001
0000
0010
0000
0100
0000
1000
0001
,
2000
0000
3010
0100
,
0001
0010
0100
0000
0020
0000
0130
0000
,
0010
0001
0100
0000
0002
0000
0103
0000
,
0010
1000
0010
0000
0100
0001
0100
0000
,
0002
0000
0013
0100
,
1000
0010
0100
0000
0020
0000
0130
0000
,
0010
1000
0100
0000
2000
0000
3100
0000
,
0010
0001
0010
0000
0100
1000
0100
0000
,
2000
0000
3001
0001
,
1000
0000
1000
0000
1000
0000
0010
0100
,
0001
0000
0001
0000
0001
0000
0010
0100
,
1000
0000
1000
0000
1000
0000
0001
0100
,
0010
0000
0000
1010
0000
0000
1000
0100
,
0010
0000
0000
0011
0000
0000
0001
1000
,
0002
0000
0000
0003
0000
0000
2000
0000
0000
3000
0000
0000
2002
0000
0000
3003
;

//---------------dance-single - ----------------
#NOTES:
     dance-single:
     :
     Easy:
     4:
     0.191156,0.237323,0.009103,0.136540,0.000000,147.000000,146.000000,1.000000,15.000000,0.000000,0.000000,0.191156,0.237323,0.009103,0.136540,0.000000,147.000000,146.000000,1.000000,15.000000,0.000000,0.000000:
0000
0000
0000
0000
,
0000
0000
0000
0000
,
0000
0000
0000
0000
,
0000
0000
0000
0000
,
0001
0001
0001
0000
,
0001
0100
0010
0000
,
1000
1000
1000
0000
,
1000
0100
0010
0000
,
0001
0000
0001
0000
,
1000
0000
1000
0000
,
0010
0000
0010
0000
,
0100
0000
0100
0000
,
0001
1000
0100
0000
,
1000
0001
0100
0000
,
0010
1000
0001
0000
,
0010
0001
1000
0000
,
0001
0001
0001
0000
,
0100
0010
1000
0000
,
0001
0001
0001
0000
,
1000
0100
0010
0000
,
0001
0000
0001
0000
,
0002
0000
0003
0000
,
1000
0000
1000
0000
,
2000
0000
3001
1000
,
0100
0010
0001
0000
,
0010
0100
1000
0000
,
0001
0100
0010
0000
,
1000
0001
1001
0000
,
0002
0000
0013
0000
,
0200
0000
1300
0000
,
0002
0000
0103
0000
,
0020
0000
1030
0001
,
0002
0000
0003
1000
,
2000
0000
3000
0100
,
0200
0000
0320
0000
,
0130
0010
0100
0000
,
0010
0001
1000
0000
,
1000
0001
0100
0000
,
0100
0001
1000
0001
,
0200
0000
0300
0000
,
0010
1000
0001
0000
,
0001
1000
0100
0000
,
0100
1000
0001
1000
,
0200
0000
0300
0000
,
0010
0001
0100
0000
,
0100
0001
0010
0000
,
0010
0001
0100
0010
,
2000
0000
3010
0000
,
0010
1000
0100
0000
,
0100
1000
0010
0000
,
0010
1000
0100
0010
,
0002
0000
1003
0000
,
0001
0001
0001
0000
,
0100
0010
1000
0000
,
0001
0001
0001
0000
,
0010
0100
0010
0100
,
1000
0001
1000
0001
,
0200
0000
0000
0000
0000
0000
0000
0000
0000
0000
0000
0000
0000
0000
0000
0300
;

//---------------dance-single - ----------------
#NOTES:
     dance-single:
     :
     Beginner:
     2:
     0.124836,0.184585,0.000000,0.109232,0.000000,96.000000,96.000000,0.000000,12.000000,0.000000,0.000000,0.124836,0.184585,0.000000,0.109232,0.000000,96.000000,96.000000,0.000000,12.000000,0.000000,0.000000:
0000
0000
0000
0000
,
0000
0000
0000
0000
,
0000
0000
0000
0000
,
0000
0000
0000
0000
,
0001
0000
0001
0000
,
1000
0000
0001
0000
,
1000
0000
1000
0000
,
0001
0000
1000
0000
,
0100
0000
0000
0000
,
0100
0000
0000
0000
,
0010
0000
0000
0000
,
0010
0000
0000
0000
,
0001
0000
0001
0000
,
0100
0000
0100
0000
,
0010
0000
0010
0000
,
1000
0000
1000
0000
,
0001
0000
0001
0000
,
1000
0000
0001
0000
,
1000
0000
1000
0000
,
0001
0000
1000
0000
,
0200
0000
0000
0000
,
0300
0000
0000
0000
,
0020
0000
0000
0000
,
0030
0000
0000
0000
,
0001
0000
0001
0000
,
1000
0000
1000
0000
,
0001
0000
0100
0000
,
0010
0000
1000
0000
,
0002
0000
0003
0000
,
0020
0000
0030
0000
,
0200
0000
0300
0000
,
2000
0000
3000
0000
,
0002
0000
0003
0000
,
0200
0000
0300
0000
,
0010
0000
0010
0000
,
0020
0000
0030
0000
,
1000
1000
1000
0000
,
0001
0001
0001
0000
,
1000
0000
0100
0000
,
0020
0000
0030
0000
,
0001
0001
0001
0000
,
1000
1000
1000
0000
,
0001
0000
0100
0000
,
0020
0000
0030
0000
,
1000
1000
1000
0000
,
0010
0010
0010
0000
,
0100
0000
0001
0000
,
0010
0000
0010
0000
,
0001
0001
0001
0000
,
0010
0010
0010
0000
,
0100
0000
1000
0000
,
0010
0000
0010
0000
,
1000
0000
1000
0000
,
0001
0000
1000
0000
,
0001
0000
0001
0000
,
0010
0000
0100
0000
,
1000
0000
0010
0000
,
0200
0000
0000
0000
0000
0000
0000
0000
0000
0000
0000
0000
0000
0000
0000
0300
;
