#VERSION:0.83;
#TITLE:Samaa taivasta katsotaan;
#SUBTITLE:;
#ARTIST:Portion Boys;
#TITLETRANSLIT:;
#SUBTITLETRANSLIT:;
#ARTISTTRANSLIT:;
#GENRE:;
#ORIGIN:;
#CREDIT:;
#BANNER:bn.png;
#BACKGROUND:bg.png;
#PREVIEWVID:;
#JACKET:jacket.jpg;
#CDIMAGE:;
#DISCIMAGE:;
#LYRICSPATH:;
#CDTITLE:;
#MUSIC:Samaa taivasta katsotaan.ogg;
#OFFSET:-0.750000;
#SAMPLESTART:103.750015;
#SAMPLELENGTH:12.000000;
#SELECTABLE:YES;
#BPMS:0.000=82.500,
8.000=165.000;
#STOPS:;
#DELAYS:;
#WARPS:;
#TIMESIGNATURES:0.000=4=4;
#TICKCOUNTS:0.000=4;
#COMBOS:0.000=1;
#SPEEDS:0.000=1.000=0.000=0;
#SCROLLS:0.000=1.000;
#FAKES:;
#LABELS:0.000=Song Start;
#BGCHANGES:;
#KEYSOUNDS:;
#ATTACKS:
;

//---------------dance-single - ----------------
#NOTEDATA:;
#CHARTNAME:;
#STEPSTYPE:dance-single;
#DESCRIPTION:;
#CHARTSTYLE:;
#DIFFICULTY:Beginner;
#METER:5;
#RADARVALUES:0.256106,0.298141,0.257220,0.241631,0.000000,230.000000,197.000000,33.000000,31.000000,0.000000,0.000000,0.000000,0.000000,0.000000,0.256106,0.298141,0.257220,0.241631,0.000000,230.000000,197.000000,33.000000,31.000000,0.000000,0.000000,0.000000,0.000000,0.000000;
#CREDIT:;
#NOTES:
0000
0000
0000
0000
,
0000
0000
0000
1000
,
0002
0000
0103
0000
,
0001
0010
0100
1000
,
0020
0000
1030
0000
,
0001
0100
0010
1000
,
0002
0000
1003
0000
,
2000
0000
3100
0000
,
0020
0000
0000
0000
,
0030
0100
0010
1000
,
0010
0000
0100
0000
,
0110
0000
1001
0000
,
1000
0000
0001
0000
,
1001
0000
0110
0000
,
0011
0000
1100
0000
,
1000
0001
1000
0000
,
1010
0000
0101
0000
,
0001
1000
0002
0000
,
0103
0000
0010
0000
,
0110
0000
1001
0000
,
0001
0000
1000
0000
,
1001
0000
0110
0000
,
1100
0000
0011
0000
,
0001
1000
0001
0000
,
0101
0000
1010
0000
,
1000
0001
2000
0000
,
3002
0000
0000
0000
,
0203
0000
0000
0000
,
0310
0000
1000
0000
,
0001
0010
0001
0100
,
0001
0000
1000
0000
,
0001
0010
0100
1000
,
0200
0000
0000
0300
,
1000
1000
0010
0010
,
0200
0000
0000
0000
,
0000
0301
1000
0001
,
0100
0000
0001
0000
,
1000
0100
1000
0010
,
1000
0000
0001
0000
,
1000
0100
0010
0001
,
0020
0000
0000
0030
,
0001
0001
0100
0100
,
0020
0000
0000
0000
,
0000
0000
0030
1000
,
0002
0000
0203
0000
,
0310
0100
0010
0100
,
0002
0000
2003
0000
,
3001
1000
0001
1000
,
0200
0000
2300
0000
,
3020
0000
0230
0000
,
0302
0000
0000
0003
,
1000
0100
0010
0001
,
0100
0000
0010
0000
,
0110
0000
1001
0000
,
0001
0000
1000
0000
,
1001
0000
0110
0000
,
1100
0000
0011
0000
,
0001
1000
0001
0000
,
0101
0000
1010
0000
,
1000
0001
2000
0000
,
3010
0000
0100
0000
,
0110
0000
1001
0000
,
1000
0000
0001
0000
,
1001
0000
0110
0000
,
0011
0000
1100
0000
,
1000
0001
1000
0000
,
1010
0000
0101
0000
,
0001
1000
0002
0000
,
2003
0000
0000
0000
,
3020
0000
0000
0000
,
0130
0000
0001
0000
,
1000
0100
1000
0010
,
1000
0000
0001
0000
,
1000
0100
0010
0001
,
0020
0000
0000
0030
,
0001
0001
0100
0100
,
0020
0000
0000
0000
,
0000
1030
0001
1000
,
0010
0000
1000
0000
,
0001
0010
0001
0100
,
0001
0000
1000
0000
,
0001
0010
0100
1000
,
0200
0000
0000
0300
,
1000
1000
0010
0010
,
0220
0000
0000
0000
,
0330
0000
0000
0000
;

//---------------dance-single - ----------------
#NOTEDATA:;
#CHARTNAME:;
#STEPSTYPE:dance-single;
#DESCRIPTION:;
#CHARTSTYLE:;
#DIFFICULTY:Easy;
#METER:7;
#RADARVALUES:0.326257,0.334191,0.210452,0.405316,0.000000,293.000000,266.000000,27.000000,52.000000,0.000000,0.000000,0.000000,0.000000,0.000000,0.326257,0.334191,0.210452,0.405316,0.000000,293.000000,266.000000,27.000000,52.000000,0.000000,0.000000,0.000000,0.000000,0.000000;
#CREDIT:;
#NOTES:
0000
0000
0000
0000
,
0000
0000
0000
0000
0000
0000
0000
1000
,
0002
0000
0000
0203
0000
0000
0000
0300
,
0002
0000
0000
0023
0000
0000
0130
0000
,
0020
0000
0000
0031
,
1000
0001
1000
0010
,
0200
0000
0000
0320
0000
0000
0000
0030
,
0110
0000
0000
1001
0000
1000
0000
0200
,
0000
0000
0000
0000
0000
0000
0000
0300
,
1000
0100
0010
0001
,
1000
1000
0010
0010
,
1000
0001
1000
0001
,
0100
0100
0010
0010
,
1000
0100
0010
0001
,
0100
0100
0001
0001
,
1000
0001
0100
0001
,
1000
1000
0010
0010
,
1000
0010
0100
0001
,
1000
1000
0100
0100
,
1000
1000
0001
0001
,
0100
0001
1000
0001
,
1000
0100
0010
0002
,
0000
1003
0010
1000
,
1010
0000
0101
0000
,
0001
0010
0100
1000
,
0011
0000
1100
0000
,
2002
3003
0220
0330
,
2002
3003
1000
0100
,
1000
0010
0100
0001
,
0200
0000
0301
0010
,
0001
0100
0010
1000
,
0001
0001
0100
0100
,
0020
0000
0000
0000
,
1030
0001
1000
0001
,
2002
0000
0000
0000
,
3003
0001
0010
0100
,
1000
1000
0010
0100
,
0002
0000
1003
0010
,
0100
0001
0100
0010
,
1000
0010
1000
0100
,
0220
0000
0330
1001
,
1000
1000
0001
0001
,
2002
0000
0000
3003
,
1000
0010
1000
0100
,
2000
0000
0000
3002
0000
0000
0003
0000
,
0022
0000
0033
1002
0000
0000
0103
0000
,
0002
0000
0000
2003
0000
0000
3100
0000
,
1000
0100
0010
0001
,
0200
0000
0000
0320
0000
0000
0000
0000
,
1030
0001
0100
0001
,
2000
0000
0000
3000
,
2002
0000
0000
3003
,
0001
0001
0100
0100
,
0001
1000
0001
1000
,
0010
0010
0100
0100
,
0001
0010
0100
1000
,
0010
0010
1000
1000
,
0001
1000
0010
1000
,
0001
0001
0100
0100
,
0001
0100
0010
1000
,
0001
0001
0010
0010
,
0001
0001
1000
1000
,
0010
1000
0001
1000
,
0001
0010
0100
2000
,
0000
3001
0100
0001
,
0101
0000
1010
0000
,
1000
0100
0010
0001
,
1100
0000
0011
0000
,
2002
3003
0220
0330
,
2002
3003
0001
0010
,
0001
0100
0010
1000
,
0020
0000
1030
0100
,
1000
0010
0100
0001
,
1000
1000
0010
0010
,
0200
0000
0000
0000
,
0301
1000
0001
1000
,
2002
0000
0000
0000
,
3003
1000
0100
0010
,
0001
0001
0100
0010
,
2000
0000
3001
0100
,
0010
1000
0010
0100
,
0001
0100
0001
0010
,
0220
0000
0330
1001
,
0001
0001
1000
1000
,
2002
0000
0000
0000
,
0000
0000
0000
3003
;

//---------------dance-single - ----------------
#NOTEDATA:;
#CHARTNAME:;
#STEPSTYPE:dance-single;
#DESCRIPTION:;
#CHARTSTYLE:;
#DIFFICULTY:Hard;
#METER:12;
#RADARVALUES:0.703735,0.770880,0.202658,0.483261,0.144199,632.000000,606.000000,26.000000,62.000000,0.000000,0.000000,0.000000,0.000000,0.000000,0.703735,0.770880,0.202658,0.483261,0.144199,632.000000,606.000000,26.000000,62.000000,0.000000,0.000000,0.000000,0.000000,0.000000;
#CREDIT:;
#NOTES:
0000
0000
0000
0000
,
0000
0000
0000
0000
0000
0000
0000
0000
1000
0001
1000
0001
0100
0001
1000
0001
,
1000
0100
1000
0200
0000
0310
0100
1000
,
0010
0000
0100
0000
0010
0000
2000
0000
0000
0000
3001
0000
0010
0000
0001
1000
,
0001
0100
0010
0100
0001
0010
0100
0010
,
0002
0000
1003
0002
0000
0103
0010
0100
,
0020
0000
1030
0200
0000
1300
0001
1000
,
0201
0000
0000
0310
0100
0001
0010
1000
,
0010
0000
0001
0000
1000
0000
0100
0000
1000
0000
0010
1000
0100
1000
0010
1000
,
0001
0000
0010
0001
0100
0001
0010
0001
0100
0000
0010
0000
1000
0000
0001
0000
,
1000
0100
1000
0010
1000
1000
0100
0100
,
1000
0000
0010
0001
0010
1000
0001
1000
,
0001
0010
0100
0010
0001
0010
0100
0010
,
0001
0001
0010
0010
0001
0000
0011
0000
,
1200
0000
0310
0100
1000
0100
0010
0100
,
1000
0000
1002
0103
0020
0000
0130
0010
,
1000
0200
0000
1300
0010
0001
0010
1000
,
0100
0000
0010
0000
0100
0000
0010
0000
0001
0100
0001
0000
1000
0001
1000
0000
,
0001
0010
0100
1000
0001
0100
0010
1000
,
0001
0000
1000
0000
0100
0000
1000
0000
0001
0000
1000
0000
0001
0010
0001
0000
,
1000
0010
0001
0010
1000
0100
0010
0001
,
1000
1000
0100
0100
1000
0001
0100
0002
,
0000
0000
0103
0001
0010
0001
1000
0100
,
0010
0120
0000
0031
1000
0010
1000
0100
,
1000
0010
1000
0100
1000
0010
0100
0001
,
0010
0100
1000
0010
0002
0000
1003
0100
,
0001
0010
0100
0010
0100
1000
0100
1000
,
0001
1000
0001
1000
0001
0100
0001
1000
0001
0000
0010
0000
0100
0000
1000
0000
,
0001
1000
0001
0010
2000
0000
3010
0001
,
0100
0000
0001
0000
1000
0001
1000
0000
0001
0000
0010
0000
0100
0000
1000
0000
,
0010
0100
0000
0101
0000
1001
0000
1000
,
0010
0100
0001
1000
0001
0000
1000
0002
,
1000
0003
2002
0000
3003
1000
0001
1000
,
0002
0000
0013
0001
0020
0000
1030
0100
,
0001
0000
0100
0000
1000
0000
0100
0000
0001
0000
1000
0000
0001
1000
0001
0000
,
1000
0100
1000
0010
1000
0100
0010
0001
,
2000
0000
0000
0000
3001
0000
0100
0000
2000
0000
0000
0100
3000
0000
0001
0000
,
0010
0000
0001
0000
1000
0001
1000
0000
0001
0000
0010
0000
0100
0000
1000
0000
,
0010
0000
0010
0001
1000
0000
0100
1000
,
0010
0100
0001
1000
0001
0000
1000
0002
,
1000
0003
2002
0000
3003
1000
0001
1000
,
0002
0000
0013
0001
0020
0000
1030
0100
,
0001
0100
1000
0100
0001
1000
0010
0100
,
0001
0000
1000
0001
1000
0000
0010
1000
0010
0000
0100
0010
0100
0000
0001
0000
,
1000
0100
0010
0210
0000
0000
1300
0000
,
0010
0000
0100
0000
0001
0000
2002
0000
3003
0000
0001
0100
0001
0000
0010
0100
,
0010
1000
0100
2000
0000
3000
0010
0001
,
0020
0000
0000
0000
1030
0000
0100
0000
1000
0100
1000
0000
0010
0000
1000
0000
,
0200
0000
1300
0002
0000
0103
0010
0001
,
0020
0000
0000
0000
0130
0000
0001
0000
2000
0000
3000
2020
0000
0000
3030
0000
,
1002
0000
0100
0000
0000
0103
0001
1000
,
0001
0010
0000
0110
0000
1001
0100
0000
,
0001
0010
0100
1000
0010
0001
0010
0000
,
1010
0000
1000
0001
1000
0100
2000
0000
,
3001
0100
0010
1000
0001
0100
1000
0100
,
0002
0000
0103
0020
0000
0130
0001
0100
,
0001
0010
1000
0000
0001
0100
1000
0001
,
0000
1001
0000
1000
0010
1000
0100
0010
,
0001
0010
0100
1000
0001
0100
0010
1000
,
0020
0000
0000
0000
0130
0000
0010
0000
1000
0010
1000
0000
0001
1000
0001
0000
,
1000
0100
1000
0100
1000
0001
0010
0100
,
1000
0001
0100
0010
1010
0000
0010
1000
,
0001
0010
0100
1000
0010
0100
0001
0010
,
0100
0010
0100
0010
0011
0000
0001
1000
,
0001
0010
0100
1000
0010
1000
0010
1000
,
0001
0010
1000
0010
0001
0100
1000
0100
,
0001
1000
0100
2200
3300
1000
0010
1000
,
0001
2000
0000
3000
0101
0000
1010
0000
,
1000
0100
0010
0001
1000
0010
0100
0001
,
1000
0001
1000
0000
0001
0100
0001
0000
1000
0000
0100
0000
0010
0000
0001
0000
,
2000
0000
3001
0010
2000
0000
3010
0001
,
0100
0000
0001
0000
1000
0001
1000
0000
0001
0000
0010
0000
0100
0000
1000
0000
,
0010
0100
0000
0101
0000
1001
0000
1000
,
0010
0100
0001
1000
0001
0000
1000
0002
,
1000
0003
2002
0000
3003
1000
0001
1000
,
0002
0000
0013
0001
0020
0000
1030
0100
,
0001
0000
0100
0000
1000
0000
0100
0000
0001
0000
1000
0000
0001
1000
0001
0000
,
1000
0100
1000
0010
1000
0100
0010
0001
,
2000
0000
0000
0000
3001
0000
0100
0000
2000
0000
0000
0100
3000
0000
0001
0000
,
0010
0000
0001
0000
1000
0001
1000
0000
0001
0000
0010
0000
0100
0000
1000
0000
,
0010
0000
0010
0001
1000
0000
0100
1000
,
0010
0100
0001
1000
0001
0000
1000
0002
,
1000
0003
2002
0000
3003
1000
0001
1000
,
0002
0000
0013
0001
0020
0000
1030
0100
,
0001
0100
1000
0100
0002
0000
0000
0000
,
2000
0000
0000
0000
,
3003
0000
0000
0000
;

//---------------dance-single - ----------------
#NOTEDATA:;
#CHARTNAME:;
#STEPSTYPE:dance-single;
#DESCRIPTION:;
#CHARTSTYLE:;
#DIFFICULTY:Medium;
#METER:9;
#RADARVALUES:0.600179,0.603297,0.272809,0.685919,0.011692,539.000000,504.000000,35.000000,88.000000,0.000000,0.000000,0.000000,0.000000,0.000000,0.600179,0.603297,0.272809,0.685919,0.011692,539.000000,504.000000,35.000000,88.000000,0.000000,0.000000,0.000000,0.000000,0.000000;
#CREDIT:;
#NOTES:
// measure 0
0000
0000
0000
0000
,  // measure 1
0000
0000
0000
0000
0000
0000
0000
0000
0000
0000
0000
0000
0000
0000
1000
0001
,  // measure 2
2000
0000
0000
3020
0000
0000
0030
0000
,  // measure 3
0220
0000
0330
1001
0000
1000
0001
1000
,  // measure 4
0002
0000
0000
0200
0000
0303
0010
0100
,  // measure 5
0002
0000
2003
3002
0000
1003
0100
0010
,  // measure 6
0200
0000
1300
0002
0000
0000
0003
0000
,  // measure 7
1001
0000
0000
1010
0000
0110
0000
0202
,  // measure 8
0303
0001
0010
0100
0010
0001
0010
0001
,  // measure 9
1000
0010
0001
0010
1000
0100
0010
0001
,  // measure 10
0100
0000
0010
0100
0010
0100
0010
0100
,  // measure 11
0001
0000
1000
0100
1000
0010
1000
0100
,  // measure 12
1000
0001
0100
0010
0001
0010
0100
0010
,  // measure 13
1000
0100
1000
0001
0011
0000
1100
0000
,  // measure 14
2000
0000
3010
0001
1000
0100
0001
0010
,  // measure 15
0002
0000
0103
1000
0200
0000
0301
1000
,  // measure 16
0001
0010
0100
1000
0010
0100
0000
0110
,  // measure 17
0010
1000
0010
1000
0001
1000
0001
1000
,  // measure 18
0001
0100
1000
0100
0002
0000
0103
0010
,  // measure 19
1000
0100
0001
0100
2000
0000
3010
1000
,  // measure 20
0002
0000
1003
0001
1000
0010
1000
0010
,  // measure 21
1000
0100
0010
0001
1000
0000
1001
0000
,  // measure 22
1020
0000
0000
0200
0000
0300
1030
0000
,  // measure 23
0001
1000
0010
1000
0001
1000
0010
1000
,  // measure 24
0001
0100
0001
0010
0001
1000
0001
1000
,  // measure 25
1100
0000
0001
0100
0101
0000
1000
0001
,  // measure 26
1000
0100
0010
0001
1000
0100
0010
0001
,  // measure 27
0010
0100
1000
0100
0100
0001
0010
0010
,  // measure 28
2000
0000
3100
1000
0200
0000
0310
0200
,  // measure 29
0000
1300
0010
1000
0001
0010
0001
0100
,  // measure 30
0010
1000
0000
0100
0000
1000
0000
0200
,  // measure 31
0000
1300
0010
0001
0020
0000
1030
0002
,  // measure 32
0000
0003
2002
3003
0000
1000
1000
1000
,  // measure 33
0020
0030
1000
0001
2000
0000
3001
0020
,  // measure 34
0000
0030
0110
0000
1001
0000
0001
0010
,  // measure 35
0001
0000
1000
0001
1000
0100
0010
0001
,  // measure 36
2000
0000
0000
0000
3010
0000
0100
0000
0010
0000
0000
1000
0000
0000
2002
0000
,  // measure 37
0000
0000
3003
0001
0010
0001
1000
0001
,  // measure 38
0020
0000
0130
1000
1100
0000
0012
2000
,  // measure 39
3003
0001
0100
0001
0020
0000
0031
2000
,  // measure 40
0000
3000
1001
0000
1000
0010
0100
0010
,  // measure 41
2000
0000
3100
1000
0002
0000
0013
0002
,  // measure 42
1000
0000
0100
0000
0000
0000
0100
0003
,  // measure 43
1000
0001
1000
0001
1000
0100
1000
0100
,  // measure 44
1000
0010
0100
0020
0000
0000
0030
0000
,  // measure 45
0220
0000
0330
2002
0000
3003
1000
0000
,  // measure 46
2200
0000
3300
0011
0000
1000
0001
1000
,  // measure 47
0020
0000
0130
0010
1000
0010
1000
0100
,  // measure 48
2000
0000
3001
0200
0000
0310
0100
0010
,  // measure 49
2000
0000
3100
1000
0002
0000
0103
0002
,  // measure 50
0000
1003
0100
1000
0010
0100
0001
0010
,  // measure 51
0001
0010
1000
0010
0001
0010
0100
1000
,  // measure 52
0010
0000
0100
0010
0100
0010
0100
0010
,  // measure 53
1000
0000
0001
0010
0001
0100
0001
0010
,  // measure 54
0001
1000
0010
0100
1000
0100
0010
0100
,  // measure 55
0002
0000
0013
0002
0000
1003
0100
0000
,  // measure 56
1000
0010
0001
0000
1000
0100
0001
0000
,  // measure 57
2000
0000
3010
0001
0010
1000
0001
0000
,  // measure 58
1000
0100
0010
0001
0100
0010
0100
0010
,  // measure 59
0100
0001
0100
0001
1000
0001
1000
0001
,  // measure 60
1000
0010
0001
0010
2000
0000
3010
0100
,  // measure 61
0001
0010
1000
0010
0002
0000
0103
0001
,  // measure 62
2000
0000
3001
1000
0001
0100
0001
0100
,  // measure 63
0001
0010
0100
1000
0001
0000
1001
0000
,  // measure 64
0201
0000
0000
0020
0000
0030
0301
0000
,  // measure 65
1000
0001
0100
0001
1000
0001
0100
0001
,  // measure 66
1000
0010
1000
0100
1000
0001
1000
0001
,  // measure 67
0100
0110
0000
0000
1001
0000
0001
1000
,  // measure 68
0001
0010
0100
1000
0001
0010
0100
1000
,  // measure 69
0100
0010
0001
0010
0010
1000
0100
0100
,  // measure 70
0002
0000
0013
0001
0020
0000
0130
0020
,  // measure 71
0000
0031
0100
0001
1000
0100
1000
0010
,  // measure 72
0100
0001
0000
0010
0000
0001
0000
0020
,  // measure 73
0000
0031
0100
1000
0200
0000
0301
2000
,  // measure 74
0000
3000
2002
3003
0000
0001
0001
0001
,  // measure 75
0200
0300
0001
1000
0002
0000
1003
0200
,  // measure 76
0000
0300
0110
0000
1001
0000
1000
0100
,  // measure 77
1000
0000
0001
1000
0001
0010
0100
1000
,  // measure 78
0002
0000
0000
0000
0103
0000
0010
0000
0100
0000
0000
0001
0000
0000
2002
0000
,  // measure 79
0000
0000
3003
1000
0100
1000
0001
1000
,  // measure 80
0200
0000
0310
0001
0011
0000
2100
0002
,  // measure 81
3003
1000
0010
1000
0200
0000
1300
0002
,  // measure 82
0000
0003
1001
0000
0001
0100
0010
0100
,  // measure 83
0002
0000
0013
0001
2000
0000
3100
2000
,  // measure 84
0000
0000
3002
0000
,  // measure 85
2000
0000
0000
0000
,  // measure 86
3003
0000
0000
0000
;
