#TITLE:Saltatio Favillae;
#SUBTITLE:;
#ARTIST:Yu-Peng Chen;
#TITLETRANSLIT:;
#SUBTITLETRANSLIT:;
#ARTISTTRANSLIT:;
#GENRE:;
#CREDIT:bpgbcg;
#BANNER:bn.png;
#BACKGROUND:bg.png;
#LYRICSPATH:;
#CDTITLE:;
#MUSIC:Saltatio Favillae.ogg;
#OFFSET:-0.089000;
#SAMPLESTART:38.542000;
#SAMPLELENGTH:21.215000;
#SELECTABLE:YES;
#BPMS:0.000000=181.000000
;
#STOPS:
;
#BGCHANGES:;
#KEYSOUNDS:;
#ATTACKS:;

//---------------dance-single - bpgbcg----------------
#NOTES:
     dance-single:
     bpgbcg:
     Beginner:
     6:
     0.183148,0.260580,0.000000,0.040064,0.000000,192.000000,192.000000,0.000000,6.000000,0.000000,0.000000,0.183148,0.260580,0.000000,0.040064,0.000000,192.000000,192.000000,0.000000,6.000000,0.000000,0.000000:
0000
0000
0000
0000
,
0000
0000
0000
0000
,
0000
0000
0000
0000
,
0000
0000
0000
0000
,
0000
0000
0000
0000
,
0001
0000
1000
0000
,
0000
0000
0000
0000
,
0001
0000
1000
0000
,
0000
0000
0000
0000
,
0001
0000
0000
0000
,
0010
0000
0001
0000
,
1000
0000
0001
0000
,
0000
0000
0000
0000
,
1000
0000
0001
0000
,
0000
0000
0000
0000
,
1000
0000
0001
0000
,
0000
0000
0000
0000
,
1000
0000
0000
0000
,
0010
0000
1000
0000
,
0001
0000
1000
0000
,
0000
0000
0000
0000
,
0010
0000
0000
0010
,
0000
0000
1000
0001
,
1000
0000
0000
1000
,
0000
0000
0001
0100
,
0001
0000
0000
0001
,
0000
0000
0010
0100
,
0010
0000
0000
0010
,
0000
0001
1000
0001
,
1000
0000
0010
0000
,
0000
0000
0000
0000
,
0010
0000
1000
0000
,
0000
0000
0000
0000
,
0001
0000
0010
0000
,
0000
0000
0000
0000
,
0100
0000
0000
0000
,
0100
0000
1000
0000
,
1000
0000
0100
0000
,
0010
0000
0001
0000
,
0100
0000
0001
0000
,
1000
0000
0010
0000
,
0100
0000
0000
0000
,
0001
0000
0010
0000
,
0010
0000
0000
0000
,
0100
0000
1000
0000
,
0001
0000
0000
0001
,
0000
0000
0001
1000
,
0001
0000
0000
0001
,
0000
0000
0100
0010
,
0100
0000
0000
0100
,
0000
0000
0010
1000
,
0010
0000
0000
0010
,
0000
0000
1000
0000
,
0100
0000
1000
0000
,
0001
0000
0010
0000
,
0100
0000
1000
0000
,
0010
0000
1000
0000
,
0001
0000
0100
0000
,
0010
0000
0100
0000
,
0001
0000
1000
0000
,
0100
0000
0010
0000
,
0100
0000
1000
0000
,
0001
0000
0010
0000
,
0100
0000
1000
0000
,
0100
0000
0010
0000
,
0001
0000
0100
0000
,
0010
0000
0100
0000
,
0010
0000
0100
0000
,
0001
1000
0001
1000
,
0001
0000
1000
0000
,
0001
0000
0010
0000
,
0100
0000
1000
0000
,
0010
0000
1000
0000
,
0010
0000
0100
0000
,
0001
0000
1000
0000
,
0001
0000
1000
0000
,
0100
0000
0010
0000
,
0100
0000
1000
0000
,
0001
0000
0010
0000
,
0100
0000
1000
0000
,
0010
0000
0100
0000
,
0001
0000
0100
0000
,
0010
0000
0100
0000
,
0001
0000
1000
0000
,
0010
0100
0010
0100
,
0010
0000
1000
0000
,
0001
0000
0010
0000
,
0100
0000
1000
0000
,
0010
0000
1000
0000
,
0001
0000
0100
0000
,
0010
0000
0100
0000
,
0001
0000
1000
0000
,
0100
0000
0010
0000
,
0100
0000
1000
0000
,
0001
0000
1000
0000
,
0010
0000
0100
0000
,
0010
0000
0100
0000
,
0001
0000
1000
0000
,
0010
0000
1000
0000
,
0001
0000
1000
0000
,
0001
0000
0010
0000
,
0200
0000
0300
0200
,
0000
0300
1000
0000
,
0002
0000
0003
0002
,
0000
0003
1000
0000
,
0020
0000
0030
0020
,
0000
0030
1000
0000
,
0001
0000
1000
0000
,
0001
1000
0100
0010
,
0001
0000
0010
0000
,
0000
0000
0000
0000
,
0100
0000
1000
0000
;

//---------------dance-single - bpgbcg----------------
#NOTES:
     dance-single:
     bpgbcg:
     Easy:
     9:
     0.298569,0.525834,0.206995,0.654372,0.013355,313.000000,282.000000,31.000000,98.000000,0.000000,0.000000,0.298569,0.525834,0.206995,0.654372,0.013355,313.000000,282.000000,31.000000,98.000000,0.000000,0.000000:
0000
0000
0000
0000
,
0000
0000
0000
0000
,
0000
0000
0000
0000
,
0000
0000
0000
0000
,
0000
0000
0000
0000
,
0002
0000
0020
0000
,
0000
0000
0033
0000
,
0200
0000
2000
0000
,
0000
0000
3300
0000
,
0002
0000
0000
0003
,
2000
3000
2000
3000
,
0020
0030
0200
0000
,
0000
0000
0300
0000
,
0002
0000
0200
0000
,
0000
0000
0303
0000
,
0020
0000
2000
0000
,
0000
0000
3030
0000
,
0002
0000
0000
0003
,
2000
3000
0200
0300
,
0020
0030
0200
0000
,
0000
0000
0000
0300
,
1001
0100
0010
1001
,
0010
0100
1001
0110
,
1001
0010
0100
1100
,
0010
0001
1001
0110
,
1001
0100
0010
1010
,
0100
0001
1001
0110
,
1001
0100
0010
0011
,
0100
1000
0010
0100
,
0002
1003
0020
0100
,
0000
0130
0001
1000
,
0020
0130
0002
0100
,
0003
0001
1000
0100
,
0020
0031
2000
0001
,
0000
3001
1000
0100
,
0020
0100
0000
0130
,
0020
0130
2000
3100
,
2000
3001
0200
0310
,
0020
0130
0002
0103
,
0200
0301
0020
0130
,
0200
0310
0002
0013
,
0022
0000
0000
0033
,
2002
3003
2020
3030
,
2020
0000
0000
3000
,
0200
0000
0000
0330
0000
0000
0100
0000
0001
0000
1000
0000
,
0002
0000
0000
2000
,
0000
3000
1000
0100
,
2003
0000
0000
0002
,
0000
0003
0001
0100
,
3002
0000
0000
0020
,
0000
0030
0010
1000
,
0020
0000
0033
0010
,
0001
1000
0010
0100
,
0020
0030
2000
3000
,
0002
0003
0020
0030
,
0200
0300
2000
3000
,
0020
0030
2000
3000
,
0002
0003
0200
0300
,
0020
0030
0200
0300
,
0002
0003
2000
3000
,
0200
0300
0020
0030
,
0200
0300
2000
3000
,
0002
0003
0020
0030
,
0200
0300
2000
3000
,
0200
0300
0020
0030
,
0002
0003
0200
0300
,
0020
0030
0200
0300
,
0020
0030
0200
0300
,
0001
1000
0100
0010
,
0001
0000
0000
1000
0000
0000
0010
0000
,
0000
1000
0000
0000
0100
0000
0010
0000
,
0001
0000
0000
1000
0000
0000
0100
0000
,
0000
1000
0000
0000
0010
0000
0100
0000
,
0001
0000
0000
1000
0000
0000
0010
0000
,
0000
1000
0000
0000
0100
0000
0010
0000
,
0001
0000
0000
0001
0000
0000
0100
0000
,
0000
0001
0000
0000
0010
0000
0100
0000
,
1000
0000
0000
1000
0000
0000
0010
0000
,
0000
0010
0000
0000
0100
0000
0010
0000
,
1000
0000
0000
1000
0000
0000
0100
0000
,
0000
0100
0000
0000
0010
0000
0100
0000
,
1000
0000
0000
0001
0000
0000
0100
0000
,
0000
0100
0000
0000
0010
0000
0100
0000
,
0001
0000
0000
0001
0000
0000
0010
0000
,
0100
1000
0010
0100
,
0001
0000
1010
0000
,
0001
0100
0010
1000
,
1001
0000
0010
0000
,
0110
0000
0010
1000
,
1001
0000
0010
0000
,
1000
0100
0010
0001
,
0110
0000
1000
0000
,
0001
0010
0100
1000
,
0001
0001
1000
0100
,
0010
0010
0100
1000
,
0001
0001
0100
0010
,
0100
0100
0001
1000
,
0010
0010
0100
0010
,
1000
0100
0010
0001
,
1000
0010
0100
0001
,
1000
0000
0000
0001
0000
0000
0010
0000
0001
0000
1000
0000
,
2002
0000
3000
2000
,
0000
3000
1003
0110
,
2002
0000
0003
0002
,
0000
0003
3001
0110
,
2002
0000
3000
2000
,
0000
3000
1003
1010
,
0202
0000
0303
0202
,
0303
0000
1000
0000
0010
1000
0010
1000
,
0002
0000
0020
0000
,
0000
0000
0033
0000
,
0200
0000
2000
0000
,
0000
0000
3300
0000
;

//---------------dance-single - bpgbcg----------------
#NOTES:
     dance-single:
     bpgbcg:
     Medium:
     13:
     0.440699,0.638513,0.200318,0.801271,0.023370,462.000000,432.000000,30.000000,120.000000,0.000000,1.000000,0.440699,0.638513,0.200318,0.801271,0.023370,462.000000,432.000000,30.000000,120.000000,0.000000,1.000000:
0000
0000
0000
0000
,
0000
0000
0000
0000
,
0000
0000
0000
0000
,
0000
0000
0000
0000
,
0000
0000
0000
0000
,
0002
0000
0023
0000
,
0000
0000
0000
0000
,
0230
0000
2300
0000
,
0000
0000
0000
0000
,
3002
0000
0000
0000
,
2003
0000
3020
0000
,
0032
0000
0023
0000
,
0000
0000
0000
0000
,
2030
0000
3020
0000
,
0000
0000
0000
0000
,
0230
0000
0302
0000
,
0000
0000
0000
0000
,
2003
0000
0000
0000
,
3002
0000
0023
0000
,
2030
0000
3020
0000
,
0000
0000
0000
0000
,
0031
0000
1000
0010
0100
0001
1000
0000
,
0001
0010
0100
1000
0001
0000
1000
0000
,
0001
0000
0100
0010
0100
0010
1000
0000
,
0100
0010
0100
0010
0001
0000
1000
0000
,
0001
0000
0100
0001
0100
0001
1000
0000
,
0100
1000
0100
0010
0001
0000
0010
0000
,
0001
0000
0100
0010
0100
0001
1000
0000
,
0100
0010
0100
0000
0010
0000
0001
0000
,
0020
0030
0001
1000
0200
0300
1000
0010
,
0100
0010
1000
0001
1000
0100
0010
0001
,
0200
0300
0001
1000
0020
0030
1000
0100
,
0010
0100
1000
0001
1000
0010
0100
0000
,
0002
0003
0100
0001
0020
0030
0100
1000
,
0001
0100
0010
0100
0001
1000
0001
0010
,
0200
0300
0010
0100
1000
0001
0100
0010
,
0200
0300
0001
0100
2000
3000
0100
0001
,
2000
3000
0100
0010
0200
0300
0010
0001
,
0200
0300
0010
1000
0020
0030
1000
0001
,
0200
0300
0010
1000
0020
0030
0100
0001
,
2000
3000
0001
0010
0200
0300
0010
0100
,
0002
0003
0100
1000
0010
0100
0001
1000
,
0020
0030
0100
0001
0200
0300
0001
1000
,
0200
0300
0010
0100
1000
0001
0100
0001
,
2000
0000
0000
3001
0000
0000
0010
0000
0001
0000
1000
0000
,
0220
0000
0300
0200
,
0000
0300
0100
1030
,
0022
0000
0030
0020
,
0000
0030
0010
1003
,
2020
0000
0030
0020
,
0000
0030
0010
3100
,
1001
0010
0100
1001
,
1000
0100
0010
0100
0001
0100
1000
0001
,
2020
0030
0200
0300
,
0002
0003
0020
3030
,
0022
0030
0200
0300
,
2000
3000
0200
0303
,
0022
0003
0200
0300
,
2000
3000
0200
0330
,
0220
0030
2000
3000
,
0020
0030
0002
0303
,
0022
0030
0200
0003
,
0020
0300
2000
3030
,
0022
0030
2000
3003
,
0220
0030
0002
0303
,
0022
0000
0003
0000
0000
0000
0200
0000
0000
0300
0000
0000
,
2000
3000
0200
0330
,
2200
0300
0002
3003
,
1000
0100
0010
0001
,
1000
1000
0000
0001
0001
0000
0010
0010
,
0000
0001
0001
0000
1000
0010
0100
0001
,
1000
1000
0000
0001
0001
0000
0100
0100
,
0000
0001
0001
0000
1000
1000
0100
0010
,
0001
0001
0000
1000
1000
0000
0010
0010
,
0000
1000
1000
0000
0001
0010
0100
1000
,
0001
0001
0000
1000
1000
0000
0100
0100
,
0000
1000
1000
0000
0001
0100
0010
1000
,
0001
0001
0000
1000
1000
0000
0100
0100
,
0000
0000
0000
1000
0000
0000
1000
0000
0000
0000
0000
0000
0001
0000
0000
0000
0000
0000
1000
0000
0010
0000
1000
0000
,
0001
0001
0000
1000
1000
0000
0010
0010
,
0000
1000
1000
0000
0001
0001
0010
0100
,
1000
1000
0000
0001
0001
0000
0100
0100
,
0000
0001
0001
0000
1000
0010
0100
0001
,
1000
1000
0000
0001
0001
0000
0010
0000
,
0001
1000
0100
0010
,
0001
0000
2020
0030
,
3002
0100
0123
0031
,
2020
0030
0200
3300
,
2200
3000
0310
0100
,
2002
0003
0020
3030
,
0200
0310
0210
0301
,
2020
0030
0002
3003
,
0001
0010
0100
1000
0001
0100
0010
1000
,
0100
0100
1000
0001
1000
1000
0010
0100
,
0001
0001
1000
0001
0010
0010
0100
1000
,
0100
0100
1000
0010
1000
1000
0100
1000
,
0010
0010
1000
0001
0100
0100
0010
1000
,
0100
0100
0010
0001
1000
1000
0010
0100
,
0010
0010
0100
0001
1000
1000
0001
0100
,
0010
0010
1000
0001
0100
0100
0010
0100
,
0001
0000
0000
0001
0000
0000
0010
0000
0000
0001
0000
0000
0010
0000
0000
0000
0001
0000
0000
0000
1000
0000
0000
0000
,
2200
0000
3000
2000
,
0000
3000
1300
0110
,
2002
0000
0003
0002
,
0000
0003
3001
0110
,
0202
0000
0300
0200
,
0000
0300
0103
1010
,
0022
0000
0033
0011
,
0000
0000
1001
0000
0001
1000
0010
0100
,
0002
0000
0020
0000
,
0000
0000
0033
0000
,
0200
0000
2000
0000
,
0000
0000
3300
0000
;

//---------------dance-single - bpgbcg----------------
#NOTES:
     dance-single:
     bpgbcg:
     Hard:
     15:
     0.559936,0.826311,0.474086,0.654372,0.136884,587.000000,516.000000,71.000000,98.000000,0.000000,1.000000,0.559936,0.826311,0.474086,0.654372,0.136884,587.000000,516.000000,71.000000,98.000000,0.000000,1.000000:
0000
0000
0000
0000
,
0000
0000
0000
0000
,
0000
0000
0000
0000
,
0000
0000
0000
0000
,
0000
0000
0000
0000
,
0002
0000
0023
0000
,
0000
0000
0000
0000
,
0230
0000
2300
0000
,
0000
0000
0000
0000
,
3002
0000
0000
0000
,
2003
0000
3020
0000
,
0032
0000
0023
0000
,
0000
0000
0000
0000
,
2030
0000
3020
0000
,
0000
0000
0000
0000
,
0230
0000
0302
0000
,
0000
0000
0000
0000
,
2003
0000
0000
0000
,
3002
0000
0023
0000
,
2030
0000
3020
0000
,
0000
0000
0000
0000
,
0031
1000
0100
0010
0100
1000
1100
1000
,
0010
0100
0001
0100
0101
0100
0110
0010
,
1010
1000
0010
0100
0010
1000
1010
1000
,
0100
0010
0001
0010
0011
0010
0110
0100
,
1100
0001
0100
0010
0100
0001
0101
0001
,
0010
0100
1000
0100
1100
0100
0110
0010
,
0011
0001
0010
0100
0010
0001
0011
0001
,
0100
0010
1000
0010
0100
0010
1000
0100
,
0010
0010
0001
1000
0010
0010
1000
0001
,
0100
0000
0100
0000
0001
0000
1000
0000
0100
0000
0100
0000
0010
0001
0010
0001
,
1000
1000
0001
1000
0100
0100
1000
0001
,
0010
0000
0010
0000
0001
0000
1000
0000
0010
0000
0010
0000
0100
0001
0100
0001
,
0100
0010
1000
0001
0010
0010
0100
1000
,
0010
0000
0010
0000
0100
0000
0001
0000
0100
0000
0100
0000
0010
0100
0010
0100
,
0010
0010
1000
0001
0010
0010
0001
0100
,
0010
0000
0010
0000
0100
0000
0001
0000
1000
0000
1000
0000
0100
0010
0100
0010
,
0001
0001
1000
0010
0001
0001
0010
1000
,
0001
0000
0001
0000
0010
0000
1000
0000
0010
0000
0010
0000
0001
1000
0001
1000
,
0001
0001
1000
0100
0001
0001
0100
1000
,
0001
0000
0001
0000
0100
0000
1000
0000
0100
0000
0100
0000
0001
1000
0001
1000
,
0100
0100
0010
1000
0010
0010
0100
1000
,
0010
0000
0010
0000
0100
0000
1000
0000
0100
0000
0100
0000
0010
1000
0010
1000
,
0001
0001
0010
0001
1000
1000
0010
1000
,
0100
0000
0000
0100
0000
0000
0010
0000
0000
0001
0000
0000
1001
0000
0000
0000
0011
0000
0000
0000
1010
0000
0000
0000
,
0220
0000
0300
0200
,
0000
0300
0100
1030
,
0022
0000
0030
0020
,
0000
0030
0010
1003
,
2020
0000
0030
0020
,
0000
0030
0010
3100
,
1001
0010
0100
1001
,
1000
0100
0010
0100
0001
0100
1000
0001
,
2020
0030
0200
0300
,
0002
0003
0020
3030
,
0022
0030
0200
0300
,
2000
3000
0200
0303
,
0022
0003
0200
0300
,
2000
3000
0200
0330
,
0220
0030
2000
3000
,
0020
0030
0002
0303
,
0022
0030
0200
0003
,
0020
0300
2000
3030
,
0022
0030
2000
3003
,
0220
0030
0002
0303
,
0022
0000
0003
0000
0000
0000
0200
0000
0000
0300
0000
0000
,
2000
3000
0200
0330
,
2200
0300
0002
3003
,
1000
0100
0010
0001
,
1000
1000
0000
0001
0001
0000
0010
0010
,
0000
0001
0001
0000
1000
0010
0100
0001
,
1000
1000
0000
0001
0001
0000
0100
0100
,
0000
0001
0001
0000
1000
1000
0100
0010
,
0001
0001
0000
1000
1000
0000
0010
0010
,
0000
1000
1000
0000
0001
0010
0100
1000
,
0001
0001
0000
1000
1000
0000
0100
0100
,
0000
1000
1000
0000
0001
0100
0010
1000
,
1010
1010
0000
0101
0101
0000
0011
0011
,
0000
0000
0000
1010
0000
0000
1010
0000
0000
0000
0000
0000
0100
0000
0000
1000
0000
0000
0001
0000
0010
0000
0001
0000
,
1000
1000
0000
1001
1001
0000
1010
1010
,
0000
0101
0101
0000
1000
0100
0010
0001
,
0011
0011
0000
1010
1010
0000
1100
1100
,
0000
0101
0101
0000
1000
0001
0100
0010
,
0110
0110
0000
1001
1001
0000
1001
0000
,
2000
3200
0320
0032
,
0203
0300
2020
0030
,
3002
0100
0123
0031
,
2020
0030
0200
3300
,
2200
0000
3000
0000
0310
0000
0100
0010
,
2002
0003
0020
0030
,
3200
0310
0210
0301
,
2020
0030
0002
3003
,
0001
0010
0100
1000
0001
0100
0010
1000
,
0010
0010
1000
0001
0010
0010
0001
1000
,
0100
0000
0100
0000
1000
0000
0001
0000
0100
0000
0100
0000
0010
1000
0010
1000
,
0001
0001
1000
0001
0100
0100
0001
1000
,
0010
0000
0010
0000
1000
0000
0001
0000
0010
0000
0010
0000
0100
1000
0100
1000
,
0100
0100
0010
1000
0010
0010
0100
1000
,
0010
0000
0010
0000
0100
0000
1000
0000
0100
0000
0100
0000
0010
0100
0010
0100
,
0010
0010
0100
1000
0100
0100
0010
1000
,
0100
0000
0000
0100
0000
0000
0010
0000
0000
0001
0000
0000
1001
0000
0000
0000
0011
0000
0000
0000
1100
0000
0000
0000
,
2002
0000
3000
2000
,
0000
3000
1003
0110
,
2002
0000
0003
0002
,
0000
0003
3001
0110
,
0001
0000
1000
0010
0000
0100
0010
0000
1000
0100
0000
1000
,
0100
0000
0010
0001
0000
1000
0010
0000
0100
1000
0000
0100
,
0001
0000
0010
0100
0000
1000
0100
0000
0010
0001
0000
0100
,
0010
0000
0000
0000
1000
0000
0010
0000
0000
0000
0100
0000
0010
0000
0000
1000
0000
0000
0100
0000
0000
0010
0000
0000
,
0002
0000
0200
0000
,
0000
0000
0303
0000
,
0020
0000
2000
0000
,
0000
0000
3030
0000
;

//---------------dance-single - bpgbcg----------------
#NOTES:
     dance-single:
     bpgbcg:
     Challenge:
     17:
     0.759300,0.938990,0.500795,0.534181,0.848012,796.000000,721.000000,75.000000,80.000000,0.000000,1.000000,0.759300,0.938990,0.500795,0.534181,0.848012,796.000000,721.000000,75.000000,80.000000,0.000000,1.000000:
// measure 0
0000
0000
0000
0000
,  // measure 1
0000
0000
0000
0000
,  // measure 2
0000
0000
0000
0000
,  // measure 3
0000
0000
0000
0000
,  // measure 4
0000
0000
0000
0000
,  // measure 5
0002
0000
0023
0000
,  // measure 6
0000
0000
0000
0000
,  // measure 7
0230
0000
2300
0000
,  // measure 8
0000
0000
0000
0000
,  // measure 9
3002
0000
0000
0000
,  // measure 10
2003
0000
3020
0000
,  // measure 11
0032
0000
0023
0000
,  // measure 12
0000
0000
0000
0000
,  // measure 13
1030
0000
0000
1000
0100
0010
0001
0000
0000
0001
0100
0010
,  // measure 14
1000
0000
0000
1000
0100
0010
0001
0010
0001
1000
0010
1000
,  // measure 15
0001
0000
0000
0001
0010
0100
1000
0000
0000
1000
0010
0100
,  // measure 16
0001
0000
0000
0001
0010
0100
1000
0100
1000
0001
0100
0001
,  // measure 17
1000
0000
0000
1000
0010
0100
0001
0000
0000
0001
0010
0100
,  // measure 18
1000
0000
0000
1000
0010
0100
0001
0100
0001
1000
0100
1000
,  // measure 19
0001
0000
0000
0001
0100
0010
1000
0000
0000
1000
0100
0010
,  // measure 20
0001
0000
0000
0000
0000
0000
0000
0000
0000
0000
0000
0000
0001
0000
0000
0000
0100
0000
0000
0000
0010
0000
0000
0000
1000
0000
0000
0010
0000
0000
1000
0000
0000
0010
0000
0000
0100
0000
0000
0001
0000
0000
0100
0000
0000
0001
0000
0000
,  // measure 21
1000
0000
0000
1001
,  // measure 22
0000
0000
1001
0110
,  // measure 23
1001
0000
0000
1000
0100
0010
0100
0010
0001
0010
0001
0100
,  // measure 24
0001
0100
0010
1000
0010
0100
0001
1000
0100
0010
0100
1000
,  // measure 25
0001
1000
0010
1000
0010
0100
0010
0100
0001
0100
0001
0010
,  // measure 26
0001
0010
0100
1000
0100
0010
0001
1000
0010
0001
0010
1000
,  // measure 27
0001
0010
0100
1000
0010
1000
0001
0100
0010
0001
0010
0100
,  // measure 28
0001
0010
0100
1000
0000
0000
0100
0000
0000
0010
0000
0000
,  // measure 29
0011
0010
0001
0100
0010
0010
1000
0100
,  // measure 30
0010
0000
0010
0000
0100
0000
0010
0100
1000
0000
1000
0000
0001
0010
0001
0010
,  // measure 31
0100
0000
0100
1000
0001
0000
0100
0000
0010
0000
0010
0000
0100
0000
0010
0000
,  // measure 32
1000
0000
1000
0100
0010
0000
0100
0010
0001
0000
0001
0000
1000
0100
1000
0100
,  // measure 33
0010
0000
0010
0001
1000
0000
0010
0100
0010
0000
0010
0000
1000
0100
0010
0001
,  // measure 34
1000
0000
0001
0010
0100
0000
0010
0100
1000
0000
1000
0000
0001
0010
0001
0010
,  // measure 35
0100
0000
0100
1000
0001
0000
0001
0100
0010
0000
0010
0000
1000
0100
0010
0000
,  // measure 36
0001
0000
0001
0000
1000
0000
0010
0100
0001
0000
0001
0000
1000
0010
1000
0010
,  // measure 37
0100
0000
0100
0001
1000
0000
0100
0010
0100
0000
0100
0000
1000
0010
0100
0000
,  // measure 38
0001
0000
1000
0010
0100
0000
0010
0100
0001
0000
0001
0000
1000
0010
1000
0010
,  // measure 39
0100
0000
0100
0001
1000
0000
1000
0100
0010
0000
0010
0000
0001
0100
0010
0000
,  // measure 40
1000
0000
1000
0100
1000
0000
0001
0100
0001
0000
0001
0000
1000
0100
1000
0100
,  // measure 41
0010
0000
0010
0001
1000
0000
0010
0100
0010
0000
0010
0000
1000
0100
0010
0001
,  // measure 42
1000
0000
0001
0010
0100
0000
0010
0100
1000
0000
1000
0000
0001
0010
0001
0010
,  // measure 43
0100
0000
0100
1000
0001
0000
0001
0100
0010
0000
0010
0000
1000
0100
0010
0000
,  // measure 44
0001
0000
0000
0001
0000
0000
1000
0000
0000
0010
0000
0000
0110
0000
0000
0000
0101
0000
0000
0000
1100
0000
0000
0000
,  // measure 45
2002
0000
0003
0002
,  // measure 46
0000
0000
0000
0000
0000
0000
0003
0000
0000
0000
0000
0000
0001
0000
0000
0000
0000
0000
0100
0000
0000
0000
0000
3000
,  // measure 47
0001
1000
0010
0100
0010
1000
0100
1000
0001
0010
0001
0100
,  // measure 48
0010
0100
0001
1000
0100
0010
0100
0010
0001
1000
0001
0010
,  // measure 49
0100
1000
0100
0010
0100
1000
0010
1000
0001
0100
0001
0010
,  // measure 50
0100
0010
0001
1000
0010
0100
0010
0100
0010
0001
0010
0100
,  // measure 51
0001
0010
0100
1000
0010
0100
0001
0100
0010
0001
0010
0100
,  // measure 52
0001
0010
0100
1000
0001
0100
0010
1000
0100
1000
0000
0000
,  // measure 53
2020
0030
0200
0300
,  // measure 54
0002
0003
0020
3030
,  // measure 55
0022
0030
0200
0300
,  // measure 56
2000
3000
0200
0303
,  // measure 57
0022
0003
0200
0300
,  // measure 58
2000
3000
0200
0330
,  // measure 59
0220
0030
2000
3000
,  // measure 60
0020
0030
0002
0303
,  // measure 61
0022
0030
0200
0003
,  // measure 62
0020
0300
2000
3030
,  // measure 63
0022
0030
2000
3003
,  // measure 64
0220
0030
0002
0303
,  // measure 65
0022
0000
0003
0000
0000
0000
0200
0000
0000
0300
0000
0000
,  // measure 66
2000
3000
0200
0330
,  // measure 67
2200
0300
0002
3003
,  // measure 68
1000
0100
0010
0001
,  // measure 69
1010
1010
0000
0011
0011
0000
0101
0101
,  // measure 70
0000
0000
1100
0000
1100
0000
0000
0000
0001
0000
1000
0000
0010
0100
0010
0100
,  // measure 71
0010
0010
0000
1001
1001
0000
1100
1100
,  // measure 72
0000
0000
0011
0000
0011
0000
0000
0000
1000
0000
0010
0000
0100
0001
0100
0001
,  // measure 73
0100
0100
0000
1100
1100
0000
1010
1010
,  // measure 74
0000
0000
0011
0000
0011
0000
0000
0000
1000
0000
0001
0000
0100
0010
0100
0010
,  // measure 75
0100
0100
0000
1001
1001
0000
0011
0011
,  // measure 76
0000
0000
1100
0000
1100
0000
0000
0000
0001
0000
0100
0000
0010
1000
0010
1000
,  // measure 77
0010
0010
0000
0101
0101
0000
1001
0000
,  // measure 78
0000
0000
0000
1000
0000
0000
0100
0000
0000
0000
0000
0000
0010
0000
0000
0001
0000
0000
0100
0000
0010
0000
0100
0000
,  // measure 79
0010
0010
0000
1001
1001
0000
1100
1100
,  // measure 80
0000
0011
0011
0000
1000
0000
0001
0001
,  // measure 81
0101
0101
0000
1100
1100
0000
1010
1010
,  // measure 82
0000
0000
0011
0000
0011
0000
0000
0000
1000
0000
0001
0000
0100
0010
0100
0010
,  // measure 83
0100
0100
0000
1001
1001
0000
0011
0000
,  // measure 84
2000
3200
0320
0032
,  // measure 85
0203
0300
2020
0030
,  // measure 86
3002
0100
0123
0031
,  // measure 87
2020
0030
0200
3300
,  // measure 88
2200
0000
3000
0000
0310
0000
0100
0010
,  // measure 89
2002
0003
0020
0030
,  // measure 90
3200
0310
0210
0301
,  // measure 91
2020
0030
0002
3003
,  // measure 92
0001
0010
0100
1000
0001
0100
0010
1000
,  // measure 93
0001
0000
0001
0000
1000
0000
0100
1000
0001
0000
0001
0000
0100
0010
0100
0000
,  // measure 94
0001
0000
0001
0000
1000
0000
0010
1000
0001
0000
0001
0000
0010
0100
0010
0100
,  // measure 95
1000
0000
1000
0000
0001
0000
0010
0001
1000
0000
1000
0000
0010
0100
0010
0000
,  // measure 96
1000
0000
1000
0000
0001
0000
0100
0001
1000
0000
1000
0000
0100
0010
0100
0010
,  // measure 97
0001
0000
0001
0000
0100
0000
0010
0100
1000
0000
1000
0000
0100
0010
0100
0000
,  // measure 98
0001
0000
0001
0000
0010
0000
0100
0010
1000
0000
1000
0000
0010
0100
0010
0100
,  // measure 99
1000
0000
1000
0000
0010
0000
0100
0010
0001
0000
0001
0000
0010
0100
0010
0000
,  // measure 100
1000
0000
0000
1000
0000
0000
0100
0000
0000
0010
0000
0000
0110
0000
0000
0000
0011
0000
0000
0000
1100
0000
0000
0000
,  // measure 101
2020
0000
3000
2000
,  // measure 102
0000
3000
1000
0130
,  // measure 103
1000
0000
0000
1000
0010
0100
0010
0100
0001
0100
0001
0010
,  // measure 104
0001
0010
0100
1000
0100
0010
0001
1000
0010
0100
0010
1000
,  // measure 105
0001
1000
0100
1000
0100
0010
0100
0010
0001
0010
0001
0100
,  // measure 106
0001
0100
0010
1000
0010
0100
0001
1000
0100
0001
0100
1000
,  // measure 107
0001
0100
0010
1000
0100
1000
0001
0010
0100
0001
0100
0010
,  // measure 108
0001
0100
0010
1000
0001
0010
0100
1000
0001
0010
0100
1000
,  // measure 109
0002
0000
0020
0000
,  // measure 110
0000
0000
0000
0033
,  // measure 111
0200
0000
2000
0000
,  // measure 112
0000
0000
3300
0000
;
