#VERSION:0.83;
#TITLE:SUPER SEX DELIVERY 2 - ENTER THE CUM ZONE;
#SUBTITLE:;
#ARTIST:ReeK;
#TITLETRANSLIT:;
#SUBTITLETRANSLIT:;
#ARTISTTRANSLIT:;
#GENRE:;
#CREDIT:;
#MUSIC:SUPER SEX DELIVERY 2 - ENTER THE CUM ZONE.ogg;
#BANNER:SUPER SEX DELIVERY 2 - ENTER THE CUM ZONE.png;
#BACKGROUND:SUPER SEX DELIVERY 2 - ENTER THE CUM ZONE-bg.png;
#CDTITLE:;
#SAMPLESTART:75.003;
#SAMPLELENGTH:15.000;
#SELECTABLE:YES;
#OFFSET:1.597;
#BPMS:0.000=150.000;
#STOPS:;
#BGCHANGES:;
#FGCHANGES:;

//--------------- dance-single - chronon ----------------
#NOTEDATA:;
#STEPSTYPE:dance-single;
#DESCRIPTION:chronon;
#DIFFICULTY:Beginner;
#METER:4;
#RADARVALUES:0,0,0,0,0;
#NOTES:
0000
0000
0000
0000
,
0000
0000
0000
0000
,
0000
0000
0000
0000
,
0000
0000
0000
0000
,
0000
0000
0000
0000
,
1001
0000
0001
0000
,
0010
0010
0010
0100
,
1000
0000
0001
0000
,
0200
0000
0000
1300
,
0100
0000
0010
1000
,
0100
0000
0010
0001
,
0100
0000
0010
1000
,
0100
0000
0010
0000
,
0100
0000
1000
0010
,
0001
0000
1000
0100
,
0001
0000
0010
0100
,
1000
0000
0001
0000
,
1001
0000
1000
0000
,
0010
0000
0100
0001
,
1000
0000
1000
0000
,
1000
0100
0010
0010
,
0001
0000
0001
0000
,
0100
0000
0010
1000
,
0001
0000
0010
0000
,
2002
0000
3003
0000
,
1001
0000
1001
0000
,
1001
0000
1001
0100
,
1001
0000
1001
0000
,
1001
0000
1001
0010
,
1001
0000
1001
0000
,
1001
0000
1001
0100
,
2002
0000
0000
3003
,
1000
0000
0100
0000
,
0010
0010
0010
0000
,
0001
0000
0100
0000
,
0010
0010
0010
0000
,
1000
0000
0100
0000
,
1000
0000
0010
0000
,
2002
0000
0000
0000
,
3003
0000
0000
0000
,
1001
0000
0000
0000
,
1000
0000
0100
0000
,
0010
0000
0001
0000
,
1000
0000
0001
0000
,
1000
0000
0010
0000
,
0100
0000
0001
0000
,
1000
0000
0001
0000
,
2001
0000
3100
0000
,
1000
0000
0100
0000
,
0010
0001
1000
0000
,
0001
0000
0100
0000
,
0010
1000
0001
0000
,
1000
0000
0100
0000
,
0010
0100
1000
0010
,
0200
0000
0000
0000
,
0310
0000
0100
0000
,
0220
0000
0000
0000
,
0000
0000
0330
0000
,
0010
0000
1000
0000
,
0100
0010
0001
0000
,
1000
0000
0010
0000
,
0001
0000
0010
0000
,
1000
0001
2000
3000
,
0001
1000
0002
0003
,
2002
0000
0000
0000
,
3003
0000
1000
0000
,
0100
0000
1000
0001
,
0100
0000
0001
1000
,
0100
0000
0010
0010
,
0010
0000
0100
0100
,
0100
0000
1000
0000
,
0001
0100
0010
0000
,
1000
0000
0001
0000
,
1002
0000
0000
0103
,
0002
0000
0000
0000
,
0000
0000
0000
0000
,
0000
0000
0000
0000
,
0000
0000
0000
0000
,
0000
0000
0000
0000
,
0000
0000
0000
0000
,
0000
0000
0000
0000
,
0000
0000
0000
0003
,
2002
0000
0000
0000
,
0000
0000
0000
0000
,
0000
0000
0000
0000
,
0000
0000
0000
0000
0000
0000
0000
0000
0000
0003
0000
0000
0000
0000
0000
0000
,
0000
0000
0000
0000
,
0000
0000
3000
0000
;

//--------------- dance-single - chronon ----------------
#NOTEDATA:;
#STEPSTYPE:dance-single;
#DESCRIPTION:chronon;
#DIFFICULTY:Easy;
#METER:8;
#RADARVALUES:0,0,0,0,0;
#NOTES:
0000
0000
0000
0000
,
0000
0000
0000
0000
,
0000
0000
0000
0000
,
0000
0000
0000
0000
,
0000
0000
0000
0000
,
1001
0000
0000
0000
1000
0000
0000
0010
0000
0000
0000
0000
0100
0000
0000
0000
,
0001
1000
0001
0000
0010
0000
0100
0000
,
0110
0000
0000
0000
0000
0000
0010
0000
0000
0000
0001
0000
0000
1000
0000
0000
,
0020
0000
0000
0001
,
1030
0000
0000
0000
0001
0000
0000
0000
0100
0000
0000
0001
0000
0000
0010
0000
,
0001
0000
0000
0000
1000
0000
0000
0000
0100
0000
0000
1000
0000
0000
0010
0000
,
1000
0000
0000
0000
0001
0000
0000
0000
0100
0000
0000
0001
0000
0000
0010
0000
,
0100
1000
0010
1000
,
0001
0000
0000
0000
0100
0000
0000
0000
0001
0000
0000
0100
0000
0000
1000
0000
,
0100
0000
0000
0000
0001
0000
0000
0000
1000
0000
0000
0100
0000
0000
0001
0000
,
0100
0000
0000
0000
1000
0000
0000
0000
0001
0000
0000
0100
0000
0000
0010
0000
,
0100
0000
0001
0000
1000
0100
0020
0000
,
0031
0010
0100
0000
1000
0010
0100
0000
,
1000
0000
0100
0000
0001
1000
0001
0000
,
0012
1003
0102
1003
,
0011
0010
0100
0000
0010
0000
1000
0010
,
0001
1000
0010
0000
1000
0001
0100
0000
,
1000
0000
0100
0000
0001
1000
0001
0000
,
0011
0000
0000
0010
0000
0000
0000
0000
0110
0000
0000
0100
0000
0000
0000
0000
,
2002
0000
3003
0000
,
1010
0010
0110
0100
,
0101
0001
0021
1030
,
0011
0010
0110
0100
,
1100
1000
1020
0031
,
1010
0010
0110
1001
,
1100
0100
0120
1030
,
0220
0000
0000
0330
,
1002
0103
0010
1000
,
0010
1000
0100
0000
0010
0000
0001
0000
,
2001
0000
3010
0100
0001
0000
1000
0000
,
0100
0010
0110
0000
,
1100
0000
0101
0000
,
1010
0000
0011
0000
,
2002
0000
0000
3003
,
1000
0010
0100
0001
,
1001
0000
1000
0000
,
0100
0100
0100
0000
,
0010
0000
0001
0000
,
1000
1000
1000
0000
,
0001
0000
0100
0000
,
0010
0010
0010
0000
,
1000
0000
0001
0000
,
1001
0000
1000
0000
1100
0100
0020
0000
,
0031
1000
0001
0000
0100
0010
0100
0000
,
1000
0100
0010
1000
,
0001
1000
0001
0000
0010
0100
0010
0000
,
1000
0010
0001
1000
,
0010
0100
0010
0000
1000
0001
1000
0000
,
0100
0010
0100
0000
1000
0100
0010
0001
,
2000
0000
0001
0000
0000
0001
0000
0000
0001
0000
0000
3001
0000
0000
0000
0000
,
0100
0000
0010
0000
0100
0001
0010
0000
,
0220
0000
0000
0000
,
0000
0000
0330
0000
,
0100
1000
0010
0000
0210
0000
1300
0000
,
0100
0010
1000
0000
0001
0010
0100
0000
,
0010
0001
1000
0000
1000
0010
0100
0000
,
1000
0100
0010
1000
,
0001
0010
0100
0000
0010
0001
0100
0000
,
0001
0100
0010
0000
0100
0001
0010
0000
,
2002
0000
0000
3003
,
1000
0010
0100
0001
,
1000
0000
0100
0000
0010
0100
0010
0000
,
0001
0000
0100
0000
0010
0100
0010
0000
,
1000
0000
0001
0000
1000
0010
0100
0000
,
0001
0000
1000
0000
0001
0010
0100
0000
,
1000
0000
0010
0000
0100
0010
1000
0000
,
0001
0000
0010
0000
0100
0010
0001
0000
,
1001
0110
1001
0110
,
2001
0000
0000
0000
0100
0000
0000
0100
0000
0000
3100
0000
0001
0000
0100
0000
,
2000
0000
0000
0000
,
0000
0000
0000
0000
,
3002
0000
0000
0000
,
0000
0000
0000
0000
,
2003
0000
0000
0000
,
0000
0000
0000
0000
,
0000
0000
0000
0000
,
0000
0000
0000
3000
,
2002
0000
0000
0000
,
0000
0000
0000
0000
,
0000
0000
0000
0000
,
0000
0000
0000
0000
3003
0000
0000
0000
0000
0220
0000
0000
0000
0000
0000
0000
,
0000
0000
0000
0000
,
0000
0000
0330
0000
;

//--------------- dance-single - chronon ----------------
#NOTEDATA:;
#STEPSTYPE:dance-single;
#DESCRIPTION:chronon;
#DIFFICULTY:Medium;
#METER:13;
#RADARVALUES:0,0,0,0,0;
#NOTES:
0000
0000
0000
0000
,
0000
0000
0000
0000
,
0000
0000
0000
0000
,
0000
0000
0000
0000
,
0000
0000
0000
0000
,
1001
0000
0000
0000
0001
0000
0000
0010
0000
0000
0010
0000
0100
0000
0000
0000
,
1000
0000
0001
0000
1000
0000
0000
0001
0000
0100
0000
0000
0011
0000
0000
0000
,
1001
0000
0000
0000
1000
0000
0100
0000
0000
0000
0010
0000
0000
0100
0000
0000
,
1000
0000
0001
1000
0000
0001
0100
0000
0010
0000
0100
0000
1000
0000
0100
0000
,
0001
0000
0010
0100
0010
0000
0100
0000
1000
0000
0100
1000
0000
0000
0010
0000
,
1000
0000
0010
0100
0010
0000
0100
0000
0001
0000
0100
0001
0000
0000
0010
0000
,
0001
0000
0010
0100
0010
0000
0100
0000
1000
0000
0100
1000
0000
0000
0010
0000
,
1000
0010
0100
0100
0001
0010
0100
1000
,
0100
0000
0010
0001
0010
0000
0100
0000
1000
0000
0010
0100
0000
0000
1000
0000
,
0100
0000
0001
0100
0001
0000
0100
0000
0010
0000
1000
0100
0000
0000
0001
0000
,
0100
0000
0010
0100
0010
0000
0100
0000
1000
0000
0010
0100
0000
0000
0001
0000
,
1000
0010
0100
0010
0110
0100
0001
1000
,
0001
0010
0100
0001
0100
1000
0010
0001
,
1000
0100
0010
0100
0001
0010
0100
1000
,
1100
0000
0000
1000
0001
0000
0100
0000
0101
0000
0000
0001
1000
0000
0100
0000
,
1100
0000
1000
0000
0001
0100
0000
0000
0020
0000
0000
0000
1030
0000
0100
0000
,
0010
0000
1000
0000
0010
0000
0100
0000
0001
0000
0100
0000
1000
0000
0000
0010
,
0000
0001
0010
0100
0001
1000
0001
0010
,
0011
0000
0000
0001
0000
0100
0000
0000
1010
0000
0000
1000
0000
0100
0000
0000
,
2002
0000
0000
3003
1000
0010
0100
0010
,
0110
0101
0011
0110
,
0110
1100
1020
0031
,
0110
1010
1100
0110
,
0110
0011
0201
1300
,
0110
0100
0001
0000
0011
0010
0100
0000
,
0110
0100
1000
0000
1020
0000
0031
0000
,
0220
0000
0000
0330
,
1002
0000
0000
0000
0013
0000
1000
0000
0010
0100
0000
0100
1000
0000
0001
0000
,
0010
0001
0200
0000
0301
0100
0010
1000
,
1001
0000
0000
0000
0001
0000
0100
0010
0000
1000
0000
0100
0000
0100
0010
0000
,
0001
0010
0000
0010
0100
0000
1000
0000
1010
0000
0010
0000
0100
0000
0001
0000
,
0010
2100
3010
0102
,
0013
2100
3010
0102
,
0023
0000
0000
0000
,
0130
1000
0001
1000
0010
0010
0100
0001
,
1001
1000
1000
1000
,
0100
0100
0100
0100
,
0010
0010
0010
0010
,
0001
0001
0001
0001
,
1000
1000
1000
1000
,
0010
0010
0010
0010
,
0100
0100
0100
0100
,
0020
0000
0130
0000
1001
0001
0020
0000
,
0031
0000
1000
0001
0000
1000
0001
0000
0100
0000
0010
0100
0000
0010
0100
0000
,
1000
0000
0100
0010
0000
0100
0010
0000
0001
0000
0010
0100
0000
0010
0100
0000
,
0001
0000
1000
0001
0000
1000
0001
0000
0010
0000
0100
0010
0000
0100
0010
0000
,
1000
0000
0010
0100
0000
0010
0100
0000
0001
0000
0100
0010
0000
0100
0010
0000
,
0001
0000
1000
0001
0000
1000
0001
0000
0100
0000
0001
0100
0000
0001
0100
0000
,
0010
0000
1000
0010
0000
1000
0010
0000
1000
0000
0100
0000
0010
0000
0001
0000
,
0020
0000
0100
0000
0000
0100
0000
0000
0100
0000
0000
0130
0000
0000
0010
0000
,
0001
1000
0001
0100
0010
0100
1000
0000
,
0220
0000
0000
0000
,
0000
0000
0330
0000
,
0010
1000
1100
0000
0120
0000
1030
0010
,
0001
0000
1000
0001
0000
0100
0010
0000
0001
0000
0010
0100
0000
0001
1000
0000
,
0001
0000
0010
0100
0000
0010
0001
0000
0200
0000
0000
0000
0310
0000
0100
0000
,
1000
0000
0100
0010
0000
1000
0001
0000
0010
0000
0100
0000
1000
0000
0001
0000
,
1000
1000
0010
0010
0100
0100
2000
0000
,
3100
0100
0001
0001
0010
0010
1000
0010
,
0001
0000
1000
0000
0010
0000
0010
0000
0010
0000
0100
0010
1000
0000
0001
0000
,
1000
0100
0010
0100
1000
0001
1000
0010
,
0100
0001
0010
0000
0100
1000
0010
0000
,
1000
0010
0100
0010
0001
0010
0100
0000
,
0010
1000
0100
0000
0010
0001
0100
0000
,
0001
0100
1000
0100
0010
0100
0001
0000
,
0100
0001
0010
0000
0001
0010
0100
0000
,
0010
0100
1000
0100
0001
0100
1000
0000
,
1100
1001
0101
1001
,
1010
0000
0010
0000
0100
0000
0000
0100
0000
0000
0100
0000
1000
0000
0100
0000
,
0001
0000
0000
1000
0000
0100
0000
0000
0010
0000
0100
0000
0010
0000
0000
0000
,
0100
0000
0000
1000
0000
0010
0000
0000
0100
0000
0010
0000
0000
0100
0000
0001
,
0000
0000
0000
1000
0000
0010
0000
0000
0100
0000
0010
0000
0100
0000
0000
0000
,
0010
0000
0000
1000
0000
0001
0000
0000
1000
0000
0001
0000
1000
0000
0000
0000
,
0002
0000
0000
0000
,
0000
0000
0000
0000
,
0000
0000
0000
0000
,
0000
0000
0000
0003
,
2002
0000
0000
0000
,
0000
0000
0000
0000
,
0000
0000
0000
0000
,
0000
0000
0000
0000
3003
0000
0000
0000
0000
0220
0000
0000
0000
0000
0000
0000
,
0000
0000
0000
0000
,
0000
0000
0330
0000
;

//--------------- dance-single - chronon ----------------
#NOTEDATA:;
#STEPSTYPE:dance-single;
#DESCRIPTION:chronon;
#DIFFICULTY:Hard;
#METER:16;
#RADARVALUES:0,0,0,0,0;
#NOTES:
0000
0000
0000
0000
,
0000
0000
0000
0000
,
0000
0000
0000
0000
,
0000
0000
0000
0000
,
0000
0000
0000
0000
,
1001
0000
0000
0000
1000
0000
0000
0100
0000
0000
0100
0000
0010
0000
0000
0000
,
0001
0000
1000
0000
0001
0000
0100
0010
0000
1000
0000
0000
1100
0000
0000
0000
,
1001
0000
0000
0000
0001
0000
0010
0000
0000
0000
0010
0000
0100
1000
0000
0000
,
0010
0000
0100
0001
0000
0001
0100
0001
0010
0000
0100
0010
1000
0010
0001
1000
,
0001
0000
0100
0010
0100
0001
1000
0000
0100
0000
0010
0100
0000
1000
0010
0000
,
1000
0000
0010
0100
0010
1000
0001
0000
0010
0000
0100
0010
0000
0001
0100
0000
,
0001
0000
0010
0100
0010
0001
1000
0000
0010
0000
0100
0010
0000
1000
0100
0000
,
0010
0100
1000
0001
0100
0010
0100
0001
0010
0100
1000
0001
0100
0010
0001
0000
,
0010
0000
0100
0001
0010
0100
0010
0000
0001
0000
0100
0010
0000
0100
1000
0000
,
0100
0000
0010
1000
0100
0010
0100
0000
1000
0000
0010
0100
0000
0010
0001
0000
,
0010
0000
0100
0001
0010
0100
0010
0000
0001
0000
0100
0010
0000
1000
0001
0000
,
1000
0000
0010
1000
0100
0000
0010
0000
0110
0000
0100
1000
0010
0100
0001
1000
,
0001
0010
0100
1000
0010
0100
1000
0000
0100
0010
1000
0001
0010
0100
0001
0000
,
1000
0000
0010
0001
0100
0000
0010
0000
0100
0001
0010
0000
0100
1000
0001
0000
,
0101
0000
0100
0001
1000
0100
1000
0000
1100
0000
0100
1000
0001
0100
0001
0000
,
0101
0000
1001
0000
1000
0100
0000
1000
0001
0000
0100
0000
0110
0000
0100
0000
,
0010
0100
1000
0000
0100
0001
1000
0100
0001
0000
0100
1000
0010
0100
0000
1000
,
0000
0001
0010
0000
0100
0001
1000
0010
1000
0001
0000
0001
0010
0100
0010
0000
,
0110
0000
0000
0011
0000
0101
0000
0000
0110
0000
0000
1010
0000
1100
0000
0000
,
2002
0000
0000
0000
0000
0000
3003
0000
0001
0010
0100
1000
0001
0100
0010
0000
,
0110
1010
1100
0110
,
0110
0011
0201
1300
,
0110
0101
0011
0110
,
0110
1100
1020
0031
,
0110
0010
1010
0000
1100
0100
0110
0000
,
0110
0000
0010
0000
0011
0000
0000
0000
0101
0000
0100
0000
1000
0100
0010
0000
,
2002
0000
0000
3003
,
1100
0000
0000
0000
0100
0000
0001
0000
0100
1000
0000
0001
0100
0010
0100
0000
,
0010
1000
0001
1000
0100
0000
0010
0001
1000
0001
0100
0001
1000
0100
1000
0001
,
0100
0000
0000
0000
0010
0100
1000
0100
0010
1000
0000
0001
0010
0100
0010
0000
,
0001
0010
0000
0010
0100
0000
1000
0000
1100
0000
0100
0010
0001
0010
1000
0010
,
0100
0012
0103
2010
,
3100
0012
0103
1010
,
2002
0000
0000
3003
,
0001
0100
0010
0100
0001
1000
0001
0010
0100
0000
1000
0000
0010
0000
0100
0000
,
1001
0001
0001
0001
,
1000
1000
1000
1000
,
0100
0100
0100
0100
,
0010
0010
0010
0010
,
0001
0001
0001
0001
,
1000
1000
1000
1000
,
0010
0010
0010
0010
,
1001
0000
0000
0000
1000
0100
0010
0001
0100
0000
0010
0000
0100
0000
0100
0001
,
0010
0100
1000
0001
0000
1000
0100
1000
0010
0100
0001
1000
0000
0010
0001
0000
,
0010
1000
0001
0010
0000
0010
0100
1000
0100
1000
0001
0100
0000
0100
0010
1000
,
0100
0010
0001
1000
0000
0001
0010
0001
0100
0010
1000
0001
0000
0100
1000
0000
,
0100
0001
1000
0100
0000
0100
0010
0001
0010
0001
1000
0010
0000
0010
0100
0001
,
0010
0100
1000
0001
0000
1000
0100
1000
0010
0100
0001
1000
0000
1000
0010
1000
,
0100
0010
0001
1000
0000
0010
0100
0010
1000
0000
0100
0000
0010
0000
0001
0000
,
1000
0000
0010
0000
0000
0010
0000
0000
0010
0000
0000
0010
1000
0001
1000
0100
,
1000
0100
0010
0001
0010
0100
1000
0001
1000
0010
0100
0010
0001
0000
0000
0000
,
0220
0000
0000
0000
,
0000
0000
0330
0000
,
0100
0001
0011
0000
0210
0000
0301
0100
,
0010
0100
1000
0010
0000
0010
0100
0001
0100
0010
1000
0100
0000
0100
0010
0001
,
0100
0000
0000
0010
0000
0000
1000
0000
0000
0001
0000
0000
0000
0000
0000
1000
0000
0000
0010
0000
0000
1000
0000
0000
0100
0000
0010
0000
0001
0000
1000
0000
0000
0001
0000
0000
1000
0000
0000
0010
0000
0000
0100
0000
0000
0010
0000
0000
,
0001
0000
0010
0100
0000
0100
0001
0000
0010
0000
0100
0000
1000
0000
0001
0000
,
1000
0010
0100
0010
1000
0001
0010
0100
1000
0100
0010
0100
0002
0000
0000
0000
,
0103
0010
0001
1000
0001
0100
0010
1000
0001
0100
0010
0100
1000
0100
0010
0000
,
0110
0000
0100
0000
0100
0000
0100
0000
0100
0001
1000
0100
0010
0000
0001
1000
,
0001
0010
0100
0010
1000
0010
0100
0010
,
0001
0000
1000
0000
0010
0000
0100
0001
0000
0001
1000
0100
1000
0000
0010
0000
,
1000
0001
0100
0010
0000
0010
0100
0001
1000
0100
0010
0000
0001
0000
0100
0000
,
0001
1000
0010
1000
0100
0000
0001
0000
0100
1000
0001
0200
0000
0000
0310
1000
,
0001
0100
0010
0000
0100
0010
0001
0000
0010
0100
0001
1000
0100
0000
0010
0001
,
1000
0010
0100
0000
1000
0000
0100
0010
0000
0010
0000
0100
0000
0001
1000
0100
,
0010
0001
1000
0001
0100
0010
1000
0001
1000
0100
0010
0001
0000
0001
0100
0010
,
1000
0010
0110
0100
0001
0010
0110
0100
,
1100
0000
1000
0000
0010
0000
0000
0010
0000
0000
0010
0000
0001
0000
0010
0000
,
0210
0000
0000
0301
0000
0010
0000
0000
0100
0000
1000
0000
0100
0000
1000
0000
,
0001
0000
0000
0100
0000
1000
0000
0000
0100
0000
0001
0000
0000
0100
0000
0010
,
0000
0000
0000
1000
0000
0100
0000
0000
0010
0000
0001
0000
0010
0000
0001
0000
,
1000
0000
0000
0010
0000
0100
0000
0000
0001
0000
1000
0000
0001
0000
1000
0000
,
0002
0000
0000
0000
,
0000
0000
0000
0000
,
0000
0000
0000
0000
,
0000
0000
0000
0003
,
2002
0000
0000
0000
,
0000
0000
0000
0000
,
0000
0000
0000
0000
,
0000
0000
0000
0000
3003
0000
0000
0000
0000
0220
0000
0000
0000
0000
0000
0000
,
0000
0000
0000
0000
,
0000
0000
0330
0000
;
