#TITLE:SOLID WYVERN;
#SUBTITLE:;
#ARTIST:BEMANI Sound Team "L.E.D.";
#TITLETRANSLIT:;
#SUBTITLETRANSLIT:;
#ARTISTTRANSLIT:;
#GENRE:;
#CREDIT:;
#MUSIC:SOLID WYVERN.ogg;
#BANNER:;
#BACKGROUND:;
#CDTITLE:;
#SAMPLESTART:58.648;
#SAMPLELENGTH:15.000;
#SELECTABLE:YES;
#OFFSET:-0.466;
#BPMS:0.000=165.000
,60.000=82.500
,61.000=165.000
;
#STOPS:;
#BGCHANGES:1.000=SOLID WYVERN.mp4=1.000=0=0=0=StretchNoLoop====,
99999.000=-nosongbg-=1.000=0=0=0=StretchNoLoop====,
99999.000=-nosongbg-=1.000=0=0=0=StretchNoLoop====;
#FGCHANGES:;

//--------------- dance-single - eataninja ----------------
#NOTES:
     dance-single:
     eataninja:
     Beginner:
     5:
     0,0,0,0,0:
0000
0000
0000
0000
,
0000
0000
0000
0000
,
0000
0000
0000
0000
,
0000
0000
0000
0000
,
1000
0000
0100
0000
,
0001
0000
0000
0000
,
0200
0000
0300
0000
,
0020
0000
0030
0000
,
1001
0000
0000
0000
,
1000
0000
0000
0000
,
0020
0000
0030
0000
,
0200
0000
0300
0000
,
1001
0000
0001
0000
,
1001
0000
1000
0000
,
1001
0000
0110
0000
,
0000
0000
0000
0001
,
0001
0001
0000
1000
,
1000
1000
0000
0100
,
0010
0100
0000
0010
,
0010
0010
0000
0001
,
0001
0001
0000
1000
,
1000
1000
0000
0010
,
0100
0010
0000
2002
,
0000
3003
0000
1000
,
0000
0001
0000
0010
,
0100
1000
0000
0001
,
0000
0100
0000
0010
,
0100
0001
0000
1000
,
1001
0001
0000
0010
,
0100
1000
0000
2002
,
0000
3003
0000
0001
,
0001
0001
0000
1000
,
0000
0100
0000
0001
,
0000
0001
0000
0100
,
0000
1000
0000
0001
,
0000
0001
0000
1000
,
0000
0010
0000
0001
,
0000
0001
0000
0010
,
0000
1000
0000
0001
,
0010
0001
0000
0010
,
0000
0100
0000
1000
,
0000
0001
0100
0010
,
0000
0100
0000
0001
,
0001
1000
0000
0100
,
0000
0010
0000
0001
,
0000
1000
0010
0100
,
0000
0001
0000
0001
,
0010
0100
1000
0001
,
0000
0001
0000
1000
,
0000
0100
0100
1000
,
0000
1000
0000
0001
,
0001
0100
0000
0001
,
0000
0001
0000
1000
,
0000
0010
0010
1000
,
0000
1000
0000
0002
,
0000
0003
0000
0001
,
1000
0001
0000
1000
,
0010
1000
0000
1000
,
0001
1000
0000
0001
,
0010
0100
0000
1000
,
0001
1000
0000
1000
,
0100
1000
0000
0001
,
1000
0001
0000
0100
,
0100
0001
0000
1001
,
0000
0100
0000
0010
,
0000
0001
0000
1001
,
0000
0100
0000
0010
,
0000
1000
0000
0010
,
0010
0010
0000
0010
,
0010
0010
0000
1001
,
0000
1001
0000
0001
,
0010
0100
1000
0002
,
0000
0000
0000
0000
,
0003
0000
0000
0000
;

//--------------- dance-single - eataninja ----------------
#NOTES:
     dance-single:
     eataninja:
     Easy:
     8:
     0,0,0,0,0:
0000
0000
0000
0000
,
0000
0000
0000
0000
,
0000
0000
0000
0000
,
0000
0000
0000
0000
,
1000
0010
0100
0000
,
0001
1000
0001
0000
,
0010
0010
0100
0100
,
1000
0001
0100
1000
,
0200
0000
0000
0000
,
0320
0000
0000
0000
,
2030
0000
3002
0000
,
0023
0000
0230
0000
,
1300
1000
0001
0100
,
0001
0001
1000
0100
,
2001
3010
1002
0103
,
0020
0100
0130
0001
,
0001
1000
1000
0100
,
0010
0001
0000
1000
,
1000
0001
0001
0100
,
0010
1000
0000
0001
,
0001
0000
1000
0100
1000
0000
0001
0000
,
0100
0010
0000
1000
,
1000
0000
0001
0010
0001
0000
1001
0000
,
0000
0010
0100
0001
,
0001
1000
1000
0010
,
0001
0010
1000
0001
,
0001
1000
1000
0100
,
0001
0100
1000
0001
,
0110
1000
0000
0001
,
1000
0000
0010
0000
0100
0010
1000
0000
,
0001
0010
0100
1001
,
0110
1001
0000
1000
,
0100
2100
3001
0100
,
0100
0010
0000
1000
,
0001
1000
0100
0001
,
0100
1000
0000
0001
,
0100
0102
1003
0100
,
0100
0010
0000
0001
,
1000
0001
0100
2000
,
0000
3100
0010
1000
,
1000
0001
0001
0010
,
0010
0100
0010
0001
,
0001
1000
1000
0010
,
0010
0000
0100
1000
0100
0000
0001
0000
,
0001
1000
1000
0100
,
0100
0010
0100
1000
,
1000
0001
0001
0100
,
1000
0010
0001
1000
,
1000
0001
0010
0100
,
0100
1001
1000
0010
,
0010
1000
0001
0010
,
0110
0000
1001
0001
,
0001
1000
0010
0100
,
0100
0010
1001
1000
,
1000
0100
0010
0001
,
0000
0000
0100
0010
1000
0000
0001
0000
,
0010
0100
0010
0000
0001
0000
1000
0000
,
1000
0010
0010
0100
,
0001
1000
0001
0000
0010
0000
1000
0000
,
1000
0010
0001
1000
,
0010
0100
0010
0000
1000
0000
0001
0000
,
0001
0010
0010
0100
,
1000
0001
1000
0000
0010
0000
0110
0000
,
0001
1001
0000
1000
,
0100
0001
0100
0010
,
0100
1000
0001
1000
,
0010
0001
0010
0100
,
0010
1000
0001
0010
,
0000
0100
0010
0000
0000
0001
1000
0000
,
0000
0010
0100
0000
0000
0001
1000
0000
,
0100
0001
0100
1000
,
0010
0000
0100
0010
0010
0000
2002
0000
,
0000
0000
0000
0000
,
3003
0000
0000
0000
;

//--------------- dance-single - eataninja ----------------
#NOTES:
     dance-single:
     eataninja:
     Medium:
     13:
     0,0,0,0,0:
0000
0000
0000
0000
,
0000
0000
0000
0000
,
0000
0000
0000
0000
,
0000
0000
0000
0000
,
2000
0010
0001
3010
,
0100
0000
0000
0100
0001
0000
0000
0000
0100
0000
0000
0100
0010
0000
0000
0000
,
1000
0000
0000
1000
0001
0000
0000
0000
0001
0000
0000
0001
0010
0000
0000
0000
,
0100
0000
0000
0100
1000
0000
0000
0000
1000
0000
0010
0000
0001
0000
0000
0000
,
0020
0000
0130
0000
,
0200
0000
0301
0000
,
0002
0000
1003
0000
,
0200
0000
0310
0000
,
1001
0000
0001
0000
0100
0010
1000
0000
,
1001
0000
1000
0000
0100
0010
0001
0000
,
1000
0001
0100
0010
0100
0001
1000
0100
,
0020
0000
0001
0000
0031
0000
1000
0010
,
1000
0000
0001
0010
1000
0000
0010
0100
,
0010
0001
1000
0010
0100
0000
0001
0100
,
0001
0000
1000
0100
0001
0000
0100
0010
,
0001
1000
0010
0100
0001
0000
1000
0010
,
1000
0000
0001
0000
0010
0000
0000
0010
0100
0000
0000
0100
1000
0000
0000
1000
,
0001
0000
0000
0001
0100
0000
0100
0000
0010
0000
0000
0000
0100
0000
0001
0000
,
1000
0000
0001
0000
0100
0000
0000
0100
0010
0000
0000
0010
1000
0000
0000
1000
,
0001
0000
0000
0001
0010
0000
0010
0000
0100
0000
0000
0000
1000
0000
0001
0000
,
1000
0100
0010
0001
1000
0001
0100
0010
,
1000
0001
1000
0100
0010
0000
0001
1000
,
0001
0100
0010
1000
0001
0100
0001
1000
,
0100
0010
0001
1000
0010
0000
0100
0001
,
1001
0000
1000
0100
1000
0001
0010
0100
,
1000
0001
0100
0000
0010
0100
1001
0000
,
0001
0010
1000
0010
0100
1000
0001
0000
,
0001
1000
1000
0001
,
1000
0000
1000
0010
0000
0000
1000
0000
0001
0010
0000
1000
,
0010
0000
0010
0100
0000
1000
0000
0000
0000
1000
0000
0001
,
0000
0000
1000
0010
0000
0100
0010
0000
0100
1000
0000
0000
,
0100
0001
0100
0001
0000
0000
1001
0000
0000
1000
0000
0000
,
0001
0000
0001
0010
0000
0000
0001
0000
1000
0010
0000
0001
,
0010
0000
0010
0100
0000
0001
0000
0000
0000
0001
0000
1000
,
0000
0000
0001
0010
0000
0010
1000
0000
0010
0002
0000
0000
,
0203
0000
0000
0000
0310
0000
1000
0000
0001
0100
0001
0000
1000
0000
0000
0001
,
0000
0000
1000
0000
0100
0000
0000
0100
0000
0000
0010
0000
0001
0000
0000
0001
,
0000
0000
1000
0000
0010
0000
0000
0100
0000
0000
0001
0000
1000
0000
0000
0010
,
0000
0000
1000
0000
0001
0000
0000
0001
0000
0000
0100
0000
1000
0000
0000
1000
,
0000
0000
0100
0000
0010
0000
1000
0000
0001
0000
0010
0000
0100
0000
0000
1000
,
0000
0000
0100
0000
0010
0000
0000
0010
0000
0000
0001
0000
1000
0000
0000
1000
,
0000
0000
0010
0000
1000
0000
0000
0001
0000
0000
0100
0000
0010
0000
0000
1000
,
0000
0000
0010
0000
0100
0000
0000
0100
0000
0000
0001
0000
0020
0000
0000
0000
,
0230
0000
0000
2300
0000
0000
3002
0000
0000
0103
0000
0001
,
0100
0000
0001
1000
0000
0001
0100
0000
0100
1000
0000
0100
,
0010
0000
0000
1001
0000
0000
1000
0000
0000
0100
0000
1000
,
0100
0000
1000
0001
0000
1000
0100
0000
0100
0001
0000
0000
,
0001
0000
0000
0100
0010
0100
0010
0000
0000
0010
0000
0001
,
0010
0000
0001
1000
0000
0001
0010
0000
0010
1000
0000
0010
,
0100
0000
0000
0010
0000
0000
2001
0000
0000
3010
0000
1000
,
0010
0000
1000
0001
0000
1000
0010
0000
0010
0002
0000
0000
,
0023
0000
0000
0000
0130
0000
0001
0000
1000
0001
1000
0000
0100
0000
0000
0010
,
0000
0000
0001
0000
1000
0000
0000
0010
0000
0000
1000
0000
0100
0000
0000
0001
,
0000
0000
0100
0000
0010
0000
0000
0001
0000
0000
1000
0000
0010
0000
0000
1000
,
0000
0000
0001
0000
0100
0000
0000
0010
0000
0000
1000
0000
0001
0000
0000
0001
,
0000
0000
0010
0000
1000
0000
0000
0010
0000
0000
0001
0000
0100
0000
0000
0001
,
0000
0000
1000
0000
0010
0000
0000
1000
0000
0000
0010
0000
0100
0000
0000
1000
,
0000
0000
0100
0000
0010
0000
0000
1000
0000
0000
0001
0000
0010
0000
0000
0100
,
0000
0000
1000
0000
0001
0000
0000
0100
0000
0000
0001
0000
1000
0000
0000
0100
,
0000
0000
0001
0000
0100
0000
0010
0000
0010
0000
0000
0000
0001
0000
0010
0001
,
0000
0000
1000
0000
0010
0000
0100
0010
0000
0000
0100
0000
0001
0000
1000
0001
,
0000
0000
0010
0000
0100
0000
1000
0000
0001
0000
0000
0000
1000
0000
0010
1000
,
0000
0000
0001
0000
1000
0000
0100
1000
0000
0000
0100
0000
0010
0000
0100
0010
,
0000
0000
0001
0000
1000
0000
0010
0000
0100
0000
0000
0000
0001
0000
0100
0001
,
0000
0000
0100
0000
1000
0000
0100
1000
0000
0000
0100
0000
0001
0000
0010
0001
,
0000
0000
0010
0000
1000
0000
0010
1000
0000
0000
0010
0000
0110
0000
0100
0000
,
1000
0000
1001
1000
0010
0000
0100
0001
,
1000
0000
0010
0000
0001
0000
0010
0000
1000
0001
1000
0000
0200
0000
0000
0000
,
0000
0000
0000
0000
,
0300
0000
0000
0000
;

//--------------- dance-single - eataninja ----------------
#NOTES:
     dance-single:
     eataninja:
     Hard:
     16:
     0,0,0,0,0:
0000
0000
0000
0000
,
0000
0000
0000
0000
,
0000
0000
0000
0000
,
0000
0000
0000
0000
,
2000
0000
0000
0000
0010
0000
0000
0000
3001
0000
0010
0100
0010
0000
0001
0000
,
0200
0000
0000
0000
1000
0000
0000
0000
0310
0000
1000
0001
0010
0000
0100
0000
,
1000
0001
0100
0010
1000
0100
0001
0100
,
0010
0001
1000
0010
0100
1000
0100
0010
,
1002
0000
1003
0000
,
2000
0000
3010
0000
,
0200
0000
0302
0000
,
0023
0000
0130
0000
,
1001
0000
0001
0000
0100
0000
0010
0000
0100
0000
0000
0100
0001
0000
0001
0000
,
1001
0000
1000
0000
0010
0000
0100
0000
0010
0000
0000
0010
1000
0000
1000
0000
,
1001
0001
0010
0100
1001
1000
0010
0100
,
2000
0000
0000
0000
3100
0010
0100
0000
0100
0010
1000
0000
0001
0000
1000
0000
,
0100
0000
0010
0000
0001
0000
1000
0010
0100
0000
0010
0100
0001
0000
1000
0100
,
0010
0000
0100
0010
0001
0000
1000
0000
0010
0000
0100
0000
0101
0000
0001
0000
,
0010
0000
0100
0000
1000
0000
0001
0100
0010
0000
0100
0010
1000
0000
0001
0010
,
0100
0000
0010
0100
1000
0000
0001
0000
0100
0000
0010
0000
1002
0000
0000
0000
,
0013
0000
0001
0000
0100
0000
0010
0100
0001
1000
0000
0100
0010
0001
0000
1000
,
0010
0100
0000
0010
0100
0001
0000
1000
0100
0000
0010
0000
0011
0000
0001
0000
,
0100
0000
0010
0000
1000
0000
0100
0010
0100
1000
0000
0001
0010
0100
1000
0000
,
0001
0100
0010
0000
1000
0001
1000
0001
0010
0000
0000
0000
1001
0000
0001
0000
,
0100
1000
0100
0000
0010
0100
0010
0000
0100
1000
0100
0000
0010
0100
0001
0000
,
1000
0100
0010
0000
0001
1000
0010
0000
0100
0001
1000
0000
0100
0010
0100
0000
,
0001
0100
0001
0000
0100
0010
0100
0000
0010
0001
1000
0000
0010
1000
0010
0000
,
0100
0010
0100
0000
0001
1000
0100
0010
0001
0000
0100
0000
0010
0000
1000
0000
,
2001
0000
3010
0000
0100
0010
0100
0000
0010
0001
0010
0000
0100
0010
1000
0000
,
0001
0010
0100
0000
1000
0001
0100
0010
0100
0000
0110
0000
1001
0000
0000
1000
,
0100
0010
0001
1000
0010
0000
0100
0000
0101
0000
1001
0000
1100
0000
0000
0000
,
0011
0000
0000
0101
0000
0000
1000
0001
0001
0010
0000
0010
,
0100
0010
0100
1000
0000
1000
0001
0000
0001
0100
0000
1000
,
0100
0000
0001
0200
0000
0000
0310
1000
1000
0001
0000
1000
,
0100
0001
0100
0010
0000
0010
0001
1000
0010
0100
0000
0100
,
0001
0000
0001
1000
0100
0100
0010
0000
0000
0001
0000
1000
,
0010
1000
0010
0100
0000
0100
0001
0000
0001
0010
0000
1000
,
0010
0000
0001
0020
0000
0000
0031
1000
1000
0010
0000
0001
,
0010
0000
1000
0100
0000
0001
0100
0010
0010
0002
0000
0000
,
2003
0000
0000
0000
3010
0100
0010
0100
0001
1000
0001
1000
0100
0000
0010
0100
,
0000
0010
0001
0000
1000
0000
0010
0100
0000
0010
0100
0000
0001
0000
1000
0100
,
0000
1000
0100
0000
0001
0000
0100
0010
0000
0001
1000
0010
0100
0000
0010
1000
,
0000
0010
0100
0000
0001
0000
1000
0100
0000
1000
0100
0000
0001
0000
0100
0001
,
0000
0100
1000
0000
0010
0000
0100
0000
0001
1000
0100
0010
0001
0000
0100
0010
,
0000
0100
0001
0000
1000
0000
0100
0010
0000
0100
0010
0000
0001
0000
1000
0010
,
0000
1000
0010
0000
0001
0000
0010
0100
0000
0010
1000
0001
0010
0000
0100
0010
,
0000
0000
0000
0100
0000
0000
1000
0000
0000
0000
0000
0000
0001
0000
0000
0000
0000
0000
0100
0000
0000
0010
0000
0000
0000
0000
0000
0100
0000
0000
0010
0000
0000
0000
0000
0000
0001
0000
0000
0000
0000
0000
0000
0000
1000
0000
0000
0000
,
0100
0000
0001
1000
0010
1000
0001
0010
0100
1000
0000
1000
,
0100
0000
0100
0010
0000
0010
0001
0000
0001
1000
0010
1000
,
0001
0100
0001
1000
0100
0010
0001
1000
1000
0010
0000
0010
,
0100
0000
0100
0001
0000
0001
1000
0000
1000
1100
0000
0000
,
1100
0000
0000
0001
0100
0100
0101
0000
0000
0100
0010
0100
,
0001
0000
1000
0100
0010
0001
1000
0000
0010
0100
0010
1000
,
0001
0000
0010
1000
0010
0100
1000
0001
0100
0010
1000
0001
,
0100
0000
0010
1000
0001
0010
0100
0000
1000
0001
1000
0010
,
0100
0000
0000
0000
0010
0000
0000
0000
0010
0000
0000
0000
1000
0000
0000
0000
0000
0000
0001
0000
0000
0000
0000
0000
0010
0000
0000
0100
0000
0000
1000
0000
0000
0000
0000
0000
0001
0000
0000
0000
0000
0000
0100
0000
0000
0000
0000
0000
,
1000
0000
0200
0000
0302
0000
0103
0010
0000
0100
0001
1000
0001
0000
0010
0100
,
0000
0100
0010
0001
1000
0000
0001
0100
0000
0010
0100
0010
1000
0000
0010
0000
,
0001
0000
0020
0000
2030
0000
3010
0100
0000
0100
0010
1000
0001
0000
0000
0011
,
0000
0000
1001
0000
1000
0000
0010
0001
0000
0010
0100
0000
0001
0000
0010
0000
,
1000
0000
0002
0000
0103
0000
0010
0001
0000
1000
0001
1000
0010
0000
0100
0010
,
0000
0010
1000
0001
0010
0000
0100
0010
0000
0001
1000
0010
0100
0000
0001
0000
,
0010
0000
2000
0000
3001
0000
0100
0010
0000
0100
1000
0001
1000
0000
0000
1001
,
0000
0000
0001
0000
0010
0000
0100
0010
0001
1000
0010
0100
0001
0000
0000
1001
,
0000
0000
1000
0000
0100
0000
0000
0110
0000
0000
0010
0000
0001
0000
0000
1001
,
0000
0000
1000
0000
0010
0000
1000
0000
0001
0010
0001
0010
0100
0000
0000
0110
,
0000
0000
0010
0000
0001
0000
0000
1001
0000
0000
1000
0000
0010
0000
0000
0110
,
0000
0000
0100
0000
1000
0000
0100
0000
0010
0100
0000
0010
1000
0001
1000
0001
,
0000
0000
0011
0000
0010
0100
0010
0100
0000
0000
1100
0000
1000
0001
1000
0001
,
0000
0000
0101
0000
0100
0010
0100
0010
0000
0000
1010
0000
1000
0001
0010
0000
,
0100
0010
0001
0000
1000
0001
0100
0000
0010
0100
0001
0000
1000
0100
1000
0100
,
0010
0001
1000
0010
0100
0001
0100
0001
1000
0100
0001
0100
0020
0000
0000
0000
,
0000
0000
0000
0000
,
0030
0000
0000
0000
;

//--------------- dance-single - eataninja ----------------
#NOTES:
     dance-single:
     eataninja:
     Challenge:
     18:
     0,0,0,0,0:
0000
0000
0000
0000
,
0000
0000
0000
0000
,
0000
0000
0000
0000
,
0000
0000
0000
0000
,
2000
0000
0010
0000
3001
1000
0100
0000
,
0201
1300
2100
3001
,
0001
0000
0100
0010
0100
0000
0001
1000
0001
0000
0010
0100
0010
0000
1000
0010
,
1000
0000
0010
0000
0001
0000
0010
0000
0100
0000
0010
0001
1000
0010
0100
0000
,
0102
0000
1000
0103
,
0102
1003
2100
3001
,
0012
0000
1003
0000
,
1020
0000
0130
0000
,
1001
0000
0000
0001
1000
0000
0000
1000
0100
0000
0000
0100
0010
0001
0010
0001
,
1000
0000
0000
1000
0010
0000
0000
0010
0100
0000
0000
0100
0001
1000
0001
1000
,
0100
0000
0010
0001
1000
0010
1000
0010
0100
0000
0010
1000
0001
0010
0001
0010
,
0200
0000
0000
0000
0310
0001
0100
0000
0010
1000
0010
1000
0001
0000
0100
0010
,
0100
0000
0001
0100
0001
0000
0100
0010
0100
0000
0001
1000
0100
0000
0010
0100
,
0010
0000
0100
1000
0001
0100
0010
0100
1000
0000
0100
0000
1002
0000
0013
0100
,
0010
0000
0001
0010
0001
0000
0010
0100
0010
0000
0001
1000
0010
0000
0100
0010
,
0100
0000
0010
1000
0001
0010
0100
0010
1000
0000
0010
0000
2001
0000
3010
0100
,
0010
0000
0100
0001
0100
0000
0001
0010
0100
0001
0100
0001
0100
0010
0100
0010
,
0100
1000
0100
1000
0001
0100
0010
1000
0200
0000
0300
0000
2001
0000
3100
0010
,
0100
0000
0010
0001
0010
0000
0001
0100
0010
0001
0010
0001
0010
0100
0010
0100
,
0010
1000
0010
1000
0001
0010
0100
1000
0020
0000
0030
0000
0100
0000
0001
1000
,
0001
0000
0010
0100
1000
0001
1000
0100
0010
0001
1000
0001
0100
0010
0100
0001
,
1000
0010
0100
0010
1000
0001
0010
0100
0001
0000
0100
0000
1000
0000
0001
1000
,
0001
0000
0100
0010
0100
0001
1000
0010
0100
0010
1000
0001
0010
0100
0010
0001
,
1000
0010
0100
0010
1000
0001
0100
0010
0001
0000
0010
0000
1000
0000
0000
0000
,
2001
0000
3010
0100
0001
0100
0010
1000
0010
0100
0001
1000
0100
1000
0001
0010
,
0100
1000
0001
0100
0010
0100
0001
0010
0100
0000
0110
0000
1001
0000
0000
0000
,
0001
1000
0010
0100
0010
1000
0001
0000
0011
0000
1001
0000
1100
0000
0000
0000
,
0101
0000
0000
0000
0000
0000
0000
0000
0000
0000
0000
0000
0000
0000
0000
0000
0000
0000
0000
0000
0000
0000
0000
0000
0001
0000
0000
0000
0000
0000
0000
0000
0200
0300
0000
0000
0000
0000
0000
0000
0200
0300
0000
0000
0000
0000
0000
0000
1000
0000
0000
0000
0000
0000
0000
0000
0200
0300
0000
0000
0000
0000
0000
0000
0200
0300
0000
0000
0000
0000
0000
0000
0001
0000
0000
0000
0000
0000
0000
0000
0000
0000
0000
0000
0000
0000
0000
0000
0010
0000
0000
0000
0000
0000
0000
0000
,
0010
0000
0000
0000
0001
0000
0000
0000
1000
0000
0000
0000
0010
0000
0000
0000
0000
0000
0000
0000
0010
0000
0100
0000
0010
0000
0000
0000
0000
0000
0000
0000
1000
0000
0001
0000
2000
0000
0000
0000
0000
0000
0000
0000
0100
3000
0000
0000
,
0020
0000
0000
0000
0000
0000
0000
0000
0000
0000
0000
0000
0000
0000
0000
0000
0100
0000
0030
0000
0000
0000
0000
0000
0010
0000
0000
0000
0000
0000
0000
0000
0001
0000
0000
0000
0000
0000
0000
0000
1000
0000
0000
0000
0000
0000
0000
0000
0010
0000
0000
0000
0000
0000
0000
0000
0200
0300
0000
0000
0000
0000
0000
0000
0200
0300
0000
0000
0000
0000
0000
0000
1000
0000
0000
0000
0000
0000
0000
0000
0000
0000
0000
0000
0000
0000
0000
0000
0001
0000
0000
0000
0000
0000
0000
0000
,
1000
0000
0000
0000
0000
0000
0000
0000
0010
0000
0000
0000
0000
0000
0000
0000
0010
0000
0000
0000
0000
0000
0000
0000
0100
0000
0000
0000
0000
0000
0000
0000
0000
0000
0000
0000
0000
0000
0000
0000
0001
0000
0000
0000
0000
0000
0000
0000
0010
0000
0000
0000
0000
0000
0000
0000
0100
0000
0000
0000
0000
0000
0000
0000
0100
0000
0000
0000
0000
0000
0000
0000
1000
0000
0000
0000
0000
0000
0000
0000
0020
0030
0000
0000
0000
0000
0000
0000
0020
0030
0000
0000
0000
0000
0000
0000
,
0001
0000
0000
0000
0000
0000
0000
0000
0200
0300
0000
0000
0000
0000
0000
0000
0200
0300
0000
0000
0000
0000
0000
0000
1000
0000
0000
0000
0000
0000
0000
0000
0200
0300
0000
0000
0000
0000
0000
0000
0200
0300
0000
0000
0000
0000
0000
0000
0001
0000
0000
0000
0000
0000
0000
0000
0000
0000
0000
0000
0000
0000
0000
0000
0000
0000
0000
0000
0000
0000
0000
0000
1001
0000
0000
0000
0000
0000
0000
0000
0000
0000
0000
0000
0000
0000
0000
0000
1000
0000
0000
0000
0000
0000
0000
0000
,
0010
0000
0100
0000
0100
0000
0001
0000
0000
0000
1000
0001
1000
0000
0000
0000
0001
0010
0002
0000
0000
0000
1003
0000
,
0020
0000
0000
0000
0000
0000
0000
0000
0000
0000
0000
0000
0000
0000
0000
0000
0130
0000
0000
0000
0000
0000
0000
0000
0001
0000
0000
0000
0000
0000
0000
0000
1000
0000
0000
0000
0000
0000
0000
0000
0001
0000
0000
0000
0000
0000
0000
0000
0010
0000
0000
0000
0000
0000
0000
0000
0200
0300
0000
0000
0000
0000
0000
0000
0200
0300
0000
0000
0000
0000
0000
0000
0001
0000
0000
0000
0000
0000
0000
0000
0000
0000
0000
0000
0000
0000
0000
0000
1000
0000
0000
0000
0000
0000
0000
0000
,
0001
0000
0000
0000
0000
0000
0000
0000
0200
0300
0000
0000
0000
0000
0000
0000
0200
0300
0000
0000
0000
0000
0000
0000
1000
0000
0000
0000
0000
0000
0000
0000
0020
0030
0000
0000
0000
0000
0000
0000
0020
0030
0000
0000
0000
0000
0000
0000
0001
0000
0000
0000
0000
0000
0000
0000
0020
0030
0000
0000
0000
0000
0000
0000
0020
0030
0000
0000
0000
0000
0000
0000
0200
0000
0000
0000
0000
0000
0000
0000
0000
0000
0000
0000
0000
0000
0000
0000
0000
0000
0000
0000
0000
0000
0000
0000
,
0302
0000
0000
0000
1003
0100
0010
0001
0100
0010
1000
0001
0010
0000
0100
1000
,
0000
0100
0010
0001
1000
0000
0010
1000
0000
0010
0100
0010
1000
0000
0001
1000
,
0000
0001
0010
0001
1000
0000
0100
0001
0000
0100
0010
0001
1000
0000
0010
0100
,
0000
0010
1000
0001
0010
0000
0001
0010
0000
0100
0010
0001
1000
0000
0000
1010
,
0000
0000
0000
0000
0000
0000
0110
0000
0000
0000
0000
0000
0100
0000
0000
0000
0000
0000
0001
0000
0000
0000
0000
0000
1000
0000
0100
0000
1000
0000
0100
0000
0010
0000
0001
0000
0010
0000
0000
0000
0000
0000
0001
0000
0000
1000
0000
0000
,
0000
0001
0100
0010
0100
0000
0010
1000
0000
0010
1000
0001
0010
0000
0100
0010
,
0000
0100
0010
0001
1000
0000
0010
0001
0000
0010
0100
0010
1000
0000
0001
1000
,
0000
0000
0000
0100
0000
0000
0010
0000
0000
0001
0000
0000
1000
0000
0000
0000
0000
0000
0010
0000
0000
0100
0000
0000
0000
0000
0000
0010
0000
0000
1000
0000
0000
0000
0000
0000
0010
0000
0000
0000
0001
0000
0000
0000
1000
0000
0000
0000
,
0100
0010
0100
0001
1000
0100
0010
0001
0001
1000
0000
0100
,
0001
0100
0010
0001
0000
1000
0010
0100
0010
1000
0001
0010
,
0001
1000
0010
0120
0000
1030
0010
0100
0100
0001
0000
0010
,
0100
0001
0100
0010
0000
0100
1000
0001
1000
0010
0100
1000
,
0100
0010
1000
0001
0010
0010
1001
0000
0000
1000
0010
1000
,
0001
0010
1000
0010
0100
1000
0001
0100
0010
0001
0010
0100
,
0001
1000
0100
0010
0001
1000
1010
0000
0000
1000
0100
1000
,
0001
0010
1000
0010
0100
1000
0001
0100
0010
1000
0001
0010
,
1000
0000
0000
0000
0010
0000
0000
0000
0001
0000
0000
0000
1000
0000
0000
0001
0000
0000
0100
0000
0000
0010
0000
0000
1000
0000
0000
0100
0000
0000
1000
0000
0000
0100
0000
0000
0010
0000
0000
0000
0000
0000
0001
0000
0000
1000
0000
0000
,
0010
0100
0001
0010
1000
0000
0010
1000
0010
0100
1000
0001
0100
0000
0010
0100
,
0010
1000
0001
0100
1000
0000
0100
0010
0100
0001
1000
0100
0010
0000
0001
1000
,
0001
0010
0100
0010
1000
0000
0010
0100
1000
0001
0100
0010
0001
0000
0010
1000
,
0000
0010
0100
0010
1000
0000
0001
0010
0000
0100
0010
0001
1000
0000
0010
0100
,
0010
1000
0001
0010
1000
0010
1000
0010
0100
0010
0001
1000
0010
0100
0010
0001
,
0010
0100
0001
1000
0100
0010
0100
0001
0100
0010
0001
0000
1000
0000
0100
0010
,
0100
1000
0001
0100
1000
0100
1000
0100
0010
0100
0001
1000
0100
0001
0100
0010
,
0000
0001
1000
0000
0010
0000
0001
0000
1000
0100
0010
1000
0001
0010
0001
0010
,
0000
0100
1000
0001
1000
0010
1000
0010
0000
0100
0001
1000
0100
0010
0100
0010
,
0000
0001
1000
0010
0100
0001
1000
0001
0010
0100
0001
0100
0010
0001
0010
0001
,
0000
1000
0010
0100
0001
1000
0001
1000
0000
0100
0010
0001
1000
0010
1000
0010
,
0000
0100
0001
1000
0100
0000
0001
0000
0100
1000
0000
0001
0100
0010
0100
0010
,
0000
0100
0001
1000
0100
0010
0100
0010
0000
0100
1000
0001
0100
0010
0100
0010
,
0000
0100
0001
1000
0100
0010
0100
0010
0000
0001
1000
0010
0100
0001
1000
0010
,
0100
0010
1000
0001
0010
0100
1000
0001
0010
0001
1000
0010
0100
1000
0100
0001
,
0100
0010
1000
0001
0010
1000
0010
0100
1000
0001
0100
0010
0200
0000
0000
0000
,
0000
0000
0000
0000
,
0300
0000
0000
0000
;
