#TITLE:SKY HIGH (SPEED MIX);
#SUBTITLE:;
#ARTIST:DJ MIKO;
#TITLETRANSLIT:;
#SUBTITLETRANSLIT:;
#ARTISTTRANSLIT:;
#GENRE:;
#CREDIT:KAYSTAR;
#MUSIC:sky high speed mix.ogg;
#BANNER:sky high speed mix bn.png;
#BACKGROUND:sky high speed mix bg.png;
#CDTITLE:;
#SAMPLESTART:93.178;
#SAMPLELENGTH:10.000;
#SELECTABLE:YES;
#OFFSET:-0.001;
#BPMS:0.000=170.000
,16.000=85.000
,17.000=170.000
;
#STOPS:17.000=0.353
,146.000=1.059
;
#DISPLAYBPM:170.000;
#BGCHANGES:17.854=sky high speed mix.avi=1.000=0=0=1===CrossFade_Fastest==,
297.000=sky high speed mix bg.png=1.000=0=0=1,
99999.000=-nosongbg-=1.000=0=0=0=StretchNoLoop====
;
#FGCHANGES:;

//--------------- dance-single - KAYSTAR ----------------
#NOTES:
     dance-single:
     KAYSTAR:
     Beginner:
     3:
     0,0,0,0,0:
0000
0000
0000
0000
,
0000
0000
0000
0000
,
0000
0000
0000
0000
,
0000
0000
0000
0000
,
0000
0000
1000
0000
,
0000
0000
0001
0000
,
0000
0000
1000
0000
,
0000
0000
0010
0010
,
0010
0000
1000
0000
,
0000
0000
0001
0000
,
0000
0000
1000
0000
,
0000
0000
0000
0000
,
0000
0000
0100
0000
,
0100
0000
1000
1000
,
0000
0000
0001
0000
,
0001
0000
0100
0100
,
0000
0000
0010
0010
,
0000
0000
1000
1000
,
0000
0000
0001
0000
,
0001
0000
0010
0010
,
0000
0000
0100
0000
,
0000
0000
1000
0000
,
0000
0000
0001
0000
,
0000
0000
0100
0000
,
0000
0000
0001
0000
,
0000
0000
0010
0000
,
0000
0000
0001
0000
,
0000
0000
1000
0000
,
0000
0000
0010
0000
,
0010
0000
0010
0000
,
0000
0000
0100
0000
,
0100
0000
0100
0000
,
0000
0000
0001
0000
,
0001
0000
0001
0000
,
0000
0000
1000
0000
,
1000
0000
1000
0000
,
0000
0000
0000
0100
,
0000
0000
0000
1000
,
0000
0000
0010
0010
,
0000
0000
0000
0100
,
0000
0000
0001
0001
,
0000
0000
0000
0010
,
0000
0000
0100
0100
,
0000
0000
0000
1000
,
0000
0000
0000
0020
,
0000
0000
0000
0000
,
0000
0000
0000
0030
,
0000
0000
0000
1000
,
0000
0000
0010
0010
,
0000
0000
0000
1000
,
0000
0000
0001
0001
,
0000
0000
0000
0100
,
0000
0000
0010
0010
,
0000
0000
0000
0100
,
0000
0000
0010
0020
,
0000
0000
0000
0000
,
0000
0030
0000
1000
,
0000
1000
0000
0001
,
0001
0000
0000
1000
,
0000
1000
0000
0001
,
0001
0000
0000
0100
,
0000
0100
0000
0001
,
0001
0000
0000
0100
,
0000
0100
0000
0001
,
0001
0000
0000
1000
,
0000
0100
0000
0010
,
0010
0000
0000
1000
,
0000
0100
0000
0010
,
0010
0000
0000
0001
,
0000
0100
0000
0010
,
0010
0000
0000
0001
,
0000
0100
0000
0010
,
0010
0000
0000
1001
;

//--------------- dance-single - KAYSTAR ----------------
#NOTES:
     dance-single:
     KAYSTAR:
     Easy:
     6:
     0,0,0,0,0:
0000
0000
0000
0000
,
0000
0000
0000
0000
,
0000
0000
0000
0000
,
0000
0000
0000
0000
,
0000
0000
0000
0000
1000
0000
0000
0010
,
0000
0010
0000
0000
0001
0000
0000
0010
,
0000
0010
0000
0000
1000
0000
0000
0100
,
0000
0100
0000
0000
0001
0000
0100
0000
,
1000
0000
0000
0000
0001
0000
0000
0100
,
0000
0100
0000
0000
1000
0000
0000
0100
,
0000
0100
0000
0000
0001
0000
0000
0010
,
0000
0010
0000
0000
0200
0000
0000
0000
,
0300
0000
1000
0010
,
1000
0010
0100
0100
,
0000
0000
0001
0010
,
0001
0010
0100
0100
,
0000
0000
1000
0010
,
0100
0010
1000
0100
,
0000
0000
0010
0001
,
0100
0001
0010
0100
,
0000
0000
0000
0000
1000
0001
0100
0000
,
0000
0000
0000
0000
0010
0000
0000
0010
,
0000
0010
1000
0100
,
0010
0000
0001
0100
,
0010
0000
1000
0000
0001
1000
0100
0000
,
0000
0000
0000
0000
0010
0000
0000
0010
,
0000
0010
0001
0100
,
1000
0010
0001
0000
,
1000
0001
1000
0000
0100
0000
0000
0000
,
0100
0000
1000
0000
,
1000
0000
0001
0000
,
0001
0000
0000
0000
0100
0000
0000
0100
,
0000
0100
0010
0010
,
1000
0000
1000
0000
,
0001
0000
0001
0000
,
0010
0000
0000
0000
0100
0000
0000
0100
,
0000
0100
0000
1000
,
0000
0001
0000
1000
,
0100
0010
0001
1000
,
0000
0001
0000
1000
,
0010
0100
0001
1000
,
0000
0001
0000
1000
,
0100
0010
0001
1000
,
0000
0001
0000
0100
,
0010
1000
0001
0020
,
0000
0000
0000
0000
,
0000
0030
0000
0001
,
0000
1000
0000
0001
,
0010
0100
1000
0001
,
0000
1000
0000
0001
,
0100
0010
1000
0001
,
0000
1000
0000
0001
,
0010
0100
1000
0010
,
0000
0100
0000
0001
,
1000
0100
1000
0020
,
0000
0000
0000
0000
,
0000
0030
0000
1000
,
0100
1000
0001
0100
,
0101
0000
0000
1000
,
0010
1000
0001
0010
,
0011
0000
0000
0001
,
0010
0001
1000
0010
,
1010
0000
0000
0001
,
0100
0001
1000
0100
,
1100
0000
0000
1000
,
0100
1000
0100
0001
,
0100
0001
0100
1000
,
0010
0001
0010
1000
,
0100
0001
0100
2000
,
0000
0000
0000
3020
,
0000
0000
0000
0230
,
0000
0000
0000
0302
,
0000
0000
0000
2000
,
0000
0000
0000
0000
,
0000
0000
0000
0000
,
3003
0000
0000
0000
;

//--------------- dance-single - KAYSTAR ----------------
#NOTES:
     dance-single:
     KAYSTAR:
     Medium:
     12:
     0,0,0,0,0:
0000
0000
0000
0000
,
0000
0000
0000
0000
,
0000
0000
0000
0000
,
0000
0000
0000
0000
,
0000
0000
0000
0000
1000
0010
1000
0001
,
0010
0001
0100
0010
1000
0100
1000
0001
,
0100
0001
0010
0100
1000
0010
1000
0001
,
0010
0001
0100
0010
1000
0000
0001
0000
,
0010
0010
0010
0001
1000
0001
0100
0001
,
1000
0100
0010
0001
1000
0001
0010
0001
,
1000
0010
0100
0001
1000
0100
1000
0001
,
0100
0001
1000
0100
0100
0000
1000
0000
,
0001
0000
1000
0001
0010
0001
0000
1000
,
0000
0010
0000
0100
0000
0001
0000
0100
,
0000
0010
1000
0100
0000
0010
0000
0001
,
0000
0100
0000
1000
0000
0100
0000
0001
,
0000
0010
0100
1000
0001
0000
1001
0000
,
0000
1000
0000
0010
0000
0100
0000
0001
,
0000
0010
0001
0100
0000
0010
0000
1000
,
0000
0100
0000
0001
0000
0100
0000
1000
,
0000
0010
0100
0001
1000
0000
1100
0000
,
1000
0001
0100
0000
0010
1000
0010
0100
,
0001
0100
0010
1000
0100
0010
0001
0000
,
0100
0000
0101
0000
0001
0010
0100
1000
,
0010
0100
0001
0000
1000
0000
1010
0000
,
1000
0001
0010
0000
0100
1000
0001
1000
,
0001
1000
0001
0010
1000
0100
0001
0000
,
0010
0000
0011
0000
0001
0100
0010
1000
,
0001
1000
1001
0000
0001
0100
0010
0000
,
1000
0100
0010
0000
0001
1000
0001
1000
,
0100
0001
0100
1000
0001
0100
0020
0000
,
0100
0100
0130
0000
0001
0000
1000
0100
,
0000
0001
0100
1000
0001
0000
0011
0000
,
0010
0100
1000
0000
0010
0100
0001
1000
,
0001
0100
1000
0100
0001
1000
0100
0000
,
0010
0001
0100
0000
1000
0000
0100
0001
,
0000
0000
1000
0000
0100
0000
0000
0000
0000
0000
0000
0000
1000
0000
0000
0001
,
0000
0000
1000
0000
0001
0000
0000
0100
0000
0000
0001
0000
1000
0000
0100
0000
,
0010
0000
0001
0000
0010
0000
0100
0000
1000
0000
0000
0000
0001
0000
0000
1000
,
0000
0000
0010
0000
0100
0000
0000
0001
0000
0000
1000
0000
0001
0000
0010
0000
,
0100
0000
1000
0000
0100
0000
0010
0000
0001
0000
0000
0000
1000
0000
0000
0010
,
0000
0000
0100
0000
0001
0000
0000
0010
0000
0000
0001
0000
1000
0000
0010
0000
,
0100
0000
0001
0000
0100
0000
0010
0000
1000
0000
0000
0000
0001
0000
0000
0010
,
0000
0000
0100
0000
1000
0000
0000
0010
0000
0000
0100
0000
0001
0000
0000
0000
,
0010
0100
0000
0001
0100
1000
0020
0000
,
0000
0000
0000
0100
,
0130
0000
0000
0000
0001
0000
0000
1000
0001
0000
1000
0000
0001
0000
1000
0000
,
0100
0000
1000
0001
0100
0000
0010
1000
,
0001
0000
0010
0100
0000
0010
0100
0000
1000
0000
0000
0000
0001
0000
1000
0000
,
0010
0000
1000
0001
0010
0000
0100
1000
,
0001
0000
0100
0010
0000
0100
0010
0000
1000
0000
0001
0000
0010
0000
0001
0000
,
0100
0000
0010
1000
0100
0000
0010
0001
,
0100
0000
0010
1000
0000
0010
1000
0000
0001
0000
0000
0000
0100
0000
0001
0000
,
0010
0000
0100
1000
0010
0000
0100
0001
,
1000
0100
0000
0001
0100
1000
0020
0000
,
0000
0000
0000
0100
,
0130
0000
0010
0010
0000
1000
1000
0100
,
0010
0001
1000
0010
0100
0001
1000
0100
,
0001
0100
1000
0001
0100
0010
1000
0001
,
0010
0100
1000
0001
0100
0010
1000
0100
,
0001
0100
1000
0001
0010
0100
1000
0010
,
0100
0001
0010
0001
0100
0010
1000
0010
,
0001
0010
1000
0001
0010
0100
1000
0010
,
0100
0001
0010
0001
0100
0010
1000
0000
,
0001
0000
1000
0100
0010
0001
1000
0000
,
0010
0001
0000
0010
1000
0000
0001
0000
,
1001
1000
0010
0100
0001
1000
0001
0010
,
0100
1000
0001
0100
0010
1000
0001
0010
,
1000
0010
0001
0100
1000
0100
0002
0000
,
0000
0010
0000
1000
,
2003
0000
0000
3010
0100
0001
0020
0000
,
0000
0100
0000
0001
,
0032
0000
0000
0103
0010
2000
0002
0000
,
0000
0000
0000
0000
,
0000
0000
0000
3003
;

//--------------- dance-single - KAYSTAR ----------------
#NOTES:
     dance-single:
     KAYSTAR:
     Hard:
     14:
     0,0,0,0,0:
0000
0000
0000
0000
,
0000
0000
0000
0000
,
0000
0000
0000
0000
,
0000
0000
0000
0000
,
0000
0000
0000
0000
0001
0010
0100
0001
,
0000
0100
0000
1000
0001
0100
0010
0001
,
0000
0010
0000
1000
0001
0010
0100
0001
,
0000
0000
0100
0000
0000
0000
1000
0000
0001
0000
0000
0001
1000
0000
0000
1000
,
0001
0100
0100
0001
1000
0100
0010
1000
,
0000
0010
0000
0001
1000
0010
0100
1000
,
0000
0100
0000
0001
1000
0100
0010
1000
,
0000
0010
0000
0001
0100
0010
0100
0010
,
1000
0001
1000
0001
0010
0000
0100
0000
1000
0000
0010
0000
0100
0000
0001
0000
,
1000
0000
0010
0100
0010
0000
1000
0000
0100
0000
0010
0000
0001
0000
1000
0000
,
0100
0001
0100
1000
0001
0100
0010
1000
,
0001
0000
0100
0010
0100
0000
0001
0000
0010
0000
0100
0000
1000
0000
0001
0000
,
1000
0010
0001
0010
1000
0000
1001
0000
,
0001
0000
0010
0100
0010
0000
0001
0000
1000
0000
0010
0000
0100
0000
0001
0000
,
0010
1000
0010
0001
1000
0010
0100
0001
,
1000
0000
0010
0100
0010
0000
1000
0000
0100
0000
0010
0000
0001
0000
0100
0000
,
0001
0010
0100
1000
0001
0100
0010
0000
,
1000
0100
0010
0000
0001
1000
0010
0100
,
0001
0100
1000
0100
0001
0010
0100
0000
,
0010
0001
0100
0000
0010
1000
0100
1000
,
0010
0000
0100
0000
0001
0000
0010
0001
0010
0000
0100
0000
1000
0000
0000
0000
,
0010
0100
0001
0000
1000
0001
0010
0100
,
0001
0100
1000
0010
0100
0001
1000
0000
,
0010
1000
0100
0000
0010
0001
0100
0010
,
1000
0001
1000
0000
1001
0000
0000
0000
0001
0000
0010
0000
0100
0000
1000
0000
,
0010
0100
0010
1000
0100
0010
0001
0100
,
1000
0100
0001
1000
0100
0010
0002
0000
,
1000
1000
1003
0100
0001
0000
0100
1000
,
0000
0001
0100
0000
0010
0000
0110
0100
,
0001
0010
0001
0100
0010
1000
0100
0010
,
1000
0010
0100
1000
0010
0100
0001
1000
,
0100
0010
0001
1000
0010
0000
0001
0010
,
1000
0000
0000
0001
1000
0000
0001
0000
0000
0000
0000
0000
1000
0000
0010
0100
,
0000
0000
0001
0000
1000
0000
0010
0100
0000
0000
0001
0000
0010
0000
0001
0000
,
0100
0000
1000
0000
0100
0000
0010
0000
1000
0000
1000
0000
0001
0000
0010
0100
,
0000
0000
1000
0000
0001
0000
0010
0100
0000
0000
1000
0000
0010
0000
1000
0000
,
0100
0000
0001
0000
0100
0000
1000
0000
0001
0000
0001
0000
0100
0000
0010
1000
,
0000
0000
0001
0000
0100
0000
0010
1000
0000
0000
0001
0000
0010
0000
0001
0000
,
0100
0000
1000
0000
0100
0000
0010
0000
1000
0000
1000
0000
0010
0000
0100
0001
,
0000
0000
1000
0000
0010
0000
0100
0001
0000
0000
1000
0000
0001
0000
0010
0000
,
0100
1000
0010
0100
0001
0000
0020
0000
,
0000
0000
0000
0100
,
0130
0000
0000
0000
1001
0000
0000
1000
0001
0000
0001
0000
1000
0000
0010
0100
,
0000
0000
0001
0000
0100
0000
0010
1000
0000
0000
0001
0000
1000
0000
0100
0000
,
0001
0000
0100
0000
0010
0000
0001
0000
1000
0000
0010
0000
1000
0000
0100
0010
,
0000
0000
0001
0000
0010
0000
0100
1000
0000
0000
0001
0000
1000
0000
0010
0000
,
0001
0000
0010
0000
0100
0000
0001
0000
1000
0000
0100
0000
1000
0000
0001
0100
,
0000
0000
0010
0000
1000
0000
0010
0100
0000
0000
0001
0000
1000
0000
0100
0000
,
0001
0000
0100
0000
0010
0000
0001
0000
1000
0000
1000
0000
0010
0000
1000
0100
,
0000
0000
0010
0000
0001
0000
0010
0100
0000
0000
1000
0000
0001
0000
0100
0000
,
1000
0100
0010
1000
0001
0001
0020
0000
,
0000
0000
0000
0100
,
0130
0000
0000
0000
1000
0000
1001
0000
0000
0000
0001
0000
0100
0000
0010
1000
,
0010
0000
1000
0000
0001
0000
1000
0100
1000
0000
0001
0000
0100
0000
0010
0000
,
1000
0000
0100
0000
0000
0000
0001
0000
0100
0000
1000
0000
0010
0000
0100
0001
,
0100
0000
0001
0000
1000
0000
0001
0010
0001
0000
1000
0000
0010
0000
0100
0000
,
0001
0000
0010
0000
0000
0000
1000
0000
0010
0000
0001
0000
0100
0000
0010
1000
,
0010
0000
1000
0000
0100
0000
0010
0001
0010
0000
0001
0000
0100
0000
0010
0000
,
1000
0100
0000
0001
0100
1000
0010
0100
,
0001
0100
0010
1000
0100
1000
0010
0000
,
0110
0000
0100
0001
0010
0100
1000
0100
,
1000
0001
0100
0001
1000
0010
1000
0000
,
0001
0010
0001
0000
0010
0100
0010
0000
1000
0100
1000
0000
0001
0100
0001
0000
,
1000
0010
1000
0000
0001
0010
0001
0000
1000
0100
1000
0000
0001
1000
0010
0000
,
1000
0001
0010
0000
0001
1000
0001
0000
0100
0010
1000
0000
0002
0000
0000
0000
,
0000
0023
0000
0100
,
0100
0000
0000
0031
0100
0010
2000
0000
,
0000
3020
0000
0100
,
0100
0000
0000
1030
0100
0020
0002
0000
,
0000
0000
0000
0000
,
0000
0000
0000
0033
;

//--------------- dance-single - KAYSTAR ----------------
#NOTES:
     dance-single:
     KAYSTAR:
     Challenge:
     16:
     0,0,0,0,0:
0000
0000
0000
0000
,
0000
0000
0000
0000
,
0000
0000
0000
0000
,
0000
0000
0000
0000
,
0000
0000
0000
0000
0001
1000
0100
0002
,
0000
1000
0000
0103
1000
0001
0100
2000
,
0000
0001
0000
3100
0001
1000
0100
0002
,
0000
1000
0000
0103
0010
0000
1001
0000
,
1000
0010
0100
0010
0100
0000
0001
0000
1000
0000
0001
0000
0010
0000
2000
0000
,
0000
0001
0000
3010
0001
1000
0010
0002
,
0000
1000
0000
0013
1000
0001
0010
2000
,
0000
0000
0001
0000
0000
0000
3010
0000
0001
0000
0001
0000
1000
0000
0001
1000
,
0010
0100
0010
0100
0001
0000
1000
0000
0001
0000
0100
0000
1000
0000
0100
0000
,
0001
0000
1000
0100
1000
0000
0010
0000
1000
0000
0100
0000
0001
0000
0100
0000
,
1000
0001
0010
0100
1000
0010
0001
0010
,
1000
0000
0001
0100
0001
0000
0010
0000
0001
0000
0100
0000
1000
0000
0100
0000
,
0001
1000
0100
0010
0001
0000
1001
0000
,
1000
0000
0001
0100
0001
0000
0010
0000
0001
0000
0100
0000
1000
0000
0100
0000
,
0001
1000
0010
0100
0001
0010
1000
0010
,
0001
0000
1000
0100
1000
0000
0010
0000
1000
0000
0100
0000
0001
0000
0100
0000
,
1000
0010
0100
0001
1001
1000
0001
0010
,
0001
1000
0001
0010
0001
1000
0010
0001
,
0010
1000
0100
0010
0001
0100
1000
0100
,
0001
0000
0010
0000
0100
0000
1000
0000
0000
0001
1000
0000
0001
1000
0001
0010
,
0000
0001
1000
0000
0001
1000
0100
0010
0001
0000
1000
0000
0010
0000
1000
0000
,
0001
1000
0010
1000
0001
1000
0100
0001
,
0100
1000
0010
0100
0001
0100
1000
0100
,
0001
0000
1000
0000
0010
0000
0100
0000
0000
0001
1000
0000
0001
1000
0100
0010
,
0001
1000
1001
0000
0001
0010
1000
0010
,
0001
0100
1000
0001
0010
1000
0100
0001
,
1000
0010
0001
0100
1000
0100
0001
1000
,
1000
0001
1001
0000
1000
0100
0001
1000
,
0001
0100
1000
0000
0010
0000
0110
0010
,
1000
0100
0001
1000
0010
0001
0100
1000
,
0001
0010
1000
0100
0001
0100
1000
0010
,
0100
0001
0010
0100
1000
0010
0001
1000
,
0100
0000
0000
0001
1000
0000
0001
0000
0000
0000
0000
0000
1000
0000
0001
0010
,
0000
0010
0100
0000
1000
0000
0001
0010
0000
0000
0100
0000
0001
0000
0100
0000
,
1000
0000
0010
0000
0100
0000
0001
0000
1001
0000
1000
0000
0001
0000
1000
0010
,
0000
0010
0100
0000
0001
0000
1000
0010
0000
0000
0100
0000
1000
0000
0100
0000
,
0001
0000
0010
0000
0100
0000
1000
0000
0001
0000
0001
0000
0100
0000
0010
1000
,
0000
1000
0001
0000
0100
0000
0010
1000
0000
0000
0100
0000
0001
0000
0100
0000
,
1000
0000
0010
0000
0100
0000
0001
0000
1000
0000
1000
0000
0100
0000
0010
0001
,
0000
0001
1000
0000
0100
0000
0010
0001
0000
0000
0100
0000
1000
0000
0100
0000
,
0010
1000
0010
0100
0001
0001
0040
0000
,
0000
0000
0000
0000
0000
0030
0100
0010
,
0100
0000
0010
0000
0001
0000
0000
0100
0010
0000
1000
0000
1001
0000
0001
0010
,
0000
0010
0100
0000
1000
0000
0010
0100
0000
0000
0001
0000
1000
0000
0100
0000
,
0001
0000
1000
0000
0010
0000
0001
0000
1000
0000
1000
0000
0010
0000
1000
0100
,
0000
0100
0010
0000
0001
0000
0100
0010
0000
0000
1000
0000
0001
0000
0010
0000
,
1000
0000
0001
0000
0100
0000
1000
0000
0001
0000
0001
0000
0100
0000
0010
1000
,
0000
1000
0001
0000
0010
0000
0100
1000
0000
0000
0001
0000
1000
0000
0010
0000
,
0001
0000
1000
0000
0100
0000
0010
0000
0110
0000
0100
0000
0001
0000
1000
0100
,
0000
0100
0010
0000
0001
0000
0100
0010
0000
0000
1000
0000
0001
0000
0010
0000
,
1000
0001
0100
1000
0001
0100
0040
0000
,
0000
0000
0000
0000
,
0000
0000
0030
0000
0100
0000
0101
0000
0000
0000
1100
0000
1000
0000
0001
0100
,
0001
0000
1000
0000
0001
0000
0010
0100
0010
0100
1000
0000
0001
0000
0100
0001
,
1000
0000
0100
0000
0000
0000
0001
0000
0100
0000
1000
0000
1001
0000
0001
0010
,
0001
0000
1000
0000
0001
0000
0100
0010
0100
0010
1000
0000
0001
0000
0010
0001
,
1000
0000
0010
0000
0000
0000
0001
0000
0010
0000
1000
0000
1001
0000
0001
0100
,
0001
0000
0010
0000
0100
0000
1000
0010
1000
0010
0100
0000
0001
0000
1000
0001
,
0010
0100
0000
0001
0100
1000
0001
0010
,
0100
0000
1000
0001
0100
0000
0001
0000
1000
0001
1000
0000
1100
0000
0000
0000
,
0001
0000
0001
0000
0100
0001
0010
0000
0100
0000
1000
0000
1001
0000
0001
0000
,
0100
1000
0100
0001
0010
0100
1100
0000
,
0001
0100
0001
0100
0001
0100
0001
0100
0001
0100
0010
1000
0001
0100
0001
1000
,
0000
0100
1000
0001
0010
0001
1000
0010
0000
0100
0001
1000
0100
0010
0100
0010
,
0001
1000
0001
1000
0010
0100
0001
1000
0000
0100
1000
0001
0200
0000
0000
0000
,
0000
0001
0000
0010
,
0010
0000
0000
1300
0100
0001
0020
0000
,
0000
0001
0000
0100
,
0100
0000
0000
1030
0010
0001
2002
0000
,
0000
0000
0000
0000
,
0000
0000
0000
3003
;
