#VERSION:0.83;
#TITLE:SECRET\;WEAPON;
#SUBTITLE:;
#ARTIST:NOMA;
#TITLETRANSLIT:;
#SUBTITLETRANSLIT:;
#ARTISTTRANSLIT:;
#GENRE:;
#CREDIT:;
#MUSIC:SECRET\;WEAPON.ogg;
#BANNER:;
#BACKGROUND:;
#CDTITLE:;
#SAMPLESTART:49.318;
#SAMPLELENGTH:15.000;
#SELECTABLE:YES;
#OFFSET:-0.055;
#BPMS:0.000=190.000
,4.000=95.000
,20.000=190.000
,44.000=95.000
,48.000=190.000
,72.000=95.000
,75.000=190.000
,76.000=95.000
,80.000=190.000
,88.000=95.000
,92.000=190.000
,187.000=95.000
,219.000=47.500
,227.000=95.000
,243.000=190.000
;
#STOPS:75.000=0.079
,75.250=0.079
,75.500=0.079
,75.750=0.079
,116.000=1.263
,184.000=1.579
;
#BGCHANGES:;
#FGCHANGES:;

//--------------- dance-single - eataninja ----------------
#NOTEDATA:;
#STEPSTYPE:dance-single;
#DESCRIPTION:eataninja;
#DIFFICULTY:Beginner;
#METER:5;
#RADARVALUES:0,0,0,0,0;
#NOTES:
0000
0000
0000
0000
,
0000
0000
0000
0000
,
0000
0000
0000
0000
,
1000
0001
1001
0000
,
0001
0010
0100
0100
,
0010
0000
0000
0000
,
0001
0000
0000
0000
,
1000
0000
0000
0000
,
0010
0000
0000
0000
,
0100
0000
0001
0000
,
1000
0000
0100
0000
,
0010
0000
0001
0001
,
1000
0000
0000
0000
,
0010
0000
0000
0000
,
1000
0000
0000
0000
,
0001
0000
0000
0000
,
0010
0000
0100
0000
,
1000
0000
0010
0000
,
0100
0000
0100
0200
,
0300
1001
0001
0000
,
0100
0100
0000
0001
,
0000
1000
0000
0100
,
0000
1001
1000
0000
,
0010
0010
0000
1000
,
0000
0001
0000
0010
,
0010
0000
0100
0000
,
1000
0000
0001
0000
,
0100
0000
0100
0000
,
0010
0000
0010
0000
,
2002
0000
3003
0000
,
1000
0000
0100
0000
,
0001
0000
0100
0000
,
0010
0000
0001
0000
,
1000
0000
1000
0000
,
0010
0000
0100
0000
,
0001
0001
0001
0000
,
1000
0000
0100
0000
,
0010
0000
0000
0000
,
0001
0000
0010
0000
,
1000
0000
0010
0000
,
0100
0000
1000
0000
,
0001
0000
0001
0000
,
0100
0000
0010
0000
,
1000
1000
1000
0000
,
0001
0000
0010
0000
,
0100
0100
0100
0000
,
2002
3003
0000
1000
,
0010
0100
0000
0001
,
0010
0010
0000
0001
,
0100
0010
0000
1000
,
0001
0020
0230
1300
,
0001
0100
0000
0001
,
0001
0001
0000
0010
,
0100
1000
0000
0001
,
1000
0020
0230
0302
,
0000
2003
0000
3200
,
0000
0320
0000
0032
,
0000
2003
0000
3020
,
0000
0230
0000
0302
,
0000
2003
0000
3002
,
0000
0003
1001
1000
,
0000
0001
0000
0100
,
0000
1000
0000
0100
,
0000
0010
0000
1000
,
0000
0001
0000
0010
,
0000
0100
0000
1000
,
1000
1000
0000
0001
,
0000
0100
0000
0010
,
0000
0000
0000
0010
,
0000
0001
0000
0010
,
0000
1000
0000
0010
,
0000
0100
0000
0001
,
0000
1000
0000
0100
,
0100
0100
0000
0010
,
0010
0010
0000
0001
,
0000
1000
0000
0010
,
0010
0010
0000
2002
,
0000
0000
0000
3003
;

//--------------- dance-single - eataninja ----------------
#NOTEDATA:;
#STEPSTYPE:dance-single;
#DESCRIPTION:eataninja;
#DIFFICULTY:Easy;
#METER:9;
#RADARVALUES:0,0,0,0,0;
#NOTES:
0000
0000
0000
0000
,
0000
0000
0000
0000
,
0000
0000
0000
0000
,
2001
0000
3010
0000
1000
1000
0001
0000
,
0010
0000
0100
0000
0020
0032
0023
0032
,
1003
0002
2003
3020
,
0130
0100
0001
0001
,
1000
0200
0320
0032
,
1003
1000
0010
0100
,
1000
0100
0010
1000
,
0001
0010
0100
1000
,
1002
0000
0103
0000
0001
0001
1000
0000
,
0100
0020
0032
2003
,
3010
0010
0100
0100
,
0001
2000
3020
2030
,
3001
0100
0001
0010
,
1000
0010
0100
1000
,
0001
0100
0001
1000
,
1002
0000
0103
0000
0001
0010
0200
0000
,
1300
0000
1001
0000
0001
0100
0001
0000
,
1000
1010
0000
1000
,
0001
0011
0000
0010
,
0001
0000
1001
0000
1000
0010
1000
0000
,
0001
0101
0000
0001
,
1000
1100
0000
1000
,
0001
0011
0000
0001
,
1000
1010
0000
0010
,
0100
0100
0001
0001
,
1000
0100
0010
0001
,
0200
0000
0301
0110
,
0020
2030
3002
2003
,
3200
0320
0032
1003
,
0010
0001
0010
0010
,
0100
0000
0001
0000
1000
0000
0100
0100
,
0100
0010
0001
1000
,
0010
0100
0010
1000
,
0001
0010
0100
0001
,
0100
0100
2000
3020
,
0230
0302
2003
3002
,
0023
0230
2300
3001
,
0100
1000
0100
0100
,
0010
0000
1000
0000
0001
0000
0010
0010
,
0010
0100
1000
0001
,
0100
0010
0100
0001
,
1000
0001
1000
0000
0001
0010
0001
0000
,
1000
0000
1100
0000
0001
0100
0000
0020
,
0000
0100
0130
2001
,
0100
0000
0001
0001
3001
0000
0100
0000
,
0010
0000
0100
0100
0001
0000
1002
0000
,
0010
0000
1000
1000
0103
0000
0001
0000
,
1000
0100
0020
0032
0203
0320
2030
0000
,
0001
0000
0100
0100
3100
0000
0010
0001
,
0011
0000
0011
0000
0100
0010
1002
0000
,
0010
0000
0100
0100
0103
0000
0001
0010
,
0100
1000
0002
0203
0302
0203
0320
0000
,
2030
3002
0023
0230
,
2300
3002
0203
0320
,
0000
0230
0000
0302
,
0000
2003
0000
3200
,
0000
0302
0000
0203
,
0000
0000
0310
1001
1000
0000
0002
0000
,
2003
3020
0230
0302
,
0023
0230
1300
0100
,
0001
0100
0100
0010
,
0001
0000
1000
0000
0010
0010
0010
0000
,
0100
0001
0010
0100
,
0010
0001
1000
0010
,
0001
0010
1000
0001
,
0001
2000
3200
2300
,
3002
0203
0320
2030
,
3200
0320
0031
0010
,
1000
0010
0010
0100
,
1000
0000
0001
0000
0100
0000
0010
0100
,
0010
0000
1000
0000
0001
0000
0010
0100
,
0010
0000
0001
0000
1000
0000
0001
0100
,
0001
0000
1000
0100
1000
0000
0001
0000
,
0011
0000
1000
0010
0000
0200
0000
0000
,
0000
0000
0000
0300
;

//--------------- dance-single - eataninja ----------------
#NOTEDATA:;
#STEPSTYPE:dance-single;
#DESCRIPTION:eataninja;
#DIFFICULTY:Medium;
#METER:11;
#RADARVALUES:0,0,0,0,0;
#NOTES:
0000
0000
0000
0000
,
0000
0000
0000
0000
,
0000
0000
0000
0000
,
0102
0000
0000
0000
1003
0000
0001
0000
0010
0000
0000
0010
0100
0000
0000
0000
,
1000
0000
0001
0001
0200
0320
0230
0320
,
1030
0001
0000
0100
0000
0001
0000
1000
,
0000
0100
0000
0100
0000
0010
0000
0010
,
0001
1000
0000
0010
0000
1000
0000
0001
,
0000
0010
0000
0010
0000
0100
0000
0100
,
1000
0001
0000
1000
0000
0010
0000
0100
,
0001
1000
0000
0100
0000
0010
0000
0001
,
2000
0000
3010
0100
0010
0010
1001
0000
,
0001
1000
0000
0100
0000
1000
0000
0001
,
0000
0100
0000
0100
0000
0010
0000
0010
,
1000
0001
0000
0010
0000
0001
0000
1000
,
0000
0010
0000
0010
0000
0100
0000
0100
,
0001
1000
0000
0100
0000
0010
0000
0001
,
1000
0010
0000
0100
0000
1000
0000
0100
,
0010
0000
1010
0000
0001
1000
0200
0000
,
0310
0000
0000
0010
0001
0000
0000
0000
1000
0010
0000
0010
0100
0000
0000
0000
,
0001
0000
1001
0000
0000
0010
0100
0010
,
0000
0000
1001
0000
0000
0010
0010
0000
,
0100
0000
0000
0000
0000
0000
0100
0000
0010
0000
0000
0000
0000
0000
0000
0000
0001
0000
0000
1000
0000
0000
1000
0000
0010
0000
0000
0000
0000
0000
0000
0000
,
0100
0000
1001
0000
0000
0001
0010
0000
,
0100
0000
1001
0000
0000
1000
0010
0000
,
0100
0000
0101
0000
0000
1000
0100
0000
,
0010
0000
0011
0000
0000
1000
0010
0000
,
0100
0010
0100
0000
0001
1000
0001
0000
,
0010
0100
0010
0100
1000
0001
1000
0001
,
0200
0300
0110
0000
0010
1000
0100
0000
,
0002
0000
0103
0010
0100
0000
2000
0000
,
3100
0010
0100
0000
0001
0100
1000
0000
,
0010
0000
0100
0001
1000
0001
0100
0000
,
0010
1000
1100
1001
,
0001
0000
0100
0000
1000
0100
1000
0000
,
0100
0000
0001
0000
0010
0100
1000
0000
,
0010
0000
0100
0001
1000
0000
0100
0010
,
0001
1000
0010
0100
,
2000
0000
3100
0010
0100
0000
0002
0000
,
0103
0010
0100
0000
1000
0100
0001
0000
,
0010
0000
0100
1000
0001
1000
0100
0000
,
0010
0001
0101
1001
,
1000
0000
0100
0000
0001
0100
0001
0000
,
0100
0000
1000
0000
0010
0100
0001
0000
,
0010
0000
0100
0000
1000
0001
0100
0000
,
1000
0100
0001
0000
0100
0010
0100
0001
,
2000
0100
3001
0012
,
1003
0000
0010
0000
0100
0000
0100
0000
0001
1000
0001
0000
0010
0000
0100
0000
,
1000
0000
0000
1000
0000
0000
1000
0000
0001
0000
0000
0001
0000
0000
0001
0000
0100
0000
0000
0000
0020
0000
0000
0000
1030
0000
0000
0000
0001
0000
0000
0000
,
0010
0000
0100
0010
0001
0000
0001
0000
1000
0010
1000
0000
0001
0000
0100
0000
,
0110
1001
2000
3200
0302
0203
2300
0000
,
3001
0000
0100
0000
0010
0100
0010
0000
1000
0001
1000
0000
0001
0000
0010
0000
,
0100
0001
0000
0001
0100
0001
0000
0001
0100
0000
0020
0000
0031
0000
1000
0000
,
0010
0100
0001
0000
1000
0000
1000
0000
0001
0010
0001
0000
0010
0000
0100
0000
,
1000
0001
0100
0000
0020
0000
0230
0000
0320
0000
0230
0000
0302
0000
0000
0000
,
2003
3200
0320
0032
,
2003
3020
0230
0320
,
1000
0000
0100
0100
1030
0000
0020
0000
,
0001
0000
0100
0100
1030
0000
0002
0000
,
0010
2003
0010
3002
,
0100
0000
1003
1001
1000
0010
0002
0000
,
0013
0100
0010
0000
2000
0000
3010
0100
,
0010
0000
1000
0001
0010
0100
1000
0000
,
0010
0100
0010
1000
0001
0000
1000
0000
,
0001
0011
1100
1000
,
0001
0000
0100
0010
1000
0000
0001
0000
,
0010
0000
0100
0010
0001
0000
1000
0000
,
0010
0100
0010
0000
0100
0001
1000
0100
,
0010
0001
0010
2000
,
3010
0100
0010
0000
0002
0000
0013
0100
,
0010
0000
0001
1000
0010
0100
0001
0000
,
0010
0100
0010
0001
1000
0000
0001
0000
,
1000
0000
1010
0000
0101
0000
0001
0001
,
0001
0000
1000
0010
1000
0000
0001
0001
,
0001
0000
1000
0100
1000
0000
0001
0010
,
0100
0000
1000
0010
0100
0000
0001
1000
,
0001
1000
0100
0010
0001
1000
0020
0000
,
0000
0000
0000
0030
;

//--------------- dance-single - eataninja ----------------
#NOTEDATA:;
#STEPSTYPE:dance-single;
#DESCRIPTION:eataninja;
#DIFFICULTY:Hard;
#METER:14;
#RADARVALUES:0,0,0,0,0;
#NOTES:
0000
0000
0000
0000
,
0000
0000
0000
0000
,
0000
0000
0000
0000
,
1000
0000
0000
0000
0000
0000
1000
0000
1010
0000
0000
0000
0001
0000
0000
0000
0010
0000
0000
0100
0000
0000
0010
0000
0001
0000
1000
0000
0010
0000
0000
0000
,
0100
0000
0000
0001
1001
0000
1000
0000
0200
0000
0320
0000
0230
0000
0320
0000
,
0031
1000
0010
1000
0001
1000
0010
1000
,
0100
0010
0001
0001
1000
0010
0100
0000
,
0010
0100
0001
0100
0010
0100
1000
0100
,
0001
1000
0001
0001
1000
0100
0010
0010
,
0001
1000
1010
0000
1000
0001
0011
0000
,
0001
1000
1100
0000
1000
0001
0101
0000
,
2001
0000
0000
0000
0010
0000
3002
0000
0013
0100
0010
0000
2001
0000
3020
0000
,
0130
0001
1000
0001
0010
0001
1000
0001
,
0010
0100
1000
1000
0001
0100
0010
0000
,
0100
0010
0100
0001
0100
0010
0100
1000
,
0100
0001
1000
1000
0001
0010
0100
0100
,
1000
0001
0011
0000
0001
1000
1010
0000
,
1000
0001
0101
0000
0001
1000
1100
0000
,
1002
0000
0000
0000
0000
0000
0000
0000
0010
0000
0000
0000
2003
0000
0000
0000
3100
0000
0000
0100
0000
0000
0100
0000
2000
3000
2000
3000
0002
0003
0002
0003
,
2010
0000
0000
0010
3001
0000
0000
0001
0010
0010
0000
0010
1001
0000
0000
1000
,
0010
0100
0001
1000
0000
0001
0100
0001
,
0000
0001
0010
0100
0000
0100
1001
0000
,
0102
0000
0000
0000
0000
0000
0100
0000
1003
0000
0000
0000
0000
0000
1000
0000
0100
0000
0000
0100
0000
0000
0100
0000
1001
0000
0000
0000
0000
0000
0001
0000
,
1000
0010
0100
0010
0000
0010
1010
0000
,
0001
1000
0100
1000
0000
1000
1100
0000
,
0001
1000
0010
0001
0000
0010
0110
0000
,
1000
0001
0010
1000
0000
0010
0110
0000
,
1000
0001
1000
0001
0010
0001
0010
0001
,
1000
0010
0100
0001
0010
0100
1000
0010
,
2002
0000
3003
0000
1010
0000
0000
0000
0001
1000
0001
1000
0001
0000
0000
0000
,
0020
0100
0130
2000
0001
3001
0200
0001
,
0301
0020
0100
0130
1000
0001
0100
0010
,
1000
0100
0001
0001
0100
0010
0001
1000
,
0010
0100
0010
1000
0001
0010
0100
1000
,
1100
0000
1000
0001
0100
0010
0100
0000
,
0101
0000
0001
1000
0100
0010
0100
0000
,
1100
0000
1000
0010
0100
0000
1000
0100
,
0001
0100
0010
0000
1000
0001
0010
0000
,
0002
1000
1003
0200
0010
0310
0002
0010
,
0013
0002
1000
1003
0010
0100
0001
1000
,
0001
0010
1000
1000
0010
0100
1000
0001
,
0100
0010
0100
0001
1000
0100
0010
0001
,
0011
0000
0010
0100
0010
0001
1000
0000
,
1010
0000
0010
0100
0010
1000
0001
0000
,
0100
0100
0010
0010
1000
1000
0001
0001
,
0010
0100
0001
0100
1000
0001
0100
0010
,
2001
0000
0000
0000
3001
0010
0001
0010
0001
0000
0000
0000
2100
0000
0000
0000
,
3001
0000
0001
0000
0100
0000
0010
0000
0200
0000
0000
0000
0301
0000
0001
0000
1000
0000
0100
0000
0001
0000
0000
0000
0100
0000
0000
0010
0000
0000
0001
0000
,
1000
0000
0000
1000
0000
0000
0010
0000
1000
0000
0000
1000
0000
0000
0001
0000
0010
0000
0100
0000
0010
0000
0000
0000
0012
0000
0000
0000
0000
0000
0000
0000
,
1003
0000
0010
0000
1000
0000
1000
0000
0001
0000
0000
0010
0000
0000
0100
0000
1000
0000
0010
0000
0001
0000
0000
0000
0010
0000
0000
0100
0000
0000
0001
0000
,
1000
0100
0010
0000
0002
2003
3002
0203
0320
0032
0023
1030
2010
0000
0000
0000
,
0001
0000
0000
0000
3200
0000
0000
0000
0310
0000
0001
0000
1000
0000
1000
0000
0010
0000
0100
0000
1000
0000
0000
0000
0100
0000
0000
0010
0000
0000
0010
0000
,
1000
0001
0000
0000
1100
0000
0000
0000
0001
1000
0000
0000
0101
0000
0000
0000
1000
0000
0010
0000
0100
0000
0000
0000
0102
0000
0000
0000
0000
0000
0000
0000
,
1003
0000
0100
0000
0010
0000
0010
0000
0001
0000
0000
1000
0000
0000
0010
0000
1000
0000
0100
0000
0001
0000
0000
0000
0100
0000
0000
0010
0000
0000
0001
0000
,
1000
1000
0010
0010
0200
0000
0320
0000
0230
0000
0320
0000
2030
0000
0000
0000
,
0002
3000
0020
0003
0200
0030
0002
0300
,
0200
0003
2000
0300
0020
3000
0130
0001
,
0101
1000
0001
0010
0011
1000
0100
0010
,
0011
1000
0010
0100
0101
0001
0010
0100
,
1100
0001
1000
0010
1010
0001
0100
0010
,
1000
0000
0001
0000
0000
0000
0010
0000
0100
0000
0000
0000
2001
0000
0000
0000
3001
0100
0001
0100
0001
0000
0000
0000
2000
0000
0000
0000
0010
0000
0000
0000
,
3010
0200
0001
0301
0020
1000
1030
0020
,
0100
0130
1000
0001
0100
1000
0100
0010
,
1000
1000
0001
0010
0100
1000
0001
0100
,
0010
1000
0001
0010
0100
0010
0001
1000
,
0010
1000
0001
0010
0100
1000
0001
0100
,
0001
1000
0010
0100
0001
1000
0100
0010
,
0001
0001
1000
0010
0001
0010
0100
0001
,
0010
0100
1000
0001
0101
0000
2000
0001
,
3001
0020
0100
0130
0002
0100
0103
2000
,
0001
3001
1000
0010
0001
0010
0100
0001
,
1000
1000
0100
0010
0001
1000
0010
0100
,
0010
1000
0001
0010
0100
1000
0001
0001
,
1000
1000
0010
0100
0010
1000
0001
0001
,
1000
1000
0100
0010
0100
1000
0001
0100
,
1000
0100
0001
0100
1000
0100
0010
1000
,
0100
0001
0100
0010
0001
0100
2002
0000
,
0000
0000
0000
3003
;

//--------------- dance-single - eataninja ----------------
#NOTEDATA:;
#STEPSTYPE:dance-single;
#DESCRIPTION:eataninja;
#DIFFICULTY:Challenge;
#METER:17;
#RADARVALUES:0,0,0,0,0;
#NOTES:
0000
0000
0000
0000
,
0000
0000
0000
0000
,
0000
0000
0000
0000
,
0021
0000
0000
0000
1000
0000
0000
0000
0130
0000
0010
0000
0001
1000
0001
1000
0001
0000
0000
0100
0000
0000
0001
0000
0010
0000
0100
0000
2000
0000
0000
0000
,
3010
0000
0000
0100
0000
0001
0000
0010
0100
0000
1000
0000
0001
0100
0001
0000
2000
0000
0000
0000
3020
0000
0000
0000
2030
0000
0000
0000
3002
0000
0000
0000
,
0013
0100
1000
0100
0010
0001
1000
0001
,
0100
1000
0100
0100
0010
1000
0001
1000
,
0100
0010
0001
1000
0010
0100
0001
1000
,
0100
0001
0100
0100
0010
0001
1000
0010
,
0100
0001
0101
0100
0010
1000
0001
0010
,
0100
1000
1100
0100
0010
0001
1000
0010
,
1002
0000
0000
0000
0100
0000
2003
0000
3001
0001
0010
0010
0100
0001
0200
0000
,
1300
0001
0100
0001
1000
0010
0100
0010
,
1000
0100
0001
0001
0100
0010
0001
1000
,
0010
0100
0001
1000
0100
0010
0001
1000
,
0010
0001
0010
1000
0001
1000
0100
0100
,
0010
0001
0011
0010
0100
1000
0001
0100
,
0010
1000
1010
0010
0100
0001
1000
0100
,
2001
0000
0000
0000
0000
0000
0000
0000
0100
0000
0000
0000
3002
0000
0000
0000
1003
0000
0000
0010
0000
0100
0010
0000
0200
0300
0200
0300
0200
0300
0200
0300
,
0001
0000
0000
0000
0000
0000
0001
0000
0101
0000
0000
0000
0000
0000
1000
0010
1000
0000
0001
0000
0000
0000
0010
0000
0110
0000
0000
0100
0000
0000
1000
0000
,
0001
0100
0110
1000
0000
0001
1001
1000
,
0000
0100
0110
0001
0000
0001
1001
0000
,
1000
0000
0000
0000
0000
0000
1000
0000
1010
0000
0000
0000
0000
0000
0000
0000
0001
0000
0000
0010
0000
0000
0010
0000
1001
0000
0000
0000
0000
0000
1000
0000
,
0100
0010
0011
1000
0000
1000
1010
0000
,
0010
0100
0101
1000
0000
1000
1100
0000
,
1000
0001
0110
1000
0000
1000
1010
0000
,
0001
1000
0110
0001
0000
0001
0011
0000
,
1000
1000
0001
0001
0100
0100
0010
0010
,
1000
0010
1000
0000
0001
0010
0001
0000
1000
0100
0010
0001
1000
0001
0100
0010
,
2000
0000
3000
0000
0012
0000
0000
0000
1003
0100
1000
0100
0010
0000
0000
0000
,
0001
0000
1000
0010
1000
0000
0001
0000
0100
0010
0100
0000
1000
0000
0100
0010
,
0100
0000
0001
0000
1000
0010
1000
0000
0001
0000
0010
0000
1000
0000
0010
0000
,
0100
0000
0010
0001
1000
0000
1000
0000
0010
0000
0100
0000
0001
0000
1000
0000
,
0100
0000
0010
0000
0001
0000
0001
0000
1000
0000
0010
0100
0010
0000
0100
0000
,
1000
0000
0100
0000
0001
0000
1000
0000
0100
0000
0010
0001
0010
0000
0100
0000
,
0001
0000
0100
0000
1000
0000
1000
0000
0001
0000
1000
0010
1000
0000
0001
0010
,
0001
0000
1000
0000
0010
0000
0100
0010
1000
0000
0001
0010
0100
0000
0001
0000
,
1000
0010
0100
1000
0001
0100
0110
0000
,
1000
0000
0001
0100
0001
0000
1000
0000
0010
0100
0010
0000
0001
0000
0010
0100
,
0010
0000
1000
0000
0001
0100
0001
0000
1000
0000
0100
0000
0001
0000
0100
0000
,
0010
0000
0100
1000
0001
0000
0001
0000
0100
0000
0010
0000
1000
0000
0001
0000
,
0010
0000
0100
0000
1000
0000
1000
0000
0001
0000
0100
0010
0100
0000
0010
0000
,
0001
0000
0010
0000
1000
0000
0001
0000
0010
0000
0100
1000
0100
0000
0010
0000
,
1000
0000
0010
0000
0001
0000
0001
0000
1000
0000
0001
0100
0001
0000
1000
0100
,
1000
0000
0001
0010
0100
0000
1000
0001
0100
0000
1000
0000
0100
0000
0010
0100
,
0001
1000
0001
0000
1000
0100
1000
0000
0001
0010
0100
1000
0001
1000
0010
0100
,
0002
0000
0000
0000
1003
0100
1000
0100
0001
0000
0000
0000
2100
0000
0000
0000
,
3001
0000
0000
0000
1000
0010
1000
0010
0100
0000
0100
0000
0001
0100
0001
0100
0010
0000
1000
0000
0200
0000
0300
0000
0011
0000
0000
0001
0000
1000
0010
0000
,
0100
0000
1000
0100
0000
1000
0100
0000
0010
0000
1000
0001
0000
1000
0001
0000
0010
0100
1000
0000
0020
0000
0030
0000
0210
0000
0000
0000
0301
1000
0001
1000
,
0100
0000
0001
0000
0100
0010
0100
0010
0001
0000
0000
0001
0000
0000
0100
0000
1000
0000
0001
0000
0020
0000
0030
0000
0110
0000
0000
0100
0000
0001
0000
1000
,
0100
0000
0001
0000
0100
0010
0100
0010
0002
0000
2003
0000
3020
0000
0230
0000
2300
0000
3002
0000
0023
0000
0130
0001
1000
0000
0000
0000
1010
0000
0000
0000
,
0001
0000
0000
0000
0011
0000
0000
0000
1000
0000
0001
0000
0010
0001
0010
0001
1000
0000
0010
0000
0200
0000
0300
0000
0010
0000
0000
1000
0000
0010
0000
0100
,
0010
0100
0010
0000
1000
0001
0000
0010
0100
0010
0100
0000
1000
0001
0000
0100
1000
0000
0001
0000
0020
0000
0030
0000
0110
0000
0000
0000
0100
0001
0100
0001
,
1000
0000
0100
0000
0010
0001
0010
0001
0100
0000
0000
0010
0000
0000
0100
0000
0001
1000
0100
0000
0020
0000
0030
0000
1001
0000
0000
1000
0000
0010
0000
0100
,
0010
0000
0010
0000
1000
0001
1000
0001
0020
0000
0000
0000
0230
0000
0000
0000
2300
0000
0000
0000
3002
0000
0000
0000
2003
0000
0000
0000
0010
0000
0000
0000
,
3200
0001
2300
0010
3002
0100
0023
1000
,
0230
0001
2300
0010
3002
1000
0103
0010
,
0110
0000
0100
0000
0001
1000
0001
0000
0011
0000
0010
0100
1000
0000
0001
0000
,
1001
0000
1000
0000
0010
0100
0010
0000
0110
0000
0100
0001
1000
0100
0010
0000
,
0011
0000
0010
0100
1000
0001
0100
0000
0101
0000
0001
1000
0010
0100
1000
0000
,
0100
0000
0010
0000
1000
0000
0000
0000
0001
0000
0000
0000
1001
0000
0000
0000
1000
0010
1000
0010
0100
0000
0000
0000
0001
0000
0000
0000
1000
0000
0010
0000
,
0100
0000
0001
0000
1000
0100
0010
0000
1000
0000
0010
0100
1000
0000
0001
0000
,
1000
0010
1000
0000
0010
0000
0001
0000
1000
0000
0100
0000
0010
0000
0100
0001
,
1000
1000
0100
0010
0001
1000
0010
0100
,
0010
0000
1000
0000
0001
0000
0010
0100
0001
0000
0100
0010
0001
0000
1000
0000
,
0010
0000
0100
1000
0100
0000
0010
0000
0100
0001
1000
0000
0100
0000
0010
0000
,
0001
0000
0100
0010
0100
0000
1000
0100
0010
0000
1000
0001
0010
0000
0100
0000
,
1000
0000
0001
0010
0001
0000
1000
0010
0001
0000
1000
0000
0100
0000
0010
0000
,
1000
0000
0001
0000
0010
0000
0100
0000
1100
0000
0000
0000
1000
0000
0001
0100
,
0010
0000
1000
0000
0001
0010
0100
0000
0001
0000
0100
0010
0001
0000
1000
0000
,
0001
0100
0001
0000
0100
0000
1000
0000
0001
0000
0010
0000
0100
0000
0010
1000
,
0001
0001
0010
0100
1000
0001
0100
0010
,
0100
0000
0001
0000
1000
0000
0100
0010
1000
0000
0010
0100
1000
0000
1000
0000
,
0001
0000
0001
0000
0100
0000
0100
0000
0010
0000
1000
0001
0010
0000
0010
0000
,
0100
0000
0100
0000
1000
0000
1000
0000
0001
0000
1000
0010
0100
0010
0100
0000
,
0001
0100
0001
0000
1000
0100
1000
0000
0100
0010
0100
0000
0010
0001
0100
0000
,
1000
0000
0100
0000
0010
0100
0001
1000
0100
0010
0001
1000
0020
0000
0000
0000
,
0000
0000
0000
0030
;
