#TITLE:Romantic Travel;
#SUBTITLE:;
#ARTIST:RUQOA;
#TITLETRANSLIT:;
#SUBTITLETRANSLIT:;
#ARTISTTRANSLIT:;
#GENRE:Happycore;
#CREDIT:darkanine;
#MUSIC:Romantic Travel.ogg;
#BANNER:Romantic Travel.png;
#BACKGROUND:Romantic Travel-bg.png;
#CDTITLE:;
#SAMPLESTART:29.091;
#SAMPLELENGTH:23.273;
#SELECTABLE:YES;
#OFFSET:0.000;
#BPMS:0.000=165.000;
#STOPS:;
#BGCHANGES:;
#FGCHANGES:;

//--------------- dance-single - darkanine ----------------
#NOTES:
     dance-single:
     :
     Hard:
     12:
     0,0,0,0,0:
0000
0000
0000
0000
,
0000
0000
0000
0000
,
0000
0000
0000
0000
,
0000
0000
0000
0000
0000
0001
0100
0010
,
2000
0000
0000
0000
,
0000
0000
0000
0000
3020
0000
1030
0002
,
0000
0000
0000
0000
,
0000
0103
0001
1000
0002
0000
0103
0020
,
0000
0000
0000
0230
,
0302
0000
0013
0200
0000
2300
0000
3100
,
0020
0000
0000
0000
0031
0000
2000
0000
0000
0000
3020
0000
0000
0000
0130
0001
,
2000
0000
0000
0000
0000
0000
3001
0100
,
0020
0000
0000
0000
0000
2030
0000
3200
,
0000
2300
0000
3020
0000
0230
0000
0302
,
0000
0000
0000
0000
0000
0000
0023
0000
0000
0000
0230
0000
0000
0000
0310
0001
,
2000
0000
0000
0000
0000
3010
0100
0001
,
0020
0000
0031
2000
0000
3200
0000
0320
,
0000
0032
0000
0023
0000
0130
1000
0002
,
0000
0000
0000
0000
,
1003
0010
0000
0010
0100
0000
0100
0001
0000
0000
0000
0000
0000
0000
0000
0000
,
1000
0000
1010
0000
0100
0010
1000
0100
,
0010
0001
0010
1000
0010
0100
1000
0001
,
1000
0000
1100
0000
0100
1000
0001
0010
,
1000
0000
0010
0001
0000
1000
0000
0010
,
0100
0001
0100
0010
1000
0100
1000
0001
,
0010
1000
0010
0001
1000
0100
0010
0001
,
0100
0000
1000
0100
0000
0001
0000
0010
,
0000
0100
1000
0000
1000
0000
0000
0000
,
0001
0000
0011
0000
0100
0010
0001
0100
,
0010
1000
0010
0001
0010
0100
0001
1000
,
0001
0000
0101
0000
0100
0001
1000
0010
,
0001
0000
1000
0100
0000
0001
0000
0010
,
0100
1000
0100
0010
0001
0100
0001
0010
,
1000
0010
0001
0100
0010
1000
0001
1000
,
0100
0000
0001
0100
0000
1000
0000
0010
,
0000
0100
0001
0000
0002
0000
0100
0000
,
1003
0000
0000
0000
,
0000
0000
0000
0000
0000
0001
0100
0010
,
2000
0000
0000
0000
,
0000
0000
3000
0001
0020
0000
0130
2000
,
0000
0000
0000
0000
,
0000
0000
0000
3001
0020
0000
1030
0002
,
0000
0000
0000
0203
,
0320
0000
0031
2000
0000
3020
0000
0130
,
0010
0000
1000
0000
0001
0000
0100
0000
0000
0000
2000
0000
0000
0000
3100
0010
,
2000
0000
0000
0000
0000
0000
0000
0000
0000
0000
3000
0000
0000
0000
1000
0100
,
0020
0000
0000
0000
0000
0032
0000
0203
,
0000
0302
0000
0023
0000
0230
0000
2300
,
0000
0000
0000
0000
0000
0000
3020
0000
0000
0000
0230
0000
0000
0000
0000
0310
,
2000
0000
0000
0000
0000
3001
0100
0010
,
2000
0000
3010
0200
0000
0302
0000
2003
,
0000
3020
0000
2030
0000
3100
0010
0002
,
0000
0000
0000
0000
,
0000
0000
0000
0000
,
0103
0001
0010
0001
,
0100
1000
0010
1000
,
0100
0001
0010
1000
,
0001
0100
1000
0001
,
0100
0100
1000
0100
0100
0001
1000
0001
,
0010
0010
1000
0010
0010
0001
1000
0001
,
0100
0010
0100
0010
1000
0001
1000
0001
,
1000
0010
0000
0010
0100
0000
0100
0001
0000
0000
0000
0000
0000
0000
0000
0000
,
1000
0000
0101
0000
0010
0100
0001
0010
,
1000
0010
0001
1000
0100
0001
0100
1000
,
0010
0000
0110
0000
1000
0100
0001
0010
,
0100
0000
0001
0100
0000
1000
0000
0001
,
0010
0100
0001
0100
0010
0100
1000
0001
,
0100
1000
0100
0010
0100
0001
1000
0100
,
0010
0000
0001
0010
0000
0100
0000
0001
,
0000
0100
2000
0000
0100
0000
3000
0000
,
0001
0000
1100
0000
0010
0100
1000
0010
,
0001
0010
1000
0001
0100
1000
0100
0001
,
0010
0000
0110
0000
0001
0100
1000
0010
,
0100
0000
1000
0001
0000
0010
0000
1000
,
0100
0010
0100
0001
0100
1000
0010
0001
,
0010
0100
0001
0010
0100
1000
0100
0010
,
0001
0000
1000
0010
0000
0100
0000
1000
,
0000
0100
0002
0000
1000
0000
0003
0000
,
1000
0000
0001
0010
0100
0010
0001
1000
,
0010
0100
0001
0010
0100
1000
0010
0100
,
0010
0100
0001
0100
0001
1000
0100
0010
,
0001
0010
0100
1000
0010
0100
0001
0010
,
0001
1000
0010
0100
0001
0010
0100
1000
,
0100
1000
0010
0100
0001
1000
0001
1000
,
0200
0010
0000
0310
,
0200
0000
0301
0200
0000
0000
1300
0000
,
0001
0000
0000
0000
;

//--------------- dance-single - darkanine ----------------
#NOTES:
     dance-single:
     :
     Challenge:
     13:
     0,0,0,0,0:
0000
0000
0000
0000
,
0000
0000
0000
0000
,
0000
0000
0000
0000
,
0000
0000
0000
0000
,
0000
0000
0000
0000
0000
1000
0100
0010
,
0001
0000
0000
0000
,
0000
0000
0000
0000
0000
0001
0010
0100
,
1000
0000
0000
0000
,
0000
0000
0000
0000
0000
1000
0010
0100
,
0001
0000
0100
0010
,
1000
0000
0010
0000
,
0100
0000
0000
0000
,
0000
0001
0010
0100
1000
0000
0000
0000
,
0000
0000
0000
0000
,
0000
1000
0100
0010
0001
0000
0000
0000
,
0010
0000
0001
0000
,
0000
0001
0100
0010
1000
0000
0000
0100
,
0000
0010
0000
0001
0000
0000
0000
1000
,
0100
0010
0100
0010
0100
0010
0100
0010
,
0001
0010
0000
0010
0100
0000
0100
1000
0000
0000
0000
0000
0000
0000
0000
0000
,
1001
0000
1000
0010
0100
0001
0100
0010
,
0010
0001
0010
0010
1000
0100
0100
0001
,
0001
0000
0110
0000
1000
0100
0001
1000
,
0010
0001
1000
0010
0100
1000
0100
0001
,
1000
0010
0100
0010
0001
0010
1000
0010
,
0100
0001
1000
0001
0100
0100
1000
0001
,
0010
0010
1000
0010
0001
0010
0100
0001
,
0010
0100
0100
0000
0010
0000
0110
0000
,
1001
0000
0001
0010
0100
1000
0100
0010
,
0010
1000
0010
0010
0001
0100
0100
1000
,
1000
0000
0110
0000
0001
0100
1000
0001
,
0010
1000
0001
0010
0100
0001
0100
1000
,
0001
0010
0100
0010
1000
1000
0001
0100
,
0100
1000
0001
0100
1000
0100
0001
1000
,
0010
0100
0010
0100
0001
1000
0001
1000
,
0001
0010
0000
0010
0100
0000
0100
2000
0000
0000
0000
0000
3001
0000
0000
0000
,
0001
0000
0000
0000
,
0000
0000
0000
0000
,
1000
0100
1000
0010
1000
0002
0010
0000
,
1003
0100
1000
0010
1000
0002
0010
0000
,
1003
0010
1000
0100
0010
0002
0010
0000
,
1003
0010
1000
0010
0001
0020
0100
0000
,
1030
0001
0100
0001
0010
0002
1000
0000
,
1003
0001
0100
0001
0010
0002
1000
0000
,
1003
0100
0010
0100
0001
0100
0010
0001
,
0010
0001
1000
0001
0100
0002
1000
0000
,
1003
0100
1000
0100
0010
0100
1000
0100
,
1000
0100
0010
0001
0010
0200
1000
0000
,
0310
0100
0010
0100
0001
0100
1000
0001
,
0010
0001
1000
0001
1000
0001
1000
0001
,
1000
0100
1000
0010
0100
0001
0100
0010
,
1000
0100
1000
0001
0010
0100
0010
0000
,
0001
0100
0001
0010
0100
1000
0002
0100
,
0000
1003
0001
0010
0100
1000
0001
1000
,
0100
0000
0100
0001
0100
0000
0100
1000
,
0100
0000
0100
0010
0100
0000
0100
1000
,
0010
0000
0010
0001
0010
0000
0010
1000
,
0010
0000
0010
0100
0010
0000
0010
1000
,
0001
0100
0001
0000
0010
0000
0100
1000
0100
0000
0010
0000
0001
1000
0001
0000
,
1000
0100
1000
0000
0010
0000
0100
0001
0100
0000
0010
0000
1000
0001
1000
0000
,
0100
0010
0100
0010
0001
1000
0001
1000
,
0001
0010
0000
0010
0100
0000
0100
1000
0000
0000
0000
0000
0000
0000
0000
0000
,
1001
0000
0001
0010
1000
0010
0100
1000
,
0010
0010
0001
1000
0100
0100
0001
1000
,
0100
0001
0100
1000
0001
0100
0010
0001
,
0001
1000
0100
0100
0010
1000
0001
0010
,
0100
1000
0100
0001
0100
0010
0001
1000
,
0100
0010
0100
0010
0100
0001
0100
1000
,
0010
0010
0001
1000
0001
0010
0100
0100
,
0001
0010
0100
0010
1000
0010
0001
0000
,
1001
0000
1000
0010
0001
0010
0100
0001
,
0010
0010
1000
0001
0100
0100
1000
0001
,
0100
1000
0100
0001
1000
0100
0010
1000
,
1000
0001
0100
0100
0010
0001
1000
0010
,
0100
0001
0100
1000
0100
0010
0001
1000
,
0100
0010
1000
0001
0010
1000
0010
0001
,
1000
0001
1000
0001
0010
0100
0010
0100
,
1000
0010
0000
0010
0100
0000
0100
0002
0000
0000
0000
0000
1003
0000
0000
0000
,
2000
0100
3001
0010
,
1000
0000
1000
0010
0000
0010
0002
0000
,
0100
1003
0010
1000
,
0010
0000
0010
0001
0000
0001
1000
0000
,
0001
0000
0001
0010
0000
0010
1000
0000
,
0100
0000
0001
1000
0000
1000
0010
0000
,
0002
0000
0000
2003
0000
0000
3020
0000
,
0230
0000
1300
0200
0000
0000
0302
0000
,
1003
0000
0000
0000
;
