#VERSION:0.83;
#TITLE:Ringed Genesis;
#SUBTITLE:;
#ARTIST:Edelritter;
#TITLETRANSLIT:;
#SUBTITLETRANSLIT:;
#ARTISTTRANSLIT:;
#GENRE:;
#ORIGIN:;
#CREDIT:;
#BANNER:Ringed Genesis.png;
#BACKGROUND:Ringed Genesis-bg.png;
#PREVIEWVID:;
#JACKET:Ringed Genesis - jacket.png;
#CDIMAGE:;
#DISCIMAGE:;
#LYRICSPATH:;
#CDTITLE:cdtitle.png;
#MUSIC:Ringed Genesis.ogg;
#OFFSET:-0.092000;
#SAMPLESTART:94.592003;
#SAMPLELENGTH:12.000000;
#SELECTABLE:YES;
#BPMS:0.000=160.000,
164.000=80.000,
176.000=160.000;
#STOPS:;
#DELAYS:;
#WARPS:328.000=12.000;
#TIMESIGNATURES:0.000=4=4;
#TICKCOUNTS:0.000=4;
#COMBOS:0.000=1;
#SPEEDS:0.000=1.000=0.000=0;
#SCROLLS:0.000=1.000,
320.000=0.300;
#FAKES:;
#LABELS:0.000=Song Start;
#BGCHANGES:;
#KEYSOUNDS:;
#ATTACKS:
;

//---------------dance-single - PAST----------------
#NOTEDATA:;
#CHARTNAME:;
#STEPSTYPE:dance-single;
#DESCRIPTION:PAST;
#CHARTSTYLE:;
#DIFFICULTY:Easy;
#METER:10;
#RADARVALUES:0.348411,0.558972,0.537765,0.386282,0.015148,322.000000,251.000000,71.000000,51.000000,0.000000,0.000000,0.000000,0.000000,0.000000,0.348411,0.558972,0.537765,0.386282,0.015148,322.000000,251.000000,71.000000,51.000000,0.000000,0.000000,0.000000,0.000000,0.000000;
#CREDIT:Pilgrimsito;
#NOTES:
// measure 0
0000
0000
0000
0000
,  // measure 1
0000
0000
0000
0000
,  // measure 2
0000
0000
0000
0000
,  // measure 3
0000
0000
0000
0000
,  // measure 4
0000
0000
0000
0000
,  // measure 5
0002
0000
1003
0100
,  // measure 6
2000
0000
3001
0100
,  // measure 7
0002
0000
0000
0000
,  // measure 8
2000
0000
0000
3003
,  // measure 9
0022
0000
0000
0033
,  // measure 10
2002
0000
0000
3003
,  // measure 11
1020
0000
0000
0130
,  // measure 12
2002
0000
0000
3003
,  // measure 13
2100
0000
0000
3001
,  // measure 14
0102
0000
0100
0103
,  // measure 15
0120
0000
0000
0130
,  // measure 16
2002
0000
0000
3003
,  // measure 17
2010
0010
0010
0010
,  // measure 18
3020
0100
0100
0100
,  // measure 19
0230
0001
0001
0001
,  // measure 20
0302
1000
1000
1000
,  // measure 21
2003
0000
0000
0000
,  // measure 22
3002
0000
0023
0230
,  // measure 23
2300
0000
0000
0000
,  // measure 24
0002
0000
3003
0000
,  // measure 25
1001
1001
1001
1001
,  // measure 26
2000
0010
0010
3010
,  // measure 27
1001
1001
1001
1001
,  // measure 28
0002
0000
0000
0010
0000
0000
0013
0000
,  // measure 29
0101
0101
0101
0101
,  // measure 30
0002
0010
0010
0013
,  // measure 31
1100
1100
1100
1100
,  // measure 32
2000
0010
0010
3010
,  // measure 33
1100
1100
0101
0101
,  // measure 34
0002
0010
1000
0013
,  // measure 35
0011
0011
1010
1010
,  // measure 36
2000
0100
0001
3100
,  // measure 37
1100
1100
0101
0101
,  // measure 38
0002
0010
0010
0013
,  // measure 39
2002
3003
0000
0220
0330
0000
2002
3003
,  // measure 40
0000
0220
0330
0000
2002
0000
0000
0000
,  // measure 41
3003
1000
0010
0100
,  // measure 42
0002
0000
0000
0000
,  // measure 43
0003
1000
0100
0010
,  // measure 44
0001
0000
0000
0000
,  // measure 45
1000
0001
1000
0001
,  // measure 46
1000
0000
0010
0000
0100
0000
0001
1000
,  // measure 47
0001
0000
0010
0000
0100
0000
1000
0001
,  // measure 48
1000
0000
0100
0000
0010
0000
0001
1000
,  // measure 49
0001
0000
0100
0000
0010
0000
1000
0001
,  // measure 50
1000
0000
0100
0000
1000
0000
0001
0010
,  // measure 51
0001
0000
0100
0000
0001
0000
1000
0010
,  // measure 52
1000
0000
0001
0000
0010
0000
0100
1000
,  // measure 53
0100
0000
1000
0000
0010
0000
0100
0001
,  // measure 54
0200
0000
0000
0000
,  // measure 55
0000
0000
0300
0000
,  // measure 56
1001
0000
1000
0000
0100
0000
0010
0100
,  // measure 57
0110
0000
0010
0000
0100
0000
1000
0001
,  // measure 58
1001
0000
1000
0000
0100
0000
0010
0100
,  // measure 59
0010
0010
0010
0010
,  // measure 60
0011
0011
0101
0101
,  // measure 61
1010
0000
1010
0000
1000
0001
1000
0001
,  // measure 62
1001
1001
1010
1010
,  // measure 63
0110
0110
0110
0110
,  // measure 64
1001
0000
0001
0000
0100
0000
0010
0100
,  // measure 65
0110
0000
0010
0000
0100
0000
0001
1000
,  // measure 66
1001
0000
0001
0000
0100
0000
0010
0100
,  // measure 67
0010
0010
0010
0010
,  // measure 68
1010
1010
1100
1100
,  // measure 69
0011
0011
1001
1001
,  // measure 70
1020
0000
0000
0100
0000
0000
0100
0000
,  // measure 71
2030
0000
3200
0000
,  // measure 72
0020
0330
0001
0000
,  // measure 73
1000
0000
0010
0000
,  // measure 74
0100
0000
0001
0000
,  // measure 75
0010
0000
0100
0000
,  // measure 76
1000
0001
1000
0000
0010
0000
0100
0000
,  // measure 77
0001
1000
0001
0000
0010
0000
0100
0000
,  // measure 78
2000
0000
0000
0000
,  // measure 79
3010
0000
0010
0000
0010
0000
0100
0000
0100
0000
0100
0000
,  // measure 80
0200
0000
0000
0000
,  // measure 81
0000
0000
0000
0000
,  // measure 82
0300
0000
0000
0000
;

//---------------dance-single - PRESENT----------------
#NOTEDATA:;
#CHARTNAME:;
#STEPSTYPE:dance-single;
#DESCRIPTION:PRESENT;
#CHARTSTYLE:;
#DIFFICULTY:Medium;
#METER:12;
#RADARVALUES:0.508550,0.683188,0.318114,0.325688,0.026510,470.000000,428.000000,42.000000,43.000000,0.000000,0.000000,0.000000,0.000000,0.000000,0.508550,0.683188,0.318114,0.325688,0.026510,470.000000,428.000000,42.000000,43.000000,0.000000,0.000000,0.000000,0.000000,0.000000;
#CREDIT:Pilgrimsito;
#NOTES:
0000
0000
0000
0000
,
0000
0000
0000
0000
,
0000
0000
0000
0000
,
0000
0000
0000
0000
,
0000
0000
0000
0000
,
2000
0000
3020
0230
,
0302
0000
0023
0230
,
2300
0000
0000
0000
,
3002
0000
1003
0010
0000
0010
1000
0100
,
2100
0000
0100
0000
0100
0000
0100
3000
,
2001
0000
0001
0000
0001
0000
0001
3000
,
0201
0000
0001
0000
0001
0000
0301
1000
,
0200
0000
0010
0000
0020
0000
0000
0330
,
0012
0000
0010
0000
0010
0000
0013
0001
,
0020
0100
0230
2300
,
3020
0000
0100
0000
0100
0000
0130
0001
,
2000
0000
0010
0000
0020
0000
0000
3030
,
1002
0000
1000
0000
1000
0000
1000
0003
,
0021
0000
0001
0000
0001
0000
0031
1000
,
2001
0000
0001
0000
0001
0000
0001
3000
,
1020
1000
1000
1000
,
1030
1000
0001
0001
0100
0100
0010
0010
,
1000
1000
0100
0100
0010
0010
0001
0001
,
2000
0000
0000
0000
,
3010
0000
0000
0000
0000
0000
1000
0000
0001
0000
0100
0000
,
0101
0000
0011
0000
0101
0000
0001
1000
,
0200
0010
1000
0310
,
1100
0000
1010
0000
1100
0000
1000
0001
,
0200
0000
0000
0000
0000
0000
0010
0000
0000
0010
0000
0000
0310
0000
0000
0000
,
0101
0000
0011
0000
0101
0000
0001
1000
,
0200
0010
1000
0310
,
1100
0000
1010
0000
1100
0000
1000
0001
,
0200
0000
0310
0100
0010
0100
0010
0100
,
0001
1000
0100
1000
0001
1000
0100
1000
,
0020
0100
0001
0100
,
1030
0001
0010
0001
1000
0001
0010
0001
,
0200
0000
0010
0000
0301
1000
1000
0001
,
1000
0100
0010
0100
1000
0010
0100
0010
,
2000
0000
0001
0000
0100
0100
3100
0000
,
1000
0010
0100
0001
0010
0100
1000
0010
,
0100
0001
0010
0100
2000
0000
0000
0000
,
3002
0100
1000
0010
,
2003
0010
0001
0100
,
3002
0100
1000
0010
,
1003
0000
0000
0000
,
1000
1000
0001
0001
1000
1000
1010
0000
,
0001
0100
0100
0001
1000
0001
1000
0100
,
1000
0010
0010
1000
0001
1000
0001
0010
,
0001
1000
1000
0001
0010
0001
0100
0010
,
1000
0001
0001
1000
0010
1000
0100
0010
,
0001
0100
0100
0001
1000
0001
1000
0100
,
1000
0010
0010
1000
0001
1000
0001
0010
,
0001
1000
1000
0001
0010
0001
0100
0010
,
1000
0001
0001
1000
0010
1000
0100
0010
,
0200
0000
0000
0000
,
0000
0000
0000
0300
,
1001
0000
0001
0100
0010
1000
0100
0010
,
0110
0000
0100
1000
0010
0100
0001
1000
,
1001
0000
0001
0100
0010
1000
0100
0010
,
0100
1000
0001
1000
0010
1000
0100
0000
,
1000
0100
0010
0100
1000
0010
0100
0001
,
1000
0100
0001
0100
1000
1000
0001
0001
,
1000
0010
0100
0010
1000
0100
0010
0001
,
1001
0101
0110
1010
,
1001
0000
1000
0100
0010
0001
0100
0010
,
0110
0000
0100
0001
0010
0100
1000
0001
,
1001
0000
1000
0100
0010
0001
0100
0010
,
0110
1010
1100
0011
,
0001
0100
0010
0100
0001
0010
0100
1000
,
0001
0100
1000
0100
0002
0000
0023
0000
,
0230
0000
1000
1000
0000
0010
0310
0000
,
0001
0100
0010
1000
0200
0000
0000
0000
,
1300
0100
0100
1000
0001
1000
0001
0100
,
0001
0010
0010
0001
1000
0001
1000
0010
,
1000
0001
0001
1000
0010
1000
0100
0010
,
0001
1000
1000
0001
0010
0001
0100
0010
,
1000
0100
0100
1000
0001
1000
0001
0100
,
0001
0010
0010
0001
1000
0001
1000
0010
,
1000
0001
0001
1000
0010
1000
0100
0010
,
0110
0000
0110
0000
0110
0000
1001
0000
1001
0000
1001
0000
,
2002
0000
0000
0000
,
0000
0000
0000
0000
,
3003
0000
0000
0000
;

//---------------dance-single - FUTURE----------------
#NOTEDATA:;
#CHARTNAME:;
#STEPSTYPE:dance-single;
#DESCRIPTION:FUTURE;
#CHARTSTYLE:;
#DIFFICULTY:Hard;
#METER:14;
#RADARVALUES:0.625408,0.955479,0.484746,0.507468,0.257521,578.000000,514.000000,64.000000,67.000000,124.000000,0.000000,0.000000,0.000000,4.000000,0.625408,0.955479,0.484746,0.507468,0.257521,578.000000,514.000000,64.000000,67.000000,124.000000,0.000000,0.000000,0.000000,4.000000;
#CREDIT:Pilgrimsito;
#NOTES:
0000
0000
0000
0000
,
0000
0000
0000
0000
,
0000
0000
0000
0000
,
0000
0000
0000
0000
,
0000
0000
0000
0000
,
0002
0000
0100
0010
,
2003
0000
0100
0010
,
3002
0000
0000
0000
,
2003
0000
0000
0000
3001
0000
0100
0000
0000
0000
0001
0000
0010
0100
0010
0000
,
0012
0000
0010
0000
0010
0000
0010
0003
,
1002
0000
1000
0000
1000
0000
1000
0003
,
1020
0000
0000
0000
1000
0000
0000
0000
1000
0000
0000
0000
1030
0000
0001
0100
,
0020
0000
1000
0000
2000
0000
0000
3030
,
2100
0000
0000
0000
0100
0000
0000
0000
0100
0000
0000
0000
3100
0000
1000
0010
,
2000
0001
3002
0023
,
0230
0000
0000
0000
0010
0000
0000
0000
0010
0000
0000
0000
0310
0000
0001
1000
,
0002
0000
0100
0000
0200
0000
0000
0303
,
2001
0000
0001
0000
0001
0000
0001
3000
,
1200
0000
0000
0000
1000
0000
0000
0000
1000
0000
0000
0000
1300
0000
0001
0010
,
0002
0000
1000
0000
1000
0000
1000
0003
,
0201
0001
0001
0001
,
0301
1000
0010
0100
0001
0010
0100
1000
,
0001
0100
0010
1000
0100
0010
0001
1000
,
0001
0010
0001
0010
0100
1000
0100
1000
0001
1000
0001
1000
0100
0010
0100
0010
,
0200
0000
0000
0000
0000
0000
0010
0000
1000
0000
0310
0000
,
1001
MMMM
1001
MMMM
1001
MMMM
1001
0001
,
0200
0010
1000
0310
,
1010
MMMM
1010
MMMM
1010
MMMM
1010
1000
,
0002
0000
0000
0000
0000
0000
0010
0000
0000
1000
0000
0000
0103
0000
0000
0000
,
1001
MMMM
1001
MMMM
1001
MMMM
1001
1000
,
0200
0010
0001
0310
,
0011
MMMM
0011
MMMM
0011
MMMM
0011
0001
,
2000
0000
3010
0100
0010
0100
0001
1000
0001
1000
0100
0010
0100
0010
0100
0000
,
1000
0010
0100
0001
1000
0100
0010
0001
,
0200
1000
0001
1000
,
0301
0100
0010
1000
0001
0010
0100
1000
,
0020
0000
0000
0000
0001
0000
0000
0000
1030
0000
0010
0100
0010
0000
1000
0000
,
0001
0010
1000
0010
0001
0100
1000
0100
,
0002
0000
1000
0000
0010
0010
0013
0000
,
1001
0010
0100
1001
0100
0010
1001
0010
,
0100
1001
0100
0010
2002
0000
0000
3003
,
1001
MMMM
0001
MMMM
1000
MMMM
0010
MMMM
,
0100
MMMM
0001
MMMM
1000
MMMM
0100
MMMM
,
0010
MMMM
0001
MMMM
1000
MMMM
0010
MMMM
,
0100
0000
0000
0000
,
0001
0100
0001
0100
0010
1000
0010
1000
0001
0010
0001
0010
0100
0000
0000
0000
,
1000
0000
0010
0100
0010
0000
1000
0000
0100
0000
0010
0000
0100
0000
1000
0000
,
0001
0000
0100
0010
0100
0000
0001
0000
0010
0000
0100
0000
0010
0000
0001
0000
,
1000
0000
0001
0100
0001
0000
1000
0000
0100
0000
1000
0000
0010
0000
0100
0000
,
0001
0000
1000
0100
1000
0000
0001
0000
0100
0000
0001
0000
0010
0000
0100
0000
,
1000
0000
0100
0010
0100
0000
1000
0000
0010
0000
0100
0000
0010
0000
1000
0000
,
0001
0000
0010
0100
0010
0000
0001
0000
0100
0000
0010
0000
0100
0000
0001
0000
,
1000
0000
0001
0010
0001
0000
1000
0000
0010
0000
1000
0000
0100
0000
0010
0000
,
0001
0000
1000
0010
1000
0000
0001
0000
0010
0000
0001
0000
0100
0000
0010
0000
,
2020
0000
0000
0000
,
0000
0000
0000
3030
,
1001
0000
1000
0100
0010
0000
0001
0000
0100
0000
1000
0000
0100
0000
0001
0000
,
1001
0000
1000
0010
0100
0000
0001
0000
0010
0000
1000
0000
0010
0000
0001
0000
,
1001
0000
1000
0100
0010
0000
0001
0000
0100
0000
1000
0000
0100
0000
0001
0000
,
1000
0010
0100
0010
0001
0010
0100
0010
,
1010
0000
1000
0000
1100
0000
0100
0000
0110
0000
0010
0001
1000
0000
0010
0000
,
0110
0000
0100
0000
0101
0000
0001
0000
0011
0000
0010
0100
1000
0000
0001
0000
,
0101
0000
0100
0000
0110
0000
0010
0000
1010
0000
1000
0100
0010
0000
0100
0000
,
1100
1000
1010
0010
0110
0100
0101
0001
,
1001
0000
0001
0100
0010
0000
1000
0000
0100
0000
0001
0000
0100
0000
1000
0000
,
1001
0000
0001
0010
0100
0000
1000
0000
0010
0000
0001
0000
0010
0000
1000
0000
,
1001
0000
0001
0100
0010
0000
1000
0000
0100
0000
0001
0000
0100
0000
1000
0000
,
0001
0010
0100
0010
1000
0010
0100
0010
,
0011
0000
0001
0000
0101
0000
0100
0000
0110
0000
0010
1000
0001
0000
0010
0000
,
0110
0100
1100
1000
1020
0000
0230
0000
,
0302
0003
0020
0030
2000
3000
0002
0003
0200
0300
2000
3000
0002
0000
0003
0000
,
0010
0001
1000
0001
0100
0001
1000
0001
0020
0000
0000
0000
0000
0000
0030
0000
,
0011
0000
0001
0100
0010
0000
1000
0000
0001
0000
0010
0000
1000
0000
0010
0000
,
0001
0000
1000
0010
0100
0000
0001
0000
1000
0000
0100
0000
0001
0000
0100
0000
,
1000
0000
0001
0010
0100
0000
1000
0000
0001
0000
0100
0000
1000
0000
0100
0000
,
0001
0000
1000
0100
0010
0000
0001
0000
1000
0000
0010
0000
0001
0000
0010
0000
,
1010
0000
1000
0001
1000
0000
0002
0003
0200
0300
2000
3000
0002
0003
0020
0030
,
2000
3000
0001
1000
0001
0000
2000
3000
0200
0300
0002
0003
2000
3000
0020
0030
,
0001
0100
0010
1000
0001
0010
0100
1000
0001
0100
0010
1000
0001
0010
0100
0000
,
2200
3300
0000
0000
2020
3030
0000
0000
0220
0330
0000
0000
0202
0303
0000
0000
0022
0033
0000
0000
0220
0330
0000
0000
,
2002
0000
0000
0000
,
0000
0000
0000
0000
,
3003
MMMM
0000
0000
,
0000
0000
0000
0000
,
0000
0000
0000
0000
,
0000
0000
0000
0000
0000
M00M
M00M
M0M0
,
M0M0
MM00
MMMM
MMMM
M00M
M00M
M00M
M00M
,
M00M
0000
0000
0000
;
