#VERSION:0.83;
#TITLE:Right Thru Me;
#SUBTITLE:;
#ARTIST:Nicki Minaj;
#TITLETRANSLIT:;
#SUBTITLETRANSLIT:;
#ARTISTTRANSLIT:;
#GENRE:Pop Rap;
#ORIGIN:;
#TAGS:;
#CREDIT:Melody Love;
#BANNER:Right Thru Me.png;
#BACKGROUND:Right Thru Me-bg.png;
#PREVIEWVID:;
#JACKET:Right Thru Me-jacket.png;
#CDIMAGE:;
#DISCIMAGE:;
#LYRICSPATH:;
#CDTITLE:;
#MUSIC:Right Thru Me.ogg;
#OFFSET:-0.024000;
#SAMPLESTART:71.025002;
#SAMPLELENGTH:17.569998;
#SELECTABLE:YES;
#BPMS:0.000000=162.251999
;
#STOPS:;
#DELAYS:;
#WARPS:;
#TIMESIGNATURES:0.000000=3=4
;
#TICKCOUNTS:0.000000=4
;
#COMBOS:0.000000=1
;
#SPEEDS:0.000000=1.000000=0.000000=0
,41.979168=0.000000=0.000000=0
,42.000000=1.000000=6.000000=0
,48.000000=1.000000=0.000000=0
;
#SCROLLS:0.000=1.000,
240.000=0.100,
245.500=0.200,
249.750=0.300,
250.000=0.400,
250.250=0.500,
250.500=0.600,
250.750=0.700,
251.000=0.800,
251.250=0.900,
251.500=1.000,
252.000=0.100,
255.500=0.200,
259.750=0.300,
260.000=0.400,
260.250=0.500,
260.500=0.600,
260.750=0.700,
261.000=0.800,
261.250=0.900,
261.500=1.000,
262.000=0.800,
278.000=0.700,
279.000=0.600,
280.000=0.500,
281.000=0.400,
282.000=0.300,
283.000=0.200,
286.000=0.300,
286.250=0.400,
286.500=0.500,
286.750=0.600,
287.000=0.700,
287.250=0.800,
287.500=0.900,
287.750=1.000
;
#FAKES:;
#LABELS:0.000000=Song Start
;
#BGCHANGES:-0.024=Right Thru Me.avi=1.000=1=0=0=StretchNoLoop==CrossFade==,
99999=-nosongbg-=1.000=0=0=0 // don't automatically add -songbackground-
;
#BGCHANGES:;
#KEYSOUNDS:;
#ATTACKS: TIME=102.095001:LEN=3.700000:MODS=*2 25% Drunk: TIME=71.772263:LEN=4.500000:MODS=80% Stealth: TIME=18.521755:LEN=4.500000:MODS=80% Stealth: TIME=107.272591:LEN=3.250000:MODS=80% Stealth: TIME=114.845591:LEN=3.250000:MODS=80% Stealth: TIME=124.278274:LEN=5.000000:MODS=80% Stealth: TIME=124.283173:LEN=10.000000:MODS=*5 50% Drunk: TIME=18.706654:LEN=0.200000:MODS=*5 200% Beat: TIME=20.925425:LEN=0.200000:MODS=*5 -200% Beat: TIME=23.136196:LEN=0.250000:MODS=*5 200% Beat: TIME=25.362967:LEN=0.250000:MODS=*5 -200% Beat: TIME=27.562967:LEN=0.250000:MODS=*5 200% Beat: TIME=29.782967:LEN=0.250000:MODS=*5 -200% Beat: TIME=32.011967:LEN=0.250000:MODS=*5 200% Beat: TIME=71.949267:LEN=0.250000:MODS=*5 200% Beat: TIME=74.168267:LEN=0.250000:MODS=*5 -200% Beat: TIME=76.387267:LEN=0.250000:MODS=*5 200% Beat: TIME=78.605267:LEN=0.250000:MODS=*5 -200% Beat: TIME=80.824267:LEN=0.250000:MODS=*5 200% Beat: TIME=83.043267:LEN=0.250000:MODS=*5 -200% Beat: TIME=85.262267:LEN=0.250000:MODS=*5 200% Beat: TIME=87.481267:LEN=0.250000:MODS=*5 -200% Beat: TIME=107.449267:LEN=0.250000:MODS=*5 200% Beat: TIME=109.668267:LEN=0.250000:MODS=*5 -200% Beat: TIME=111.887267:LEN=0.250000:MODS=*5 200% Beat: TIME=114.106267:LEN=0.250000:MODS=*5 -200% Beat: TIME=116.325267:LEN=0.250000:MODS=*5 200% Beat: TIME=118.543267:LEN=0.250000:MODS=*5 -200% Beat: TIME=120.762267:LEN=0.250000:MODS=*5 200% Beat: TIME=124.090267:LEN=0.250000:MODS=*5 -200% Beat: TIME=18.891552:LEN=0.200000:MODS=*9 0% Beat: TIME=21.110321:LEN=0.200000:MODS=*9 0% Beat: TIME=23.329092:LEN=0.200000:MODS=*9 0% Beat: TIME=25.547863:LEN=0.200000:MODS=*9 0% Beat: TIME=27.766634:LEN=0.200000:MODS=*9 0% Beat: TIME=29.985405:LEN=0.200000:MODS=*9 0% Beat: TIME=32.204174:LEN=0.200000:MODS=*9 0% Beat: TIME=72.134552:LEN=0.200000:MODS=*9 0% Beat: TIME=74.353552:LEN=0.200000:MODS=*9 0% Beat: TIME=76.572552:LEN=0.200000:MODS=*9 0% Beat: TIME=78.790552:LEN=0.200000:MODS=*9 0% Beat: TIME=81.009552:LEN=0.200000:MODS=*9 0% Beat: TIME=83.228552:LEN=0.200000:MODS=*9 0% Beat: TIME=85.447552:LEN=0.200000:MODS=*9 0% Beat: TIME=87.665552:LEN=0.200000:MODS=*9 0% Beat: TIME=107.634552:LEN=0.200000:MODS=*9 0% Beat: TIME=109.853552:LEN=0.200000:MODS=*9 0% Beat: TIME=112.072552:LEN=0.200000:MODS=*9 0% Beat: TIME=114.291552:LEN=0.200000:MODS=*9 0% Beat: TIME=116.509552:LEN=0.200000:MODS=*9 0% Beat: TIME=118.728552:LEN=0.200000:MODS=*9 0% Beat: TIME=120.947552:LEN=0.200000:MODS=*9 0% Beat: TIME=124.275552:LEN=0.200000:MODS=*9 0% Beat: TIME=19.438064:LEN=0.100000:MODS=*3 -90% Beat: TIME=19.623064:LEN=0.100000:MODS=*3 -90% Beat: TIME=21.657064:LEN=0.100000:MODS=*3 90% Beat: TIME=21.842064:LEN=0.100000:MODS=*3 90% Beat: TIME=23.876064:LEN=0.100000:MODS=*3 -90% Beat: TIME=24.061064:LEN=0.100000:MODS=*3 -90% Beat: TIME=26.095064:LEN=0.100000:MODS=*3 90% Beat: TIME=26.279064:LEN=0.100000:MODS=*3 90% Beat: TIME=28.313064:LEN=0.100000:MODS=*3 -90% Beat: TIME=28.498064:LEN=0.100000:MODS=*3 -90% Beat: TIME=30.532064:LEN=0.100000:MODS=*3 90% Beat: TIME=30.717064:LEN=0.100000:MODS=*3 90% Beat: TIME=32.751064:LEN=0.100000:MODS=*3 -90% Beat: TIME=32.936064:LEN=0.100000:MODS=*3 -90% Beat: TIME=72.689064:LEN=0.100000:MODS=*3 -90% Beat: TIME=72.874064:LEN=0.100000:MODS=*3 -90% Beat: TIME=74.908064:LEN=0.100000:MODS=*3 90% Beat: TIME=75.092064:LEN=0.100000:MODS=*3 90% Beat: TIME=77.126064:LEN=0.100000:MODS=*3 -90% Beat: TIME=77.311064:LEN=0.100000:MODS=*3 -90% Beat: TIME=79.345064:LEN=0.100000:MODS=*3 90% Beat: TIME=79.530064:LEN=0.100000:MODS=*3 90% Beat: TIME=81.564064:LEN=0.100000:MODS=*3 -90% Beat: TIME=81.749064:LEN=0.100000:MODS=*3 -90% Beat: TIME=83.783064:LEN=0.100000:MODS=*3 90% Beat: TIME=83.967064:LEN=0.100000:MODS=*3 90% Beat: TIME=86.001064:LEN=0.100000:MODS=*3 -90% Beat: TIME=86.186064:LEN=0.100000:MODS=*3 -90% Beat: TIME=108.189064:LEN=0.100000:MODS=*3 -90% Beat: TIME=108.374064:LEN=0.100000:MODS=*3 -90% Beat: TIME=110.408064:LEN=0.100000:MODS=*3 90% Beat: TIME=110.593064:LEN=0.100000:MODS=*3 90% Beat: TIME=112.627064:LEN=0.100000:MODS=*3 -90% Beat: TIME=112.812064:LEN=0.100000:MODS=*3 -90% Beat: TIME=114.845064:LEN=0.100000:MODS=*3 90% Beat: TIME=115.030064:LEN=0.100000:MODS=*3 90% Beat: TIME=117.064064:LEN=0.100000:MODS=*3 -90% Beat: TIME=117.249064:LEN=0.100000:MODS=*3 -90% Beat: TIME=119.283064:LEN=0.100000:MODS=*3 90% Beat: TIME=119.468064:LEN=0.100000:MODS=*3 90% Beat: TIME=121.502064:LEN=0.100000:MODS=*3 -90% Beat: TIME=121.687064:LEN=0.100000:MODS=*3 -90% Beat: TIME=36.449308:LEN=0.250000:MODS=*4 -80% Beat: TIME=36.634552:LEN=0.200000:MODS=*9 0% Beat: TIME=38.668308:LEN=0.250000:MODS=*4 80% Beat: TIME=38.852552:LEN=0.200000:MODS=*9 0% Beat: TIME=40.886308:LEN=0.250000:MODS=*4 -80% Beat: TIME=41.071552:LEN=0.200000:MODS=*9 0% Beat: TIME=43.105308:LEN=0.250000:MODS=*4 80% Beat: TIME=43.290552:LEN=0.200000:MODS=*9 0% Beat: TIME=45.324308:LEN=0.250000:MODS=*4 -80% Beat: TIME=45.509552:LEN=0.200000:MODS=*9 0% Beat: TIME=47.543308:LEN=0.250000:MODS=*4 80% Beat: TIME=47.728552:LEN=0.200000:MODS=*9 0% Beat: TIME=49.761308:LEN=0.250000:MODS=*4 -80% Beat: TIME=49.946552:LEN=0.200000:MODS=*9 0% Beat: TIME=54.199308:LEN=0.250000:MODS=*4 -90% Beat: TIME=54.384552:LEN=0.200000:MODS=*9 0% Beat: TIME=56.418308:LEN=0.250000:MODS=*4 90% Beat: TIME=56.603552:LEN=0.200000:MODS=*9 0% Beat: TIME=58.637308:LEN=0.250000:MODS=*4 -90% Beat: TIME=58.821552:LEN=0.200000:MODS=*9 0% Beat: TIME=60.855308:LEN=0.250000:MODS=*4 90% Beat: TIME=61.040552:LEN=0.200000:MODS=*9 0% Beat: TIME=63.074308:LEN=0.250000:MODS=*4 -90% Beat: TIME=63.259552:LEN=0.200000:MODS=*9 0% Beat: TIME=65.293308:LEN=0.250000:MODS=*4 90% Beat: TIME=65.478552:LEN=0.200000:MODS=*9 0% Beat: TIME=67.512308:LEN=0.250000:MODS=*4 -90% Beat: TIME=67.697552:LEN=0.200000:MODS=*9 0% Beat: TIME=0.771590:LEN=13.000000:MODS=125% Wave: TIME=88.771590:LEN=6.500000:MODS=125% Wave;

//--------------- dance-single - Melody Love ----------------
#NOTEDATA:;
#STEPSTYPE:dance-single;
#DESCRIPTION:Melody Love;
#DIFFICULTY:Beginner;
#METER:2;
#RADARVALUES:0,0,0,0,0;
#CREDIT:Melody Love;
#NOTES:
0000
0000
0000
0000
,
0000
0000
0000
0000
,
0000
0000
0000
0000
,
0000
0000
0000
0000
,
0000
0000
0000
0000
,
0000
0000
0000
0000
,
0000
0000
0000
0000
,
0000
0000
0000
0000
,
0000
0000
0000
0000
,
0000
0000
0000
0000
,
0000
0000
0000
0000
,
0000
0000
0000
0000
,
0000
0000
0000
1000
,
0000
0000
0000
0000
,
0000
0001
0000
0000
,
0000
0000
0000
0100
,
0000
0000
0000
0000
,
0000
0010
0000
0000
,
0000
0000
0000
1000
,
0000
0000
0000
0000
,
0000
0001
0000
0000
,
0100
0000
0000
0100
,
0000
0000
0010
0000
,
0000
0010
0000
0000
,
0000
0000
0000
1000
,
0000
0000
0000
0000
,
0000
0001
0000
0000
,
0000
0000
0000
0100
,
0000
0000
0000
0000
,
0000
0001
0000
0000
,
0000
0000
0000
0010
,
0000
0000
0000
0000
,
0000
0100
0000
0000
,
0000
0000
0000
0010
,
0000
0000
0000
0000
,
0000
0100
0000
0000
,
0000
0000
0000
1000
,
0000
0000
0000
0000
,
0000
1000
0000
0000
,
0000
0000
0000
0010
,
0000
0000
0000
0000
,
0000
0010
0000
0000
,
0000
0000
0000
0100
,
0000
0000
0000
0000
,
0000
0100
0000
0000
,
0000
0000
0000
0001
,
0000
0000
0000
0000
,
0000
1000
0000
0000
,
1000
0000
0000
0100
,
0000
0000
0100
0000
,
0000
0100
0000
0000
,
1000
0000
0000
0000
,
0000
0000
0001
0000
,
0000
0001
0000
0000
,
1000
0000
0000
1000
,
0000
0000
0001
0000
,
0000
0001
0000
0000
,
1000
0000
0000
0000
,
0000
0000
0001
0000
,
0000
0000
0000
0000
,
2002
0000
0000
0000
,
0000
0000
0000
0000
,
0000
3003
0000
0000
0000
0000
0000
0000
,
2002
0000
0000
0000
,
0000
0000
0000
3003
,
0000
0000
0000
0000
,
0000
0000
0000
1000
,
0000
0000
0000
0000
,
0000
0001
0000
0000
,
0020
0000
0000
0000
,
0000
0000
0000
0000
,
0000
0030
0000
0000
,
0001
0000
0000
0010
,
0000
0000
0010
0000
,
0000
0010
0000
0000
,
0001
0000
0000
0000
,
0000
0000
1000
0000
,
0000
1000
0000
0000
,
0001
0000
0000
0000
,
0000
0000
0010
0000
,
0000
0010
0000
0000
,
0100
0000
0000
0000
,
0000
0000
1000
0000
,
0000
0001
0000
0000
,
2002
0000
0000
0000
,
3003
0000
0000
0000
;

//--------------- dance-single - Melody Love ----------------
#NOTEDATA:;
#STEPSTYPE:dance-single;
#DESCRIPTION:Melody Love;
#DIFFICULTY:Easy;
#METER:4;
#RADARVALUES:0,0,0,0,0;
#CREDIT:Melody Love;
#NOTES:
0000
0000
0000
0000
,
0000
0000
0000
0000
,
0000
0000
0000
0000
,
0000
0000
0000
0000
,
0000
0000
0000
0000
,
0000
0000
0000
0000
,
0000
0000
0000
0000
,
0000
0000
0000
0000
,
0000
0000
0000
0000
,
0000
0000
0000
0000
,
0000
0000
0000
0000
,
0000
0000
0000
0000
,
2000
0000
0000
3001
,
0000
0000
0002
0000
,
0000
0103
0000
0000
,
0020
0000
0000
1030
,
0000
0000
1000
1000
,
0100
0010
0000
0000
,
0001
0001
0100
0010
,
0000
0000
1000
1000
,
0100
0010
0000
0000
,
0001
0010
0100
0001
,
0010
0100
1000
0100
,
0010
1000
0100
0010
,
0000
0001
0001
0000
,
1000
1000
0010
0100
,
0100
0000
0010
0010
,
1000
0001
0001
0000
,
0010
0010
0100
1000
,
1000
0000
0001
0001
,
0100
0010
0010
0000
,
1000
1000
0010
0100
,
0100
0000
0001
0001
,
0020
0000
0100
0230
,
0000
1000
2300
0000
,
0010
3010
0100
0001
,
0000
0100
0010
0010
,
1000
0010
0000
0100
,
0001
0001
1000
0001
,
0000
0010
0100
0100
,
1000
0100
0000
0010
,
0001
0001
1000
0001
,
0000
0100
0010
0010
,
1000
0010
0000
1000
,
0100
0100
0010
0100
,
2000
0000
0100
3200
,
0000
0010
0320
0000
,
0001
0031
1000
0100
,
0020
0000
0000
0130
,
0000
0000
2000
0000
,
0000
3010
0000
0000
,
0200
0000
0000
0301
,
0000
0000
0001
0001
,
0010
0100
0000
0000
,
1000
1000
0010
0100
,
0000
0000
0001
0001
,
0010
0100
0000
0000
,
1000
0100
0010
1000
,
0100
0010
0001
0010
,
0100
0001
0010
0100
,
0020
0000
0000
0000
,
0000
0000
0000
0000
,
0000
0000
0000
0030
,
0200
0000
0000
0000
,
0000
0000
0000
0000
,
0000
0300
0000
0000
,
1000
1000
1000
0000
,
0000
0000
0001
0001
,
0001
0000
0000
0000
,
0100
0100
0000
0100
,
0000
0000
0020
0000
,
0000
0000
0030
0000
,
0020
0000
0000
0130
,
0000
0000
0002
0000
,
0000
0013
0000
0000
,
0200
0000
1000
1300
,
0000
0001
0001
0010
,
0100
0100
0000
0000
,
1000
1000
0010
0100
,
0000
0000
0001
0001
,
0010
0100
0000
0000
,
0100
0100
0010
0001
,
0001
0010
0100
0100
,
1000
0001
1000
0100
,
0020
0200
0000
0000
,
0330
0000
0000
0000
;

//--------------- dance-single - Melody Love ----------------
#NOTEDATA:;
#STEPSTYPE:dance-single;
#DESCRIPTION:Melody Love;
#DIFFICULTY:Medium;
#METER:8;
#RADARVALUES:0,0,0,0,0;
#CREDIT:Melody Love;
#NOTES:
0000
0000
0000
0000
,
0000
0000
0000
0000
,
0000
0000
0000
0000
,
0000
0000
0000
0000
,
0000
0000
0000
0000
,
0000
0000
0000
0000
,
0000
0000
0000
0000
0000
0M00
0000
0000
,
0000
0000
0000
000M
0000
0000
0000
0000
,
0000
M000
0000
0000
0000
0000
0000
0M00
,
0000
0000
0000
0000
0000
000M
0000
0000
,
0000
0000
0000
0M00
0000
0000
0000
0000
,
0000
0000
0000
0000
,
2000
0100
3001
1001
,
0000
0000
0001
1000
0002
0000
0100
0000
,
1003
0000
1001
0000
0000
0000
1000
0001
,
2000
0010
3001
1001
,
0100
0001
0100
0000
0020
0000
2030
0000
,
3100
0000
0000
0000
0100
1000
0100
0000
,
0020
0032
0103
0000
,
0100
0001
0100
0000
0020
0000
2030
0000
,
3100
0000
0000
0000
0100
1000
0100
0000
,
0010
0000
0100
1000
0100
0000
0110
0000
,
0001
0100
0001
0000
0010
0000
0001
0100
,
0001
0000
0010
0001
0010
0100
1000
0100
,
0000
0100
0010
0000
0010
0100
0000
0010
,
0001
0000
0001
0010
0000
0100
1000
0000
,
1000
0100
0000
1000
0010
0000
0010
1000
,
0000
0010
1000
0000
0001
0100
0000
0010
,
1000
0000
0010
0100
0000
0010
1000
0000
,
0100
1000
0000
0010
0100
0000
0001
1000
,
0000
0100
0010
0000
0010
0001
0000
1000
,
0010
0000
0010
0100
0000
0001
0010
0000
,
0010
0100
0000
1000
0001
0000
0001
0010
,
2000
0000
3000
0020
0000
0030
0002
0000
,
1003
0010
1000
0000
2000
0000
3000
0020
,
0000
0030
0002
0000
0013
1000
0001
0000
,
0000
0001
1000
0000
0010
0010
0000
0010
,
0100
0000
0001
0001
0000
0010
0100
0000
,
1000
1000
0000
0010
0100
0000
0001
0001
,
0000
0001
0010
0000
0200
0000
0300
1000
,
0010
0000
0200
0000
0300
0001
1000
0000
,
0020
0000
0030
1000
0001
0000
0020
0000
,
0130
0010
0010
0000
0001
1000
0000
0000
,
0010
1000
2000
0000
3000
0100
0100
0000
,
1000
0001
0000
0000
0100
0001
0002
0000
,
0203
0000
0300
2000
0000
3000
0200
0000
,
0301
0010
0100
0000
0020
0000
0030
0002
,
0000
0003
0020
0000
0130
1000
0010
0000
,
0200
0001
0310
1010
,
0000
0000
1000
0010
2000
0000
0100
0000
,
3001
0000
0011
0000
0000
0000
0010
0001
,
0020
0001
0130
1100
,
1000
0100
0010
0000
0002
0000
0203
0000
,
0310
0000
1010
0000
0001
0010
0100
0000
,
2000
3020
0130
0101
,
1000
0100
0010
0000
0002
0000
0203
0000
,
0310
0000
1010
0000
0100
0001
0010
0000
,
0100
0000
0010
0001
0100
0000
0110
0000
,
0010
1000
0100
0000
0010
0000
0100
1000
,
0010
0000
0100
0001
0100
0010
1000
0020
,
0200
0000
0000
0000
,
0000
0000
0000
0000
,
0000
0000
0000
0330
,
2002
0000
0000
0000
,
0000
0000
0000
0000
,
0000
3003
0000
0000
,
2000
0100
3001
0002
,
0100
1000
0023
0001
,
0130
0200
1000
0310
,
0020
0000
0000
0032
,
0000
0000
2000
0000
,
0000
0000
3003
0000
,
1000
0100
2000
0000
3010
0000
1002
0000
,
0103
0001
0100
0000
0001
0010
0002
0000
,
1003
0000
2001
0000
3100
1000
0100
0000
,
0010
0100
0020
0000
1030
0000
0210
0000
,
1300
0100
1000
0000
0100
0010
0200
0000
,
0301
0000
0120
0000
0031
0010
0001
0000
,
1000
0100
0010
0000
0001
0000
0011
0000
,
0001
0100
0010
0000
1000
0010
0100
0000
,
0001
0000
1010
0000
1000
0100
0010
0000
,
0001
0000
0001
0010
0000
0100
1000
0000
,
1000
0100
0000
0010
0001
0000
0001
0100
,
0000
0100
0010
1000
0010
0001
0010
1000
,
0002
2000
0000
0000
,
3003
0000
0000
0000
;

//---------------dance-single - Melody Love----------------
#NOTEDATA:;
#CHARTNAME:;
#CHARTHASH:1845710918;
#STEPSTYPE:dance-single;
#BANNER:;
#DESCRIPTION:Melody Love;
#CHARTSTYLE:;
#DIFFICULTY:Hard;
#METER:14;
#METERF:0.000000;
#LASTSECONDHINT:125.754349;
#RADARVALUES:0.538179,0.756158,0.332632,0.549230,0.170184,487.000000,444.000000,43.000000,71.000000,6.000000,0.000000,0.000000,0.000000,0.000000,0.538179,0.756158,0.332632,0.549230,0.170184,487.000000,444.000000,43.000000,71.000000,6.000000,0.000000,0.000000,0.000000,0.000000;
#CREDIT:Melody Love;
#NOTES:
// measure 0
0000
0000
0000
0000
,  // measure 1
0000
0000
0000
0000
,  // measure 2
0000
0000
0000
0000
,  // measure 3
0000
0000
0000
0000
,  // measure 4
0000
0000
0000
0000
,  // measure 5
0000
0000
0000
0000
,  // measure 6
0000
0000
0000
0000
0000
0M00
0000
0000
,  // measure 7
0000
0000
0000
000M
0000
0000
0000
0000
,  // measure 8
0000
M000
0000
0000
0000
0000
0000
0M00
,  // measure 9
0000
0000
0000
0000
0000
000M
0000
0000
,  // measure 10
0000
0000
0000
0M00
0000
0000
0000
0000
,  // measure 11
0000
0000
0000
0000
,  // measure 12
2000
0001
3100
0010
0001
0010
0200
0000
,  // measure 13
0000
0000
0310
0010
0002
1000
0103
0010
,  // measure 14
1000
0010
0200
0000
0000
0000
0310
0010
,  // measure 15
2000
0001
3100
0010
0001
0010
0200
0000
,  // measure 16
0310
0001
0100
0010
0010
0000
1000
0000
,  // measure 17
0001
0000
0201
0300
0010
1000
0100
0010
,  // measure 18
0010
0000
0001
0000
1000
0000
1200
0300
,  // measure 19
0010
0001
0100
0010
0010
0000
1000
0000
,  // measure 20
0001
0000
0201
0300
0010
1000
0001
0000
,  // measure 21
0102
0003
0010
0001
1000
0000
2100
3000
,  // measure 22
0010
0100
0001
0000
0102
0003
0010
0100
,  // measure 23
2000
0000
3000
0000
0100
0010
0001
0000
0010
0100
0010
0000
0100
1000
0010
0000
,  // measure 24
1000
0010
0100
0001
0001
0100
0000
0010
,  // measure 25
1000
0100
0010
0010
0000
0001
0100
0010
,  // measure 26
0010
1000
0000
1000
0010
0100
0001
0001
,  // measure 27
0000
0001
0010
0100
1000
1100
0000
1000
,  // measure 28
0010
0100
0001
1100
0000
0001
0100
0010
,  // measure 29
2000
3010
0000
1000
0100
0010
0002
0013
,  // measure 30
0000
0010
0100
2000
0100
3010
0000
0010
,  // measure 31
0100
0002
0010
0103
0000
0001
0010
0200
,  // measure 32
0010
1300
0000
1000
0010
0200
0010
0301
,  // measure 33
1000
0100
0001
0100
0010
0001
1000
0010
,  // measure 34
0100
0001
0100
1000
0100
0010
1000
0001
,  // measure 35
0010
0000
0100
0000
0001
0100
0010
0000
1000
0010
0100
0000
0010
0100
0010
0000
,  // measure 36
0110
0010
0100
1000
0010
0100
0101
0001
,  // measure 37
0010
0100
1000
0100
0000
0100
0010
0001
,  // measure 38
0100
0010
1010
1000
0100
0010
0001
0010
,  // measure 39
0000
0001
0100
1000
0200
0000
0301
1000
,  // measure 40
0010
0100
0202
0000
0303
0100
0001
0010
,  // measure 41
2000
0000
3010
0001
0010
0100
2200
0000
,  // measure 42
3300
0100
0010
0001
2000
0100
3000
0100
,  // measure 43
0100
0010
0022
0000
0033
0001
0100
0010
,  // measure 44
2000
0010
3000
0010
0010
0100
0102
0000
,  // measure 45
1003
0001
1000
0100
1100
0000
0210
0000
,  // measure 46
0310
0001
0100
0000
0010
0001
0010
0100
,  // measure 47
1000
0000
0000
0000
0100
0010
0100
0000
0010
1000
0010
0000
0100
0001
0100
0000
,  // measure 48
0110
0000
0010
0000
1000
0000
0001
0000
0020
0030
0020
0030
2000
0000
0000
0000
,  // measure 49
0000
0000
0100
3100
0100
0010
0001
1000
,  // measure 50
0200
0300
0200
0300
0002
0000
0000
0000
0000
0000
0000
0000
0010
0000
0013
0000
,  // measure 51
0010
0000
0100
0000
1000
0000
0001
0000
0020
0030
0020
0030
1000
0000
0000
0000
,  // measure 52
1000
0010
0001
0010
0010
0000
1000
0000
,  // measure 53
0001
0000
0201
0300
0001
0010
1000
0010
,  // measure 54
0010
0000
0001
0000
1000
0000
1200
0300
,  // measure 55
1000
0010
0001
0010
0010
0000
1000
0000
,  // measure 56
0001
0000
0102
0003
1000
0010
0001
0000
,  // measure 57
0020
0030
0020
0030
0001
0000
0010
0000
1000
0000
0000
0000
0020
0030
0020
0030
,  // measure 58
1000
0000
0010
0000
0001
0000
0000
0000
0020
0030
0020
0030
0001
0000
0010
0000
,  // measure 59
1000
0000
0000
0000
0020
0030
0020
0030
0001
0010
1000
0000
0010
1000
0001
0000
,  // measure 60
2002
0000
0000
0000
,  // measure 61
0000
0000
0000
0000
,  // measure 62
0000
0000
0000
3003
,  // measure 63
0220
0000
0000
0000
,  // measure 64
0000
0000
0000
0000
,  // measure 65
0000
0000
0330
0000
1000
0100
0010
0000
,  // measure 66
0001
0001
0100
0010
1000
0100
0000
0100
,  // measure 67
1000
0010
0100
0001
0000
0001
0010
0100
,  // measure 68
1000
0010
0000
0010
1000
0100
0001
0100
,  // measure 69
0020
0000
0000
0032
,  // measure 70
0000
0000
2000
0000
,  // measure 71
0000
0000
3003
0000
,  // measure 72
0110
0010
0100
0001
1000
0010
1010
1000
,  // measure 73
0100
0010
0011
0100
0011
0010
0100
1000
,  // measure 74
0010
0100
0101
0001
0010
0100
1100
0010
,  // measure 75
1100
0000
0000
0000
1000
0000
0200
0300
0200
0300
0001
0000
0101
0000
0001
0000
,  // measure 76
0200
0300
0200
0300
1000
0000
0100
0000
0010
0000
0001
0000
1000
0000
0010
0000
,  // measure 77
0100
0000
0001
0000
1001
0000
0000
0000
0001
0000
0200
0300
0200
0300
1000
0000
,  // measure 78
0020
0030
0020
0030
0001
0000
0200
0300
0200
0300
1000
0000
1100
0000
0000
0000
,  // measure 79
1000
0000
0200
0300
0200
0300
0001
0000
0020
0030
0020
0030
1000
0000
0200
0300
,  // measure 80
0200
0300
0001
0000
0101
0000
0000
0000
0001
0000
0100
0000
0010
0000
0000
0000
,  // measure 81
0210
0300
1000
0100
0000
0100
0001
0010
,  // measure 82
1000
0010
0001
1000
1010
0100
0001
0010
,  // measure 83
0011
0000
0010
0000
0100
1000
0010
0000
0100
0001
0010
0000
0100
1000
0010
0100
,  // measure 84
0002
2000
0000
0000
,  // measure 85
3003
0000
0000
0000
;

//---------------dance-single - Melody Love----------------
#NOTEDATA:;
#CHARTNAME:You See Right Thru Me;
#CHARTHASH:1845710918;
#STEPSTYPE:dance-single;
#BANNER:;
#DESCRIPTION:You See Right Thru Me;
#CHARTSTYLE:;
#DIFFICULTY:Edit;
#METER:14;
#METERF:0.000000;
#LASTSECONDHINT:125.754349;
#RADARVALUES:0.538179,0.756158,0.332632,0.549230,0.170184,487.000000,444.000000,43.000000,71.000000,6.000000,0.000000,0.000000,0.000000,0.000000,0.538179,0.756158,0.332632,0.549230,0.170184,487.000000,444.000000,43.000000,71.000000,6.000000,0.000000,0.000000,0.000000,0.000000;
#CREDIT:Melody Love;
#ATTACKS: TIME=0.772263:LEN=300.500000:MODS=80% Stealth:
;
#NOTES:
// measure 0
0000
0000
0000
0000
,  // measure 1
0000
0000
0000
0000
,  // measure 2
0000
0000
0000
0000
,  // measure 3
0000
0000
0000
0000
,  // measure 4
0000
0000
0000
0000
,  // measure 5
0000
0000
0000
0000
,  // measure 6
0000
0000
0000
0000
0000
0M00
0000
0000
,  // measure 7
0000
0000
0000
000M
0000
0000
0000
0000
,  // measure 8
0000
M000
0000
0000
0000
0000
0000
0M00
,  // measure 9
0000
0000
0000
0000
0000
000M
0000
0000
,  // measure 10
0000
0000
0000
0M00
0000
0000
0000
0000
,  // measure 11
0000
0000
0000
0000
,  // measure 12
2000
0001
3100
0010
0001
0010
0200
0000
,  // measure 13
0000
0000
0310
0010
0002
1000
0103
0010
,  // measure 14
1000
0010
0200
0000
0000
0000
0310
0010
,  // measure 15
2000
0001
3100
0010
0001
0010
0200
0000
,  // measure 16
0310
0001
0100
0010
0010
0000
1000
0000
,  // measure 17
0001
0000
0201
0300
0010
1000
0100
0010
,  // measure 18
0010
0000
0001
0000
1000
0000
1200
0300
,  // measure 19
0010
0001
0100
0010
0010
0000
1000
0000
,  // measure 20
0001
0000
0201
0300
0010
1000
0001
0000
,  // measure 21
0102
0003
0010
0001
1000
0000
2100
3000
,  // measure 22
0010
0100
0001
0000
0102
0003
0010
0100
,  // measure 23
2000
0000
3000
0000
0100
0010
0001
0000
0010
0100
0010
0000
0100
1000
0010
0000
,  // measure 24
1000
0010
0100
0001
0001
0100
0000
0010
,  // measure 25
1000
0100
0010
0010
0000
0001
0100
0010
,  // measure 26
0010
1000
0000
1000
0010
0100
0001
0001
,  // measure 27
0000
0001
0010
0100
1000
1100
0000
1000
,  // measure 28
0010
0100
0001
1100
0000
0001
0100
0010
,  // measure 29
2000
3010
0000
1000
0100
0010
0002
0013
,  // measure 30
0000
0010
0100
2000
0100
3010
0000
0010
,  // measure 31
0100
0002
0010
0103
0000
0001
0010
0200
,  // measure 32
0010
1300
0000
1000
0010
0200
0010
0301
,  // measure 33
1000
0100
0001
0100
0010
0001
1000
0010
,  // measure 34
0100
0001
0100
1000
0100
0010
1000
0001
,  // measure 35
0010
0000
0100
0000
0001
0100
0010
0000
1000
0010
0100
0000
0010
0100
0010
0000
,  // measure 36
0110
0010
0100
1000
0010
0100
0101
0001
,  // measure 37
0010
0100
1000
0100
0000
0100
0010
0001
,  // measure 38
0100
0010
1010
1000
0100
0010
0001
0010
,  // measure 39
0000
0001
0100
1000
0200
0000
0301
1000
,  // measure 40
0010
0100
0202
0000
0303
0100
0001
0010
,  // measure 41
2000
0000
3010
0001
0010
0100
2200
0000
,  // measure 42
3300
0100
0010
0001
2000
0100
3000
0100
,  // measure 43
0100
0010
0022
0000
0033
0001
0100
0010
,  // measure 44
2000
0010
3000
0010
0010
0100
0102
0000
,  // measure 45
1003
0001
1000
0100
1100
0000
0210
0000
,  // measure 46
0310
0001
0100
0000
0010
0001
0010
0100
,  // measure 47
1000
0000
0000
0000
0100
0010
0100
0000
0010
1000
0010
0000
0100
0001
0100
0000
,  // measure 48
0110
0000
0010
0000
1000
0000
0001
0000
0020
0030
0020
0030
2000
0000
0000
0000
,  // measure 49
0000
0000
0100
3100
0100
0010
0001
1000
,  // measure 50
0200
0300
0200
0300
0002
0000
0000
0000
0000
0000
0000
0000
0010
0000
0013
0000
,  // measure 51
0010
0000
0100
0000
1000
0000
0001
0000
0020
0030
0020
0030
1000
0000
0000
0000
,  // measure 52
1000
0010
0001
0010
0010
0000
1000
0000
,  // measure 53
0001
0000
0201
0300
0001
0010
1000
0010
,  // measure 54
0010
0000
0001
0000
1000
0000
1200
0300
,  // measure 55
1000
0010
0001
0010
0010
0000
1000
0000
,  // measure 56
0001
0000
0102
0003
1000
0010
0001
0000
,  // measure 57
0020
0030
0020
0030
0001
0000
0010
0000
1000
0000
0000
0000
0020
0030
0020
0030
,  // measure 58
1000
0000
0010
0000
0001
0000
0000
0000
0020
0030
0020
0030
0001
0000
0010
0000
,  // measure 59
1000
0000
0000
0000
0020
0030
0020
0030
0001
0010
1000
0000
0010
1000
0001
0000
,  // measure 60
2002
0000
0000
0000
,  // measure 61
0000
0000
0000
0000
,  // measure 62
0000
0000
0000
3003
,  // measure 63
0220
0000
0000
0000
,  // measure 64
0000
0000
0000
0000
,  // measure 65
0000
0000
0330
0000
1000
0100
0010
0000
,  // measure 66
0001
0001
0100
0010
1000
0100
0000
0100
,  // measure 67
1000
0010
0100
0001
0000
0001
0010
0100
,  // measure 68
1000
0010
0000
0010
1000
0100
0001
0100
,  // measure 69
0020
0000
0000
0032
,  // measure 70
0000
0000
2000
0000
,  // measure 71
0000
0000
3003
0000
,  // measure 72
0110
0010
0100
0001
1000
0010
1010
1000
,  // measure 73
0100
0010
0011
0100
0011
0010
0100
1000
,  // measure 74
0010
0100
0101
0001
0010
0100
1100
0010
,  // measure 75
1100
0000
0000
0000
1000
0000
0200
0300
0200
0300
0001
0000
0101
0000
0001
0000
,  // measure 76
0200
0300
0200
0300
1000
0000
0100
0000
0010
0000
0001
0000
1000
0000
0010
0000
,  // measure 77
0100
0000
0001
0000
1001
0000
0000
0000
0001
0000
0200
0300
0200
0300
1000
0000
,  // measure 78
0020
0030
0020
0030
0001
0000
0200
0300
0200
0300
1000
0000
1100
0000
0000
0000
,  // measure 79
1000
0000
0200
0300
0200
0300
0001
0000
0020
0030
0020
0030
1000
0000
0200
0300
,  // measure 80
0200
0300
0001
0000
0101
0000
0000
0000
0001
0000
0100
0000
0010
0000
0000
0000
,  // measure 81
0210
0300
1000
0100
0000
0100
0001
0010
,  // measure 82
1000
0010
0001
1000
1010
0100
0001
0010
,  // measure 83
0011
0000
0010
0000
0100
1000
0010
0000
0100
0001
0010
0000
0100
1000
0010
0100
,  // measure 84
0002
2000
0000
0000
,  // measure 85
3003
0000
0000
0000
;
