#TITLE:Rhythm Bandits;
#SUBTITLE:;
#ARTIST:Junior Senior;
#TITLETRANSLIT:;
#SUBTITLETRANSLIT:;
#ARTISTTRANSLIT:;
#GENRE:;
#CREDIT:;
#MUSIC:Rhythm Bandits.ogg;
#BANNER:Rhythm Bandits.png;
#BACKGROUND:Rhythm Bandits-bg.png;
#CDTITLE:;
#SAMPLESTART:41.418;
#SAMPLELENGTH:12.545;
#SELECTABLE:YES;
#OFFSET:-0.010;
#BPMS:0.000=176.859
,2.000=159.000
,3.000=173.000
,5.000=178.000
,6.000=182.000
,8.000=184.000
,9.000=176.000
,14.000=173.730
,15.500=175.170
,17.500=181.000
,20.000=179.000
,23.000=173.080
,25.000=178.000
,26.500=178.830
,28.000=178.000
,30.000=169.000
,31.000=177.000
,33.500=180.000
,34.500=186.000
,36.000=176.859
,68.000=177.800
,81.000=171.190
,82.000=165.000
,84.000=177.060
,124.000=176.950
,188.000=178.000
,202.000=173.460
,204.000=176.860
,224.000=177.130
,243.000=176.280
,250.000=177.020
,306.000=178.330
,308.000=177.030
,332.000=176.870
,364.000=165.000
;
#STOPS:;
#BGCHANGES:2.500=Rhythm Bandits.mp4=1.000=0=0=1,
99999.000=-nosongbg-=1.000=0=0=0=StretchNoLoop====
;
#FGCHANGES:;

//--------------- dance-single - OrangeRight ----------------
#NOTES:
     dance-single:
     OrangeRight:
     Beginner:
     4:
     0,0,0,0,0:
0000
0000
0000
0000
,
0000
0000
0000
0000
,
0000
0000
0000
0000
,
0000
0000
0000
0000
,
0000
0000
0000
0000
,
1000
1000
1000
0000
,
0000
0000
0000
0000
,
0001
0001
0001
0000
,
0000
0000
0000
0000
,
1000
0000
1000
0000
,
0100
0000
0000
0000
,
0010
0000
0010
0000
,
0001
0000
0000
0000
,
1000
0000
0100
0000
,
0010
0000
0000
0000
,
0001
0000
0001
0000
,
1000
0000
1000
0000
,
2002
0000
0000
0000
,
3003
0000
0001
0000
,
2000
0000
0000
0000
,
3000
0000
0100
0000
,
1000
0000
1000
0000
,
0001
0000
0001
0000
,
0100
0000
0100
0000
,
0001
0000
1000
0000
,
0001
0000
0001
0000
,
1000
0000
1000
0000
,
0100
0000
0100
0000
,
1000
0000
0001
0000
,
0010
0000
0010
0000
,
0001
0000
1000
0000
,
0001
0000
0001
0000
,
0100
0000
0000
0000
,
0010
0000
0010
0000
,
1000
0000
0000
0000
,
1000
0000
1000
0000
,
0100
0000
0000
0000
,
0010
0000
0010
0000
,
0001
0000
0000
0000
,
1000
1000
1000
0000
,
0000
0000
1000
0000
,
0001
0001
0001
0000
,
0000
0000
0001
0000
,
0100
0100
0100
0000
,
0000
0000
0010
0000
,
1000
0000
1000
0000
,
0001
0000
0001
0000
,
2002
0000
0000
0000
,
3003
0000
0001
0000
,
2000
0000
0000
0000
,
3000
0000
0010
0000
,
1000
0000
0001
0000
,
1000
0000
0001
0000
,
0010
0000
0010
0000
,
0100
0000
0100
0000
,
1000
0000
0001
0000
,
1000
0000
0001
0000
,
0100
0000
0100
0000
,
0010
0000
0010
0000
,
1000
0000
1000
0000
,
0001
0000
0001
0000
,
1000
1000
1000
0000
,
0000
0000
0000
0000
,
0001
0001
0001
0000
,
0100
0000
0100
0000
,
0001
0001
0001
0000
,
1000
0000
0100
0000
,
1000
1000
1000
0000
,
0010
0000
1000
0000
,
0100
0100
0100
0000
,
0010
0000
0001
0000
,
0010
0010
0010
0000
,
0100
0000
1000
0000
,
0001
0001
0001
0000
,
1000
0000
0001
0000
,
1000
0001
1000
0000
,
0001
0000
1000
0000
,
0010
0000
0010
0000
,
0010
0000
0000
0000
,
0100
0000
0100
0000
,
0100
0000
0000
0000
,
0001
0000
1000
0000
,
0001
0000
0000
0000
,
1000
0000
0100
0000
,
0010
0000
0001
0000
,
0001
0000
0010
0000
,
0100
0000
1000
0000
,
1000
0000
0100
0000
,
0010
0000
0001
0000
,
0001
0000
0010
0000
,
0100
0000
1000
0000
,
2002
3003
0000
0000
;

//--------------- dance-single - OrangeRight ----------------
#NOTES:
     dance-single:
     OrangeRight:
     Easy:
     6:
     0,0,0,0,0:
0000
0000
0000
0000
,
0000
0000
0000
0000
,
0000
0000
0000
0000
,
0000
0000
0000
0000
,
0000
0000
0000
0000
,
1000
0001
1000
0000
,
0100
0000
0010
0000
,
0001
1000
0001
0000
,
0100
0000
0010
0000
,
1000
0010
1000
0000
,
0100
0100
1000
0000
,
0001
0100
0001
0000
,
0010
0100
1000
0000
,
0001
1000
0001
0000
,
0010
0100
0010
0100
,
1000
1000
0001
0001
,
0100
0100
0010
0010
,
2000
0000
0100
0000
,
3001
0100
0001
0100
,
0002
0000
0100
0000
,
1003
0001
0200
0300
,
0001
0000
0100
0100
,
0010
0000
1000
1000
,
0100
0000
0010
0100
,
1000
0001
1000
0001
,
1000
0000
0100
0100
,
0010
0000
0001
0001
,
0100
0000
0010
1000
,
0001
1000
0001
1000
,
0100
0010
0100
1000
,
0001
1000
1000
0001
,
1000
0100
1000
0000
,
0010
0010
0100
0000
,
0001
0010
0001
0000
,
1000
0001
0100
0000
,
0001
0010
0001
0000
,
0100
0100
0010
0000
,
1000
0001
1000
0000
,
0100
0010
0001
0000
,
1000
1000
1000
0010
,
0100
0001
1000
0000
,
0001
0001
0001
0010
,
0100
1000
0001
0000
,
0100
0100
0100
0010
,
1000
0100
0010
0000
,
0001
0001
0100
0100
,
0010
0010
1000
1000
,
0002
0000
0010
0000
,
1003
0001
2000
3000
,
2000
0000
0001
0000
,
3001
1000
0200
0300
,
1000
0000
0100
0000
,
0010
0000
0100
0000
,
1000
0001
0100
0001
,
0010
0100
0100
0010
,
0001
0000
0100
0000
,
0010
0000
0100
0000
,
0001
1000
0010
1000
,
0100
0010
0010
0100
,
1000
0000
0001
0000
,
0100
0010
0010
0100
,
0001
1000
2002
0000
,
0000
0000
3003
0000
,
1000
0001
2002
3003
,
1000
0001
0010
0100
,
1000
0001
2002
3003
,
1000
0010
0100
0001
,
0010
0001
0022
0033
,
0001
0010
0100
1000
,
0010
1000
2020
3030
,
0010
1000
0100
0010
,
0001
0100
0202
0303
,
0100
0010
1000
0100
,
1000
0001
2002
3003
,
1000
0010
0001
0010
,
1000
0100
0010
0001
,
0100
1000
0100
0001
,
1001
0000
1001
0000
,
1000
0100
0010
0000
,
0110
0000
0110
0000
,
0010
0001
0100
0000
,
0110
0000
0110
0000
,
0010
1000
0001
0000
,
1000
1000
0100
0100
,
0010
0010
0001
0001
,
0100
0100
0010
0010
,
1000
1000
0001
0001
,
1000
0001
0100
0010
,
1000
0100
0010
0001
,
1000
0001
0000
0000
0001
1000
0000
0000
,
2000
0001
0001
3001
,
1001
1001
0000
0000
;

//--------------- dance-single - OrangeRight ----------------
#NOTES:
     dance-single:
     OrangeRight:
     Medium:
     11:
     0,0,0,0,0:
0000
0000
0000
0000
,
0000
0000
0000
0000
,
0000
0000
0000
0000
,
0000
0000
0000
0000
,
0000
0000
0000
0000
,
1001
1100
1002
0000
,
0100
0100
1003
0000
,
1001
0011
2001
0000
,
0010
0000
0010
0000
3001
0000
1000
0001
,
2000
0000
3200
0000
0310
0001
1000
0000
,
0010
0000
0100
0001
0000
0010
0100
0000
,
2000
0000
3020
0000
0230
0000
0301
0010
,
0100
1000
0000
1000
0000
0001
1000
0000
,
0002
0000
0023
0000
0130
1000
0001
0000
,
1000
0000
0100
0010
0000
0001
1000
0000
,
0001
0010
0000
0000
0100
1000
0000
0000
,
1000
0100
0000
0000
0010
0001
0000
0000
,
2000
0010
0001
0100
,
3001
1000
0001
1000
0010
0100
0010
0100
,
0002
0010
1000
0100
,
2003
3002
0200
0303
,
0001
0000
0100
0001
0000
0001
1000
0000
,
0100
0000
1000
0010
0000
0010
0100
0000
,
0001
0000
0010
0100
0000
1000
0000
0001
,
1000
0000
1000
0001
0100
0000
0100
0010
,
1000
0000
0100
1000
0000
1000
0001
0000
,
0100
0000
0001
0010
0000
0010
0100
0000
,
1000
0000
0010
0100
0000
0001
0000
1000
,
0001
0000
1000
0001
0100
0000
0001
1000
,
0010
0000
1000
0100
0000
0010
0000
0001
,
0100
0010
0100
0000
0001
1000
0001
0000
,
1000
0000
0100
0000
1000
0010
0100
0000
,
0001
0000
1000
0001
0000
0001
1000
0000
,
0001
0000
0010
0000
0001
0100
0010
0000
,
2000
0000
3010
0200
0000
0301
0020
0000
,
0031
0000
1000
0000
0001
0100
0010
0000
,
1000
0000
0100
0010
0000
0010
0001
0000
,
1000
0000
0001
0000
1000
0010
0100
0000
,
0002
0000
0103
0020
0000
1030
0200
0000
,
2300
0000
3002
0000
0103
0010
0100
0000
,
0001
0010
0100
1000
0000
0001
1000
0000
,
0002
0000
2003
0000
3020
0000
1030
0100
,
0020
0000
0031
0200
0000
0310
2000
0000
,
3002
0000
2003
0000
3100
0010
0100
0000
,
1000
0100
0010
0001
0000
1000
0001
0000
,
1000
0100
0000
0000
0010
0001
0000
0000
,
0001
0010
0000
0000
0100
1000
0000
0000
,
0002
0010
1000
0100
,
1003
0100
0010
0001
0100
0010
0100
0010
,
2000
0010
0001
0100
,
3001
0100
0010
0000
2000
0000
3000
0000
,
0001
0000
0010
0100
0000
1000
0000
0001
,
1000
0000
0010
0100
0000
0001
0000
1000
,
0100
0010
0001
0100
0000
0010
0000
1000
,
0001
0000
0100
0001
1000
0000
1000
0001
,
0010
0000
0100
1000
0000
0001
0000
0100
,
0001
0000
0010
0001
0000
1000
0000
0010
,
1000
0100
0010
0001
0000
1000
0000
0001
,
1000
0000
0010
1000
0001
0000
0100
0001
,
1000
0010
0100
0001
0000
0010
0000
0100
,
1000
0001
1000
0000
0001
1000
0001
0000
,
1000
1000
2000
0000
,
0010
0000
0001
0000
3100
0000
1000
0001
,
2000
0000
3002
0000
2003
0000
3010
0100
,
0002
0000
0013
0200
0000
1300
0020
0000
,
2030
0000
3200
0000
2300
0000
3010
0100
,
0010
0000
1000
0001
0000
0001
1000
0000
,
0002
0000
0203
0000
0302
0000
0013
0100
,
0020
0000
0031
0200
0000
0310
2000
0000
,
3002
0000
0023
0000
0230
0000
1300
0010
,
0100
0000
0001
0100
0000
0100
0001
0000
,
2000
0000
3200
0000
0320
0000
0031
0100
,
0020
0000
1030
0002
0000
1003
0200
0000
,
2300
0000
3002
0000
0103
0010
0100
0010
,
1000
0100
0010
0001
0000
0001
1000
0000
,
0002
0000
2003
0000
3010
0100
0010
0100
,
0001
0010
0100
1000
0000
1000
0001
0000
,
1000
0100
0010
0000
0002
0000
0100
0000
,
0023
0100
0031
1000
,
0001
0010
0100
0000
1000
0000
0010
0000
,
2000
0000
3001
0200
0000
0310
2000
0000
,
3001
0010
0100
0000
1000
0000
0010
0000
,
0100
0000
0001
1000
0001
0000
1000
0000
,
0001
0100
0001
0000
1000
0100
1000
0000
,
0001
0010
0001
0000
1000
0100
0010
0001
,
1000
0100
1000
0000
0001
0100
0001
0000
,
1000
0010
1000
0000
0001
0010
0100
1000
,
0010
0100
0010
0000
1000
0001
1000
0000
,
0100
0010
0100
0000
1000
0001
1000
0001
,
1000
0100
0010
0000
0001
0100
0010
0000
,
1000
0100
0010
0001
1000
0100
0010
0001
,
1000
0001
0000
0000
;

//--------------- dance-single - OrangeRight ----------------
#NOTES:
     dance-single:
     OrangeRight:
     Hard:
     14:
     0,0,0,0,0:
0000
0000
0000
0000
,
0000
0000
0000
0000
,
0000
0000
0000
0000
,
0000
0000
0000
0000
,
0000
0000
0000
0000
0000
1000
0100
0010
,
0002
0000
0203
0000
0302
0000
1003
0001
,
1000
0010
0100
0001
0000
0001
0010
0100
,
2000
0000
3020
0000
2030
0000
3001
0100
,
0010
1000
0000
1001
0000
0001
0010
0001
,
1001
0000
1100
0000
1001
0000
0001
1000
,
0010
1000
0100
0020
0000
0031
1000
0001
,
1001
0000
0011
0000
1001
0000
1000
0100
,
0010
0001
0000
0101
0000
0100
0001
0010
,
0011
0000
1100
0000
1001
0000
1000
0100
,
0001
0100
1000
0010
0000
0100
0001
0000
,
1000
0001
1000
0000
0100
0000
0010
0000
0001
1000
0001
0000
0010
0000
0100
0000
,
1000
0100
1000
0000
0010
0000
0100
0000
0001
0010
0001
0000
0100
0000
0010
0000
,
1000
0100
0010
0001
1000
0100
0010
0001
,
1000
0010
0010
0100
0100
0001
0001
1000
,
0001
0010
0100
1000
0001
0010
0100
0110
,
0000
1001
0000
1000
2200
0000
3300
0000
,
1000
0000
0100
0010
0000
0001
0100
0000
,
0001
0000
0010
0100
0000
1000
0010
0000
,
1000
0000
0001
1000
0000
0110
0000
1001
,
0001
1000
0010
0010
1000
0001
0010
0010
,
0001
0000
0100
0010
0000
1000
0100
0000
,
1000
0000
0010
0100
0000
0001
0010
0000
,
0001
0000
1000
0001
0000
0110
0000
1001
,
0001
1000
0100
0100
1000
0001
0010
0010
,
0001
1000
0001
1000
0000
1001
0000
0110
,
0010
1000
0100
0100
0010
0001
1000
0001
,
1001
0000
1100
0000
0100
1000
0010
0100
,
0001
0010
1000
0020
0000
0031
1000
0001
,
1001
0000
0101
0000
1010
0000
0010
1000
,
0100
0010
0000
0011
0000
0010
0001
1000
,
1001
0000
1100
0000
1000
0001
0100
0010
,
1000
0100
0001
0200
0000
1300
0010
1000
,
1001
0000
1100
0000
0011
0000
0010
0001
,
0100
0010
0000
1010
0000
0010
1000
0100
,
1100
0000
1001
0000
1100
0100
0010
0100
,
1000
0010
0001
0020
0000
1030
0001
1000
,
1001
0000
0110
0000
1001
0000
1000
0001
,
1000
0010
0100
0001
0010
0100
0010
0001
,
1001
0000
0110
0000
0100
0001
0010
0100
,
1000
0010
0001
0020
0000
1030
0001
0000
,
1000
0001
1000
0000
0001
0000
0100
0000
0001
1000
0001
0000
1000
0000
0010
0000
,
1000
0100
0010
0000
0001
0000
0100
0000
0001
0010
0100
0000
1000
0000
0010
0000
,
1000
0100
0010
0001
0100
0010
1000
0001
,
0010
0100
0100
1000
2000
0001
0001
3001
,
0001
0010
0100
1000
0010
0100
0001
1001
,
0000
0110
0000
0010
2020
0000
3030
0000
,
0010
0000
1000
0100
0000
1000
0010
0100
,
0001
0000
0010
0001
0000
0010
0100
1000
,
0010
0100
0001
1000
0000
1001
0000
0110
,
0010
1000
0010
0000
0100
0000
0001
0000
0010
0001
0010
0000
0100
0000
1000
0000
,
0010
0000
1000
0100
0000
0010
0001
0010
,
0100
0000
1000
0010
0000
0100
0001
0010
,
0100
1000
0010
0100
0000
0110
0000
1001
,
1000
0100
1000
0000
0010
0000
0010
0000
0100
0001
0100
0000
0001
0000
0001
0000
,
0100
0001
0010
1000
0010
0001
0100
0010
,
1000
0100
0010
0000
0001
0000
1000
0000
0001
0010
0100
0000
1000
0000
0001
0000
,
1001
0110
2001
0010
,
0100
0000
3010
1000
0000
0001
1000
0001
,
1001
0000
0101
0000
1001
0000
1000
0010
,
2000
0100
3100
0020
0001
0031
0100
0010
,
1010
0000
1001
0000
1000
0100
0001
0100
,
1000
0010
1000
0000
0001
0000
2000
0000
0000
0000
3100
0000
0010
0000
0001
0000
,
0101
0000
0011
0000
1001
0000
1000
0001
,
1000
0010
0001
1000
0100
0001
1000
0001
,
1001
0000
1100
0000
1000
0010
0001
0010
,
1000
0100
1000
0000
0001
0000
2000
0000
0000
0000
3001
0000
0100
0000
0010
0000
,
1010
0000
1100
0000
1001
0000
1000
0001
,
1000
0100
0001
1000
0010
0001
0100
0010
,
0110
0000
1001
0000
0001
1000
0100
0001
,
0100
1000
0010
0000
0100
0000
0102
0000
0000
0000
1003
0000
0010
0000
0001
0000
,
0010
1000
0100
1000
0001
1000
0010
0100
,
0001
0010
1000
0020
0000
0031
1000
0001
,
1000
0100
0010
1000
0010
0100
1000
0001
,
0100
0010
1000
1200
0000
1300
0001
0100
,
0001
0010
0100
0001
0100
0010
0001
0100
,
0010
1000
0001
0021
0000
0031
1000
0010
,
1000
0100
0001
0100
0010
0001
0100
0010
,
1000
0001
1001
0220
0000
0330
1001
0000
,
1000
0001
1000
0000
0100
0000
0010
0000
0001
1000
0001
0000
0100
0000
0010
0000
,
1000
0100
1000
0000
0010
0000
0100
0000
0001
1000
0001
1000
0001
0000
0000
0000
,
1000
0010
1000
0000
0100
0000
0010
0000
0001
0100
0001
0000
0010
0000
0100
0000
,
1000
0010
0100
0000
0001
0000
0010
0000
0100
0010
0100
0010
0100
0000
0000
0000
,
1000
0010
1000
0000
0001
0000
1000
0000
0001
0010
0001
0000
1000
0000
0001
0000
,
1000
0100
0010
0000
0001
0000
1000
0000
0001
1000
0001
1000
0001
0000
0000
0000
,
1000
0010
1000
0010
1000
0000
0010
0000
0100
0001
0100
0001
0100
0000
0001
0000
,
1000
0100
0001
1000
0010
0001
0100
0010
,
0110
1001
0000
0000
;

//--------------- dance-single - OrangeRight ----------------
#NOTES:
     dance-single:
     OrangeRight:
     Challenge:
     17:
     0,0,0,0,0:
0000
0000
0000
0000
,
0000
0000
0000
0000
,
0000
0000
0000
0000
,
0000
0000
0000
0000
,
0000
0000
0000
0000
0000
1000
0100
0010
,
0002
0000
0000
0000
0100
0000
0000
0003
0002
0000
0000
0000
0010
0000
0000
0003
0002
0000
0000
0000
1000
0000
0000
0000
1003
0000
0000
0000
0010
0000
0000
0000
,
0100
0001
0010
0011
0000
0001
0010
0100
,
2000
0000
0000
0000
0010
0000
0000
3000
2000
0000
0000
0000
0100
0000
0000
3000
2000
0000
0000
0000
0001
0000
0000
0000
3001
0000
0000
0000
0100
0000
0000
0000
,
0010
1010
0000
1100
0000
1000
0010
1000
,
1010
0000
0011
0000
0101
0100
0010
1000
,
0001
0010
0001
0011
0000
0001
0100
0001
,
0101
0000
0011
0000
1010
0000
0010
1000
,
0100
0010
0001
0011
0000
0001
0100
0001
,
0101
0000
1100
0000
1010
0010
1000
0100
,
0010
0001
0100
0010
1000
0001
1000
0000
,
1000
0001
1000
0001
1000
0000
0001
0000
0100
0010
0100
0010
0100
0000
0010
0000
,
1000
0010
1000
0010
1000
0000
0010
0000
0100
0001
0100
0001
0100
0000
0001
0000
,
1000
0100
0010
0001
0100
0010
1000
0100
0010
0001
0100
0010
1000
0010
0100
0001
,
0010
0001
0001
0100
0100
0010
0010
1000
,
0001
0010
0100
1000
0010
0100
0001
0100
0010
1000
0100
0010
0001
0000
0011
0000
,
1000
1010
0001
1000
2002
0000
3003
0000
,
1000
0000
0001
0101
0000
0100
0010
0100
,
0001
0000
1000
1100
0000
0100
0010
0100
,
1000
0000
1010
0110
0000
0101
0000
1001
,
1000
0100
1000
0100
1000
0000
1000
0000
0001
0100
0001
0100
0001
0000
0001
0000
,
1000
0000
0001
0011
0000
0010
0100
0010
,
0001
0000
1000
1010
0000
0010
0100
0010
,
1000
0000
1001
0110
0000
1010
0000
1100
,
1000
0010
1000
0010
1000
0000
1000
0000
0001
0100
0001
0100
0001
0000
0001
0000
,
1000
0001
1001
0110
0000
0101
0000
0011
,
0001
0010
0100
1000
0010
0000
0010
0000
1000
0100
0010
0001
0100
0000
0001
0000
,
0101
0000
1001
0000
0011
0010
0001
0100
,
0001
1000
0001
0000
1000
0000
1100
0000
0000
0000
1000
0000
0001
0000
1000
0000
,
1001
0000
0110
0000
1001
0000
1000
0001
,
0100
0001
0100
0000
0010
0000
2010
0000
0000
0000
3001
0000
0010
0000
0001
0000
,
0011
0000
1001
0000
0101
0001
0010
0100
,
1000
0001
1000
0000
0001
0000
0011
0000
0000
0000
0001
0000
0100
0000
0001
0000
,
0101
0000
0110
0000
1010
0000
0010
1000
,
0100
1000
0100
0000
0010
0000
0021
0000
0000
0000
0130
0000
1000
0000
0010
0000
,
2000
0000
0000
0000
0001
0000
0000
3000
2000
0000
0000
0000
0010
0000
0000
3000
2000
0000
0000
0000
0100
0000
0000
0000
3100
0000
0000
0000
1000
0000
0000
0000
,
0010
0100
0010
0000
1000
0000
1100
0000
0000
0000
1000
0000
0100
0000
0010
0000
,
0002
0000
0000
0000
1000
0000
0000
0003
0002
0000
0000
0000
0100
0000
0000
0003
0002
0000
0000
0000
0010
0000
0000
0000
0013
0000
0000
0000
0001
0000
0000
0000
,
1000
0001
1000
0000
0001
0000
0101
0000
0000
0000
0001
0000
0010
0000
0100
0000
,
2000
0010
3020
0100
0230
0001
0301
1000
,
0001
0010
1000
0010
0001
1000
0001
0000
,
1000
0100
1000
0100
0010
0000
0001
0000
0010
0001
0010
0001
0100
0000
0010
0000
,
1000
0001
1000
0001
0100
0000
0100
0000
0001
0010
0100
1000
0001
0000
1000
0000
,
0001
0010
0100
1000
0010
0100
0001
0010
0100
1000
0100
0010
0001
0100
0010
1000
,
0100
1000
0010
0100
0002
1000
1000
1003
,
1000
0100
0010
0001
0100
0010
1000
0010
0100
0001
0010
0100
1000
0000
1010
0000
,
0001
0101
0100
0010
0220
0000
0330
0000
,
0101
0000
0001
0100
00M0
0100
1000
0100
,
1100
0000
1000
0100
00M0
0100
0001
0010
,
0100
1000
0100
1100
0000
0101
0000
1001
,
1000
0001
0010
0100
1000
0000
0001
0000
1000
0100
0010
0001
1000
0000
0010
0000
,
1010
0000
1000
0010
0M00
0010
0001
0010
,
0011
0000
0001
0010
0M00
0010
1000
0100
,
1000
0001
1000
1001
0000
0110
0000
1001
,
1000
0010
0100
0001
0010
0000
0100
0000
1000
0100
0010
0001
0100
0000
0010
0000
,
1000
0001
0010
1000
0010
0100
0010
0001
,
0010
0001
0010
0001
0100
0000
0010
0000
1000
0100
1000
0100
0010
0000
0001
0000
,
1001
0000
0110
0000
1001
1000
0100
0010
,
0001
0001
0010
0100
0000
1000
0100
0010
,
0002
0010
0023
0100
0230
1000
1300
0001
,
1000
0100
1000
0000
0010
0000
1000
0001
1000
0000
0001
0000
0100
0000
0001
0000
,
2000
0010
3020
0100
0230
0001
0301
1000
,
0001
0010
0100
0000
1000
0000
1100
0000
0000
0000
1000
0000
0100
0000
0010
0000
,
0002
0100
0203
0010
0320
1000
1030
0001
,
0010
0001
0100
0000
0010
0000
1000
0100
0010
0000
0001
0000
1000
0000
0001
0000
,
1001
0001
0011
0010
0110
0100
1000
0010
,
0001
0010
0100
0000
0001
0000
0021
0000
0000
0000
0130
0000
0010
0000
0100
0000
,
1100
1000
1010
0010
0110
0100
0001
0010
,
0100
0010
0001
0000
0100
0000
0010
1000
0100
0000
1000
0000
0001
0000
1000
0000
,
1001
1000
1010
0010
0110
0100
0001
0010
,
1000
0010
0100
0000
1000
0000
1020
0000
0000
0000
0130
0000
0010
0000
0001
0000
,
0010
0100
0010
1000
0010
0100
0001
0010
,
1000
0010
0001
2000
0000
3001
0010
0100
,
1100
1000
0001
1001
0001
0100
0101
0100
,
0010
0000
0100
0000
0001
0000
0010
0001
0100
0001
0010
0000
0001
0000
0100
0000
,
0101
0001
0010
0110
0100
1000
1100
1000
,
0010
0000
1000
0000
0001
0000
1000
0100
0010
0100
1000
0000
0010
0000
0100
0000
,
0001
0010
0100
0000
1000
0000
1000
0100
0010
0000
0001
0000
0001
0010
0100
0000
,
1000
0100
0110
2002
3003
1000
0100
0010
,
0001
1000
0001
1000
0001
0000
1000
0000
0010
0100
0010
0100
0010
0000
0100
0000
,
0001
0100
0001
0100
0001
0000
0100
0000
0010
1000
0100
0010
0001
0010
0100
1000
,
0001
0100
0001
0100
0010
0000
1000
0000
0010
1000
0010
1000
0100
0000
0010
0000
,
0001
1000
0001
1000
0100
0000
0100
0000
1000
0010
0100
0001
0100
0010
1000
0001
,
1000
0100
0010
0001
1000
0000
0001
0000
0010
0001
0100
0010
1000
0000
0100
0000
,
0010
0100
1000
0010
0100
0000
0001
0000
1000
0100
0010
0001
0100
0010
1000
0100
,
1000
0010
0100
0001
1000
0100
1000
0001
0100
0010
1000
0001
0010
0001
1000
0010
,
0100
0001
0010
0100
1000
0001
0100
0010
1000
0010
0100
0001
1000
0001
0010
0100
,
1000
1001
0000
0000
;

//--------------- dance-double - OrangeRight ----------------
#NOTES:
     dance-double:
     OrangeRight:
     Easy:
     6:
     0,0,0,0,0:
00000000
00000000
00000000
00000000
,
00000000
00000000
00000000
00000000
,
00000000
00000000
00000000
00000000
,
00000000
00000000
00000000
00000000
,
00000000
00000000
00000000
00000000
,
00010000
00001000
00020000
00000000
,
00030100
00000000
00010000
00000000
,
00001000
00010000
00002000
00000000
,
01003000
00000000
00001000
00000000
,
00010000
00001000
00200000
00000000
,
00310000
00000000
01000000
00000000
,
00100000
01000000
00020000
00000000
,
00130000
00000000
00100000
00000000
,
00001000
00010000
00000200
00000000
,
00001300
00000000
00000010
00000000
,
00000100
00000100
00000001
00000001
,
00001000
00001000
00000100
00000100
,
00002000
00000000
00000000
00003000
,
00001000
00000100
00000010
00000001
,
00000002
00000000
00000000
00000003
,
00000001
00000010
00000200
00000300
,
00001000
00000100
00000000
00010000
,
00001000
00100000
00000000
00010000
,
01000000
00100000
01000000
00100000
,
10000000
00010000
00010000
10000000
,
00010000
01000000
00000000
00001000
,
00010000
00000010
00000000
00001000
,
00000001
00000010
00000100
00001000
,
00000010
00000100
00000100
00000010
,
00001000
00000001
00001000
00000001
,
00000010
00000100
00000100
00000010
,
00000001
00000100
00000001
00000000
,
00001000
00000100
00001000
00000000
,
00000010
00010000
00001000
00000000
,
00020000
00030000
00002000
00003000
,
00100000
00010000
00100000
00000000
,
01000000
10000000
01000000
00000000
,
10000000
00100000
01000000
00000000
,
00020000
00030000
20000000
30000000
,
00010000
00010000
00020000
00000000
,
00130000
00001000
00010000
00000000
,
00001000
00001000
00002000
00000000
,
00013000
00000100
00001000
00000000
,
00000100
00000100
00000200
00000000
,
00010300
00001000
00100000
00000000
,
00010000
00010000
01000000
01000000
,
00100000
00100000
10000000
10000000
,
00020000
00000000
00000000
00030000
,
10000000
01000000
00200000
00300000
,
02000000
00000000
00000000
03000000
,
10000000
00010000
20020000
30030000
,
10000000
00100000
00000000
00100000
,
01000000
00010000
00000000
00010000
,
00100000
00001000
00010000
00000100
,
00001000
00000001
00000001
00001000
,
00000001
00000100
00000000
00000100
,
00000010
00001000
00000000
00001000
,
00000100
00010000
00001000
00100000
,
00010000
10000000
10000000
00010000
,
00100000
00001000
00010000
00000100
,
00001000
00000001
00000001
00001000
,
00000200
00000000
00000000
00000000
,
00000000
00000000
00000000
00000300
,
00001000
00000100
00010000
00000000
,
00002000
00003000
00002000
00003000
,
00010000
00001000
00100000
00010000
,
01000000
00100000
01000000
00000000
,
00100000
01000000
00010000
00100000
,
00002000
00003000
00020000
00030000
,
00000100
00001000
00000010
00000100
,
00000001
00000010
00000100
00000000
,
00001000
00000100
00010000
00001000
,
00200000
00300000
00020000
00030000
,
10000000
00100000
00010000
00100000
,
10000000
01000000
00100000
00010000
,
01000000
00001000
00010000
00000100
,
00001000
00000010
00000001
00000010
,
00002000
00003000
00002000
00003000
,
00002000
00003000
00001000
00000100
,
00000020
00000030
00000020
00000030
,
00000020
00000030
00000010
00000100
,
00002000
00003000
00000200
00000300
,
00010000
00001000
00010000
00000000
,
00001000
00001000
00100000
00100000
,
00010000
00010000
01000000
01000000
,
00001000
00001000
00010000
00010000
,
00000100
00000100
00001000
00001000
,
00000010
00001000
00000100
00010000
,
00001000
00100000
00010000
01000000
,
00100000
01000000
00010000
20000000
,
00010000
00010000
00010000
30010000
,
10010000
10010000
00000000
00000000
;

//--------------- dance-double - OrangeRight ----------------
#NOTES:
     dance-double:
     OrangeRight:
     Medium:
     11:
     0,0,0,0,0:
00000000
00000000
00000000
00000000
,
00000000
00000000
00000000
00000000
,
00000000
00000000
00000000
00000000
,
00000000
00000000
00000000
00000000
,
00000000
00000000
00000000
00000000
,
10010000
10010000
20020000
30000000
,
01030000
00000000
00000000
00001000
00000000
00000000
00010000
00000000
,
00011000
00011000
00022000
00003000
,
00030100
00000000
00000000
00001000
00000000
00000001
00001000
00000000
,
00001001
00000000
00001100
00000000
00001001
00000000
00001000
00000100
,
00010000
00000000
00001000
00010000
00000000
00010000
00001000
00000000
,
00011000
00000000
00101000
00000000
00011000
00000000
00010000
00001000
,
00100000
00000000
00010000
01000000
00000000
00100000
10000000
00000000
,
10010000
00000000
11000000
00000000
10010000
00000000
00010000
01000000
,
00100000
00000000
10000000
01000000
00000000
00100000
00010000
00000000
,
10000000
00200000
00000000
00300000
01000000
00020000
00000000
00030000
,
00100000
00002000
00000000
00003000
00010000
00000100
00001000
00000000
,
00002001
00000000
00000100
00000010
,
00003001
00000100
00000001
00000000
00001000
00000100
00001000
00000000
,
00001002
00000000
00000010
00001000
,
00000103
00000000
00000001
00001000
00002002
00000000
00003003
00000000
,
00000001
00000000
00000001
00000100
00000000
00000100
00000010
00000000
,
00000010
00000000
00000010
00001000
00000000
00001000
00000100
00000000
,
00000100
00000000
00001000
00000100
00000000
00010000
00000000
00001000
,
00200000
00310000
00020000
01030000
,
00010000
00000000
00010000
01000000
00000000
01000000
00100000
00000000
,
10000000
00000000
10000000
01000000
00000000
01000000
00100000
00000000
,
00100000
00000000
00010000
10000000
00000000
00010000
00000000
10000000
,
00200000
01300000
02000000
03010000
,
00010000
00000000
00100000
00001000
00000000
00010000
00000000
00001000
,
00200000
00310000
00020000
10030000
,
10000000
00000000
00010000
00000000
10000000
01000000
00100000
00010000
,
01000000
00000000
00001000
00010000
00000000
00000100
00001000
00000000
,
00000001
00000000
00001000
00000000
00000001
00000000
00000100
00000010
,
00002000
00000000
00003100
00000020
00000000
00000031
00001000
00000000
,
00000001
00000000
00001000
00000000
00000001
00000010
00000100
00001000
,
00000010
00000000
00010000
00001000
00000000
00100000
00010000
00000000
,
10000000
00000000
00010000
00000000
10000000
00000000
00100000
01000000
,
00020000
00000000
00130000
02000000
00000000
13000000
00010000
00000000
,
10010000
00000000
10010000
00000000
10010000
00000000
00010000
01000000
,
00001000
00010000
00000100
00010000
,
00011000
00000000
00011000
00000000
00011000
00000000
00001000
00010000
,
00000200
00000000
00001300
00000020
00000000
00000130
00000001
00000000
,
00001001
00000000
00001001
00000000
00001001
00000000
00000001
00000100
,
00000010
00000000
00001000
00000100
00000000
00000100
00010000
00000000
,
00001000
00200000
00000000
00300000
00010000
02000000
00000000
03000000
,
00100000
10000000
01000000
00000000
00100000
00010000
01000000
00000000
,
10020000
00000000
00100000
10000000
,
01030000
00100000
01000000
00000000
02200000
00000000
03300000
00000000
,
20010000
00000000
00100000
00010000
,
31000000
00000000
10000000
00010000
20020000
00000000
30030000
00000000
,
10000000
00000000
01000000
00100000
00000000
00010000
00000000
01000000
,
00001000
00000000
00010000
00000100
00000000
00001000
00000000
00000010
,
00001000
00000000
00000100
00000010
00000000
00000001
00000000
00001000
,
00000002
00000103
00000200
00000310
,
00000100
00000000
00000010
00001000
00000000
00001000
00000100
00000000
,
00000010
00000000
00000001
00000100
00000000
00000100
00000010
00000000
,
00001000
00000100
00001000
00000100
00000000
00010000
00000000
00001000
,
00200000
00310000
00020000
01030000
,
00010000
01000000
00010000
01000000
00000000
00001000
00000000
00010000
,
00002000
00103000
00200000
00310000
,
10000000
00010000
20020000
00000000
,
00000000
00000000
30030000
00010000
,
01000000
00001000
00010000
00001000
01000000
00000000
00001000
00000000
,
00020000
00000000
00030100
00002000
00000000
00003010
00000200
00000000
,
00000301
00000010
00000100
00000010
00000001
00000000
00000100
00000000
,
00000010
00000000
00001000
00000100
00000000
00000100
00010000
00000000
,
00001000
00100000
00010000
00100000
00001000
00000000
00100000
00000000
,
00020000
00000000
00130000
02000000
00000000
13000000
00200000
00000000
,
10300000
00010000
01000000
00010000
00100000
00000000
00001000
00000000
,
00010000
00000000
00001000
00100000
00000000
00100000
00001000
00000000
,
00010000
00000100
00001000
00000100
00010000
00000000
00000100
00000000
,
00002000
00000000
00003010
00000200
00000000
00000301
00000020
00000000
,
00000031
00000100
00001000
00000100
00000001
00000000
00001000
00000000
,
00000100
00010000
00001000
00100000
00010000
00000000
01000000
00000000
,
00010000
00100000
01000000
00000000
10000000
00100000
01000000
00000000
,
00010000
10000000
01000000
10000000
00000000
10000000
00100000
01000000
,
00010000
00000000
00100000
00001000
00020000
00000000
00000100
00000000
,
00032000
00000000
01000000
00000000
00013000
00000100
00001000
00000010
,
00001000
00000000
00000001
00001000
00000000
00000010
00000100
00000000
,
00000001
00000000
00001000
00000100
00000000
00000010
00000100
00000000
,
00001000
00000000
00000100
00010000
00002000
00000000
00100000
00000000
,
00013000
00022000
00033000
00001000
,
00100000
00010000
00100000
00000000
00010000
01000000
00010000
00000000
,
01000000
00001000
01000000
00000000
00001000
00010000
00001000
00010000
,
00000010
00001000
00000010
00000000
00001000
00000100
00001000
00000000
,
00000100
00010000
00000100
00000000
00010000
00001000
00010000
00001000
,
00100000
00010000
00100000
00000000
00010000
01000000
00010000
00000000
,
01000000
00100000
01000000
00000000
00100000
10000000
00100000
00000000
,
10000000
00010000
10000000
00010000
01000000
00100000
01000000
00100000
,
10000000
00010000
00100000
01000000
10000000
00010000
00100000
01000000
,
10000000
10010000
00000000
00000000
;

//--------------- dance-double - OrangeRight ----------------
#NOTES:
     dance-double:
     OrangeRight:
     Hard:
     13:
     0,0,0,0,0:
00000000
00000000
00000000
00000000
,
00000000
00000000
00000000
00000000
,
00000000
00000000
00000000
00000000
,
00000000
00000000
00000000
00000000
,
00000000
00000000
00000000
00000000
,
20000000
00000000
30020000
00000000
10030000
00100000
01000000
00010000
,
00100000
00010000
01000000
00001000
00000000
00010000
00001000
00010000
,
00000200
00000000
00002300
00000000
00003020
00000000
00000130
00000001
,
00000010
00000100
00000000
00001000
00000000
00000001
00001000
00000001
,
00001001
00000000
00001100
00000000
00001001
00000001
00000010
00000100
,
00001000
00000010
00010000
00001000
00000000
00010000
00001000
00010000
,
00011000
00000000
00101000
00000000
00011000
00000000
00001000
01000000
,
00010000
00100000
01000000
10000000
00000000
00010000
10000000
00010000
,
10010000
00000000
00110000
00000000
10010000
10000000
01000000
00100000
,
00010000
01000000
10000000
01000000
00010000
10000000
00010000
00000000
,
10000000
01000000
01000000
10000000
00010000
01000000
01000000
00010000
,
00100000
00001000
00001000
00010000
00000100
00001000
00001000
00000001
,
00001000
00000100
00000010
00000001
00001000
00000100
00000010
00000001
,
00001000
00000100
00000100
00010000
00010000
00001000
00001000
00100000
,
00010000
00100000
01000000
10000000
00010000
00100000
01000000
10000000
,
00100000
00010000
00100000
10000000
20020000
00000000
30030000
00000000
,
10000000
00000000
01000000
00100000
00000000
00010000
01000000
00000000
,
00001000
00000000
00010000
00000100
00000000
00001000
00000010
00000000
,
00001000
00000000
00000001
00001000
00000000
00000110
00000000
00001001
,
00000001
00000100
00000010
00000010
00001000
00000100
00000010
00000010
,
00000001
00000000
00000100
00000010
00000000
00001000
00000100
00000000
,
00010000
00000000
00001000
01000000
00000000
00010000
00100000
00000000
,
00010000
00000000
10000000
00010000
00000000
01100000
00000000
10010000
,
10000000
01000000
00100000
00100000
00010000
01000000
00100000
00100000
,
10000000
01000000
00100000
00110000
00000000
11000000
00000000
10010000
,
10000000
01000000
00100000
00100000
00010000
01000000
00100000
10000000
,
10100000
00000000
11000000
00000000
10000000
01000000
00010000
00001000
,
00010000
01000000
10000000
00200000
00000000
01300000
00001000
00010000
,
00011000
00000000
00010100
00000000
00001100
00000000
00000100
00001000
,
00000010
00000001
00000010
00000200
00000000
00000301
00000100
00000001
,
00000101
00000000
00000011
00000000
00000001
00000010
00001000
00010000
,
00001000
00000010
00000001
00000200
00000000
00000310
00001000
00000100
,
00010100
00000000
00011000
00000000
00101000
00000000
00100000
00010000
,
01000000
00001000
00010000
00000200
00000000
00001300
00000010
00010000
,
00011000
00000000
01001000
00000000
01010000
01000000
00010000
00100000
,
00001000
00010000
00001000
00000000
00010000
00000000
00000200
00000000
00000000
00000000
00010300
00000000
00001000
00000000
00010000
00000000
,
00011000
00000000
00010010
00000000
00001010
00000000
00000010
00001000
,
00000100
00000001
00000100
00002000
00000000
00003010
00010000
00001000
,
00011000
00000000
00101000
00000000
00110000
00010000
01000000
00001000
,
00010000
00000100
00001000
00000000
00000010
00000000
00000200
00000000
00000000
00000000
00000301
00000000
00001000
00000000
00000000
00000000
,
00000001
00000010
00000010
00000001
00001000
00000010
00000010
00001000
,
00000100
00010000
00000100
00000000
00010000
00000000
00001000
00000000
00100000
00001000
00100000
00000000
00010000
00000000
01000000
00000000
,
00010000
00100000
01000000
10000000
00010000
00100000
01000000
10000000
,
00010000
00100000
00001000
00010000
00000200
00001000
00001000
00001000
,
00001300
00000100
00000010
00000001
00001000
00000100
00000010
00000001
,
00000100
00001000
00000100
00000001
00002002
00000000
00003003
00000000
,
00001000
00000000
00000100
00000010
00000000
00000100
00001000
00000000
,
00000100
00000000
00010000
00001000
00000000
00001000
00100000
00000000
,
00010000
01000000
10000000
01000000
00000000
01010000
00000000
00110000
,
00100000
00010000
00100000
00000000
01000000
00000000
01000000
00000000
10000000
00100000
10000000
00000000
00010000
00000000
10000000
00000000
,
00010000
00000000
00100000
01000000
00000000
00100000
00010000
00000000
,
00100000
00000000
00001000
00010000
00000000
00010000
00000100
00000000
,
00001000
00000010
00000001
00000010
00000000
00001010
00000000
00001100
,
00000100
00001000
00000100
00000000
00000010
00000000
00000010
00000000
00000001
00000100
00000001
00000000
00001000
00000000
00000001
00000000
,
00001000
00000100
00000010
00000001
00000000
00000101
00000000
00001010
,
00001000
00000100
00000010
00000000
00000001
00000000
00001000
00000000
00000001
00000010
00000100
00000000
00001000
00000000
00000001
00000000
,
00001001
00000110
00001002
00000100
,
00000010
00000000
00000103
00000010
00000000
00000010
00001000
00000010
,
00001010
00000000
00001100
00000000
00010100
00000000
00010000
00001000
,
00200000
00010000
00310000
02000000
00100000
03100000
10000000
00010000
,
10010000
00000000
11000000
00000000
10010000
00010000
00100000
01000000
,
10000000
00100000
10000000
00000000
01000000
00000000
00200000
00000000
00000000
00000000
00310000
00000000
01000000
00000000
00010000
00000000
,
01010000
00000000
00110000
00000000
00101000
00000000
00001000
00010000
,
00000200
00001000
00001300
00000020
00000100
00000130
00000001
00001000
,
00001001
00000000
00001100
00000000
00001010
00001000
00000100
00010000
,
00001000
00100000
00001000
00000000
00010000
00000000
00000020
00000000
00000000
00000000
00010030
00000000
00001000
00000000
00100000
00000000
,
00110000
00000000
01010000
00000000
10010000
00000000
10000000
00100000
,
00010000
00100000
10000000
01000000
00010000
01000000
10000000
00010000
,
10010000
00000000
01010000
00000000
00110000
00010000
01000000
00001000
,
00010000
00000100
00010000
00000000
00001000
00000000
00200000
00000000
00000000
00000000
00301000
00000000
00010000
00000000
00000100
00000000
,
00001000
00000010
00000001
00000010
00001000
00000100
00000001
00000100
,
00001000
00000100
00000010
00000002
00000000
00001003
00000001
00001000
,
00001001
00000000
00001000
00001100
00000000
00000100
00010100
00000000
,
00010000
00001000
00100000
00220000
00330000
00100000
00010000
01000000
,
01010000
00000000
00010000
00110000
00000000
00100000
01100000
00000000
,
01000000
10000000
00100000
20200000
30300000
10000000
01000000
00010000
,
01010000
00000000
01000000
11000000
00000000
10000000
10100000
00000000
,
00100000
01000000
01100000
20020000
00000000
30030000
10010000
00000000
,
10000000
01000000
01000000
10000000
00010000
01000000
01000000
00010000
,
00100000
00010000
00100000
00000000
00010000
00000000
00100000
00000000
00001000
00010000
00001000
00000000
00010000
00000000
00000100
00000000
,
00001000
00000010
00000010
00001000
00000001
00000010
00000010
00000001
,
00001000
00000001
00001000
00000000
00000100
00000000
00000010
00000000
00000001
00001000
00000001
00000000
00000100
00000000
00000010
00000000
,
00001000
00000010
00001000
00000000
00000100
00000000
00000010
00000000
00000001
00000100
00000001
00000000
00000010
00000000
00000100
00000000
,
00001000
00000100
00010000
00000000
00001000
00000000
00100000
00000000
00010000
01000000
00100000
00000000
10000000
00000000
01000000
00000000
,
00010000
00001000
00000100
00000001
00000010
00001000
00010000
00100000
,
10000000
01000000
00010000
00001000
00000100
00000001
00000010
00000100
,
00000110
00001001
00000000
00000000
;

//--------------- dance-double - OrangeRight ----------------
#NOTES:
     dance-double:
     OrangeRight:
     Challenge:
     17:
     0,0,0,0,0:
00000000
00000000
00000000
00000000
,
00000000
00000000
00000000
00000000
,
00000000
00000000
00000000
00000000
,
00000000
00000000
00000000
00000000
,
00000000
00000000
00000000
00000000
00000000
00010000
00100000
01000000
,
11000000
00000000
10100000
00000000
01010000
01000000
00010000
00100000
,
00001000
00010000
00000100
00010000
00000000
00001000
00010000
00000100
,
00001100
00000000
00001010
00000000
00000101
00000000
00000100
00000001
,
00000010
00001000
00000010
00000001
00000000
00001000
00000001
00001000
,
00001001
00000000
00001010
00000000
00001100
00000100
00001000
00000010
,
00000100
00000001
00000010
00000100
00001000
00000001
00001000
00000010
,
00001010
00000000
00010010
00000000
00011000
00000000
00001000
00100000
,
00010000
01000000
10000000
00010000
00100000
10000000
00010000
10000000
,
10010000
00000000
00110000
00000000
01010000
01000000
00010000
00100000
,
01000000
10000000
00100000
00010000
00100000
10000000
00010000
00000000
,
10000000
01000000
10000000
01000000
10000000
00000000
00010000
00000000
01000000
00010000
01000000
00010000
01000000
00000000
00001000
00000000
,
00010000
00001000
00010000
00001000
00010000
00000000
00000100
00000000
00001000
00000000
00000010
00000000
00000100
00000000
00000001
00000000
,
00001000
00000100
00000010
00000001
00000100
00000010
00000100
00000010
00001000
00000100
00001000
00000100
00010000
00001000
00010000
00001000
,
00100000
00010000
00010000
01000000
01000000
00100000
00100000
10000000
,
10000000
01000000
00100000
00010000
01000000
00100000
10000000
00100000
01000000
00010000
00100000
01000000
10000000
00000000
11000000
00000000
,
00010000
01010000
01000000
00100000
02200000
00000000
03300000
00000000
,
10010000
00000000
10000000
01000000
00000000
00100000
00000000
00010000
,
00110000
00000000
00100000
00001000
00000000
00010000
00000000
00000010
,
00001010
00000000
00000110
00000101
00000000
00001001
00000000
00000011
,
00000010
00000001
00000010
00000001
00000100
00000000
00000010
00000000
00001000
00000100
00001000
00000100
00000010
00000000
00000001
00000000
,
00001001
00000000
00000001
00000010
00000000
00000100
00000000
00001000
,
00001100
00000000
00000100
00010000
00000000
00001000
00000000
01000000
,
01010000
00000000
01100000
10100000
00000000
10010000
00000000
11000000
,
01000000
10000000
01000000
10000000
00100000
00000000
01000000
00000000
00010000
00100000
00010000
00100000
01000000
00000000
10000000
00000000
,
00100000
01000000
00010000
00110000
00000000
00101000
00000000
00011000
,
00010000
00000100
00010000
00000100
00001000
00000000
00000010
00000000
00001000
00000100
00000010
00000001
00001000
00000000
00001000
00000000
,
00000001
00000010
00001000
00000010
00000001
00000100
00001000
00010000
,
00001000
00100000
00001000
00000000
00100000
00000000
00110000
00000000
00000000
00000000
00010000
00000000
01000000
00000000
00100000
00000000
,
01000000
10000000
01000000
00100000
01000000
00010000
00100000
01000000
,
10000000
01000000
10000000
00000000
00100000
00000000
02100000
00000000
00000000
00000000
03010000
00000000
00100000
00000000
01000000
00000000
,
10000000
01000000
00010000
01000000
10000000
00100000
00010000
00001000
,
00010000
00000100
00010000
00000000
00000100
00000000
00001100
00000000
00000000
00000000
00001000
00000000
00000010
00000000
00000100
00000000
,
00000010
00000001
00000010
00000100
00000010
00001000
00000100
00000010
,
00000001
00000010
00000001
00000000
00001000
00000000
00001020
00000000
00000000
00000000
00000130
00000000
00000010
00000000
00001000
00000000
,
00000002
00000000
00000000
00000000
00000010
00000000
00000000
00000003
00000002
00000000
00000000
00000000
00000100
00000000
00000000
00000003
00000002
00000000
00000000
00000000
00001000
00000000
00000000
00000000
00001003
00000000
00000000
00000000
00000100
00000000
00000000
00000000
,
00010000
00000100
00010000
00000000
00001000
00000000
00100000
00000000
00000000
00000000
00010000
00000000
01000000
00000000
00010000
00000000
,
20000000
00000000
00000000
00000000
00100000
00000000
00000000
30000000
20000000
00000000
00000000
00000000
01000000
00000000
00000000
30000000
20000000
00000000
00000000
00000000
00010000
00000000
00000000
00000000
30010000
00000000
00000000
00000000
10000000
00000000
00000000
00000000
,
00100000
10000000
00100000
00000000
01000000
00000000
00010000
01000000
00010000
00000000
10000000
00000000
01000000
00000000
00100000
00000000
,
00020000
00100000
20030000
00100000
30020000
01000000
10030000
00010000
,
01000000
00010000
00100000
00001000
00010000
00000100
00001000
00000000
,
00000010
00001000
00000010
00001000
00000100
00000000
00000100
00000000
00010000
00001000
00010000
00001000
00100000
00000000
00010000
00000000
,
10000000
00100000
10000000
00100000
01000000
00000000
00010000
00000000
10000000
01000000
00100000
00010000
01000000
00000000
00100000
00000000
,
10000000
00100000
01000000
00010000
00100000
01000000
10000000
00100000
10000000
00010000
10000000
01000000
00100000
00010000
01000000
00010000
,
00100000
00001000
00010000
00000100
00002000
00000001
00000001
00003001
,
00000001
00000010
00000100
00001000
00000010
00000100
00000001
00000010
00000001
00000100
00000001
00001000
00000010
00000000
00001010
00000000
,
00001000
00001100
00000100
00000010
00000220
00000000
00000330
00000000
,
00001001
00000000
00000001
00000010
00000M00
00000010
00001000
00000000
,
00001010
00000000
00000010
00001000
00000M00
00001000
00010000
00000000
,
00011000
00010000
00001000
00101000
00000000
00110000
00000000
10010000
,
00010000
00100000
01000000
10000000
00010000
00000000
00010000
00000000
10000000
01000000
00100000
00010000
10000000
00000000
10000000
00000000
,
10010000
00000000
10000000
01000000
00M00000
01000000
00010000
00000000
,
01010000
00000000
01000000
00010000
00M00000
00010000
00001000
00000000
,
00011000
00010000
00000100
00001100
00000000
00001010
00000000
00001001
,
00000001
00001000
00000100
00001000
00000010
00000000
00010000
00000000
00000100
00010000
00001000
00100000
00001000
00000000
00010000
00000000
,
00011000
00001000
01000000
01010000
00000000
00110000
00000000
10010000
,
00010000
00100000
01000000
10000000
00100000
00000000
00100000
00000000
10000000
01000000
00100000
00010000
01000000
00000000
01000000
00000000
,
00020000
00100000
00230000
00001000
00302000
00010000
00010000
00010000
,
00013000
00000100
00001000
00000010
00000000
00000100
00000001
00000010
,
00000002
00000100
00000203
00000010
00000320
00001000
00001030
00000001
,
00000010
00000100
00001000
00000000
00000010
00000000
00010000
00001000
00100000
00000000
00010000
00000000
00100000
00000000
00100000
00000000
,
00020000
01000000
02030000
00100000
03200000
10000000
10300000
00010000
,
10000000
00100000
01000000
00000000
00010000
00000000
00110000
00000000
00000000
00000000
00010000
00000000
00100000
00000000
01000000
00000000
,
20000000
01000000
32000000
00100000
03200000
00010000
00310000
10000000
,
01000000
00100000
00010000
00000000
00100000
00000000
00001000
00010000
00000100
00000000
00001000
00000000
00000001
00000000
00001000
00000000
,
00001001
00000001
00000101
00000100
00000110
00000010
00001000
00000100
,
00010000
00001000
00000100
00001000
00010000
00001000
00100000
00010000
,
00110000
00010000
01010000
01000000
01100000
00100000
10000000
01000000
,
00010000
01000000
10000000
00000000
00100000
00000000
01000000
00010000
00100000
00000000
00001000
00000000
00100000
00010000
10000000
00000000
,
10010000
00010000
01010000
01000000
01001000
00001000
00010000
00000100
,
00001000
00000010
00000001
00000010
00001000
00000100
00000010
00000001
,
00000100
00001000
00000100
00000010
00000100
00000001
00001000
00000100
,
00000001
00000100
00001000
00000000
00000010
00000000
00000210
00000000
00000000
00000000
00000301
00000000
00001000
00000001
00001000
00000000
,
00000001
00000010
00000001
00000000
00000100
00000000
00000010
00001000
00000010
00000000
00000100
00000000
00000010
00001000
00000100
00000000
,
00010000
00001000
00100000
00120000
00000000
01030000
00100000
10000000
,
00010000
01000000
00010000
00000000
00100000
00000000
01000000
10000000
01000000
00000000
00100000
00000000
00010000
01000000
00100000
00000000
,
10000000
01000000
00100000
00210000
00000000
00301000
00010000
00000100
,
00001000
00000010
00000100
00000000
00000010
00000000
00001000
00000100
00000010
00000000
00000100
00000000
00001000
00000001
00001000
00000000
,
00000001
00000010
00000110
00002002
00003003
00001000
00000100
00000010
,
00000001
00000010
00000001
00000010
00000100
00000000
00001000
00000000
00000010
00010000
00000010
00010000
00001000
00000000
00100000
00000000
,
00010000
00100000
00010000
00100000
01000000
00000000
10000000
00000000
00010000
00100000
01000000
10000000
00010000
10000000
01000000
00100000
,
00010000
10000000
00010000
10000000
01000000
00000000
00100000
00000000
00010000
01000000
00010000
01000000
00001000
00000000
00010000
00000000
,
00000100
00001000
00000100
00001000
00000100
00000000
00000010
00000000
00000001
00000010
00000100
00001000
00000001
00001000
00000100
00000010
,
00000001
00000100
00000010
00001000
00000100
00000000
00001000
00000000
00000100
00010000
00001000
01000000
00010000
00000000
10000000
00000000
,
00010000
00100000
01000000
10000000
00100000
00000000
00100000
00000000
10000000
01000000
00100000
00010000
10000000
00010000
00100000
01000000
,
10000000
00100000
10000000
00100000
01000000
00010000
01000000
00010000
00100000
00010000
00100000
00010000
00100000
00001000
00100000
00001000
,
00010000
00001000
00010000
00001000
00010000
00000100
00010000
00000100
00001000
00000100
00000010
00000001
00000100
00000010
00001000
00000100
,
00000010
00001001
00000000
00000000
;
