#VERSION:0.83;
#TITLE:Retro Fire;
#SUBTITLE:(Scorccio Hot Mix);
#ARTIST:Maxx 'N Cala;
#TITLETRANSLIT:;
#SUBTITLETRANSLIT:;
#ARTISTTRANSLIT:;
#GENRE:;
#ORIGIN:;
#CREDIT:;
#BANNER:Retro Fire.png;
#BACKGROUND:Retro Fire-bg.png;
#PREVIEWVID:;
#JACKET:Retro Fire-jacket.png;
#CDIMAGE:;
#DISCIMAGE:;
#LYRICSPATH:;
#CDTITLE:;
#MUSIC:Retro Fire.ogg;
#OFFSET:-0.027070;
#SAMPLESTART:32.868000;
#SAMPLELENGTH:14.450000;
#SELECTABLE:YES;
#BPMS:0.000=137.023;
#STOPS:72.000=1.313;
#DELAYS:;
#WARPS:;
#TIMESIGNATURES:0.000=4=4;
#TICKCOUNTS:0.000=4;
#COMBOS:0.000=1;
#SPEEDS:0.000=1.000=0.000=0;
#SCROLLS:0.000=1.000;
#FAKES:;
#LABELS:0.000=Song Start;
#BGCHANGES:;
#KEYSOUNDS:;
#ATTACKS:
;

//---------------dance-single - ----------------
#NOTEDATA:;
#CHARTNAME:;
#STEPSTYPE:dance-single;
#DESCRIPTION:;
#CHARTSTYLE:;
#DIFFICULTY:Hard;
#METER:11;
#RADARVALUES:0.420037,0.476324,0.100617,0.145336,0.134156,263.000000,254.000000,9.000000,13.000000,0.000000,0.000000,0.000000,0.000000,0.000000,0.420037,0.476324,0.100617,0.145336,0.134156,263.000000,254.000000,9.000000,13.000000,0.000000,0.000000,0.000000,0.000000,0.000000;
#CREDIT:TonyAkita;
#NOTES:
// measure 0
0000
0000
0000
0000
,  // measure 1
0000
0000
0000
0000
,  // measure 2
0000
0000
0000
0000
,  // measure 3
0000
0000
0000
0000
,  // measure 4
0000
0000
0000
0000
,  // measure 5
1000
0010
0000
0010
0000
0000
0100
0000
0001
0000
0100
0000
0010
0000
0100
0000
,  // measure 6
0001
0010
0000
0010
0000
0000
0100
0000
1000
0000
0100
0000
0010
0000
0100
0000
,  // measure 7
1000
0001
0000
0001
0000
0000
1000
0000
0100
0000
1000
0000
0010
0000
0100
0000
,  // measure 8
0001
1000
0000
1000
0000
0000
0001
0000
0100
0000
0001
0000
0010
0000
0100
0000
,  // measure 9
1000
0010
0000
0010
0000
0000
0100
0000
1000
0000
0100
0000
0001
0000
1000
0000
,  // measure 10
0001
0010
0000
0010
0000
0000
0100
0000
0001
0000
0100
0000
1000
0000
0001
0000
,  // measure 11
0100
0010
0000
0010
0000
0000
1000
0000
0100
0000
0001
0000
0100
0000
1000
0000
,  // measure 12
0100
0010
0000
0010
0000
0000
0001
0000
0100
0000
1000
0000
0100
0000
0001
0000
,  // measure 13
2000
0010
0001
0010
,  // measure 14
3002
0010
1000
0010
,  // measure 15
0203
0001
0010
1000
,  // measure 16
1000
0010
0001
0301
,  // measure 17
1000
0001
1000
0001
1000
0001
1000
0001
,  // measure 18
2002
0000
3003
0000
1010
0000
0000
0000
0000
0000
1000
0100
1000
0000
0000
0000
,  // measure 19
0000
0010
0100
0010
1000
0000
0001
0000
,  // measure 20
0010
0000
0010
0000
0011
0000
0000
0000
0000
0000
0001
0100
0001
0000
0000
0000
,  // measure 21
0000
0010
0100
0010
0001
0000
1000
0000
,  // measure 22
0010
0000
0010
0000
1010
0000
0000
0000
0000
0000
0001
1000
0001
0000
0000
0000
,  // measure 23
0000
1000
0100
0010
0001
0000
0100
0000
,  // measure 24
0001
0000
0001
0000
0011
0000
0000
0000
0000
0000
1000
0001
1000
0000
0000
0000
,  // measure 25
0000
0001
0100
0010
1000
0000
0100
0000
,  // measure 26
1000
0001
0020
0000
0001
0000
0100
0000
,  // measure 27
0031
0000
0010
0100
1000
0000
0010
0000
,  // measure 28
0001
0020
1000
0100
,  // measure 29
1030
0000
0001
0010
0100
0000
1000
0000
,  // measure 30
0001
0200
0001
0010
,  // measure 31
0301
0000
0100
0010
1000
0000
0100
0000
,  // measure 32
0001
0200
1000
0010
,  // measure 33
1300
0000
1000
0001
1000
0001
1000
0001
,  // measure 34
1000
0000
0001
0000
1001
0000
0000
0000
0000
0000
1000
0001
1000
0000
0000
0000
,  // measure 35
0000
0001
0100
1000
0100
0000
0010
0000
,  // measure 36
1000
0000
1000
0000
1100
0000
0000
0000
0000
0000
0001
1000
0001
0000
0000
0000
,  // measure 37
0000
1000
0100
0001
0100
0000
0010
0000
,  // measure 38
0001
0000
0001
0000
0101
0000
0000
0000
0000
0000
0001
0010
0001
0000
0000
0000
,  // measure 39
0000
1000
0100
0001
0100
0000
1000
0000
,  // measure 40
0100
0000
0100
0000
1100
0000
0000
0000
0000
0000
1000
0010
1000
0000
0000
0000
,  // measure 41
0000
0001
0100
1000
0100
0000
0001
0000
,  // measure 42
0100
0010
2000
0000
0000
0010
3010
0000
,  // measure 43
0000
1000
0100
1000
0010
0000
0100
0000
,  // measure 44
0001
0001
0002
0000
0000
0010
0013
0000
,  // measure 45
0000
0001
0100
0001
0010
0000
0100
0000
,  // measure 46
1000
0001
0200
0000
0000
0010
0310
0000
,  // measure 47
0000
1000
0100
0010
0001
0000
0100
0000
,  // measure 48
0001
0001
0002
0000
0000
0010
0013
0000
,  // measure 49
0000
0001
0100
0010
,  // measure 50
1000
0001
0000
0000
0000
0000
0000
0000
;
