#VERSION:0.83;
#TITLE:Reincarnation of Dead Petal;
#SUBTITLE:;
#ARTIST:BEMANI Sound Team "Akhuta Works";
#TITLETRANSLIT:;
#SUBTITLETRANSLIT:;
#ARTISTTRANSLIT:;
#GENRE:;
#CREDIT:;
#MUSIC:Reincarnation of Dead Petal.ogg;
#BANNER:Reincarnation of Dead Petal-bn.png;
#BACKGROUND:Reincarnation of Dead Petal-bg.png;
#JACKET:Reincarnation of Dead Petal-jacket.png;
#CDTITLE:;
#SAMPLESTART:12.783;
#SAMPLELENGTH:16.364;
#SELECTABLE:YES;
#OFFSET:-0.056;
#BPMS:0.000=198.000;
#STOPS:;
#BGCHANGES:;
#FGCHANGES:;

//--------------- dance-single - Highflyer ----------------
#NOTEDATA:;
#STEPSTYPE:dance-single;
#DESCRIPTION:Highflyer;
#DIFFICULTY:Beginner;
#METER:4;
#RADARVALUES:0,0,0,0,0;
#NOTES:
0000
0000
0000
0000
,
0000
0000
0000
0000
,
0000
0000
0000
1001
,
1001
0000
0000
0000
,
1000
0000
0000
0000
,
1001
0000
0000
0110
,
0110
0000
0000
1001
,
1001
0000
0110
0000
,
1001
0000
0001
0000
,
2000
0000
0000
0000
,
3000
0001
0000
0000
,
0100
0000
0010
0000
,
0100
0100
0100
0100
,
0100
0000
0010
0000
,
1000
0000
0100
0000
,
0010
0010
0000
0100
,
0100
0100
0000
1000
,
1000
0000
0001
0000
,
0100
0000
0010
0010
,
0010
0000
0100
0000
,
0010
0000
1000
0000
,
1001
0000
0110
0000
,
1001
0000
0000
0000
,
2000
0000
3000
0000
,
0001
0000
0001
0000
,
0100
0100
0100
0000
,
0010
0010
0010
0000
,
0100
0000
0100
0000
,
0010
0000
1000
0000
,
0100
0000
0010
0010
,
0010
0000
0100
0000
,
0010
0000
0001
0000
,
1000
0000
0010
0010
,
0010
0000
0100
0000
,
0010
0000
1000
0000
,
0100
0000
0100
0000
,
0110
0000
1001
0000
,
0110
0000
0001
0000
,
2000
3000
0020
0030
,
0100
0000
0100
0000
,
0010
0000
0010
0000
,
0100
0000
0200
0300
,
0001
0000
0001
0000
,
1000
1000
1000
1000
,
1000
0000
0001
0000
,
0010
0000
0200
0300
,
0010
0000
0001
0000
,
0200
0000
0300
0000
,
0010
0000
0100
0000
,
0010
0000
1000
0000
,
0001
0000
0010
0000
,
0100
0100
0100
0100
,
0100
0000
0010
0000
,
0001
0000
1000
1000
,
1000
0000
0110
0000
,
1001
0000
0110
0000
,
0001
0000
1000
1000
,
1000
0000
0100
0000
,
0010
0000
0100
0000
,
0010
0010
0010
0000
,
0100
0000
1000
0000
,
0001
0001
0001
0000
,
0100
0110
0000
1001
,
0000
0110
0000
0000
,
0002
0000
0000
0003
,
2000
0000
0000
0000
,
3000
0010
0010
0000
,
2002
0000
0000
0000
,
0000
0000
3003
0000
,
0001
0000
1000
0000
,
0010
0000
0100
0000
,
0010
0000
0100
0000
,
0001
0000
1000
0000
,
0100
0000
0010
0000
,
0100
0000
1000
0000
,
0001
0000
0100
0100
,
0100
0000
0000
0000
,
0010
0000
0100
0000
,
0010
0000
1000
1000
,
1000
0000
0001
0000
,
0010
0010
0010
0010
,
0010
0000
0100
0000
,
0010
0000
0001
0001
,
0001
0000
2000
3000
,
1000
0000
0020
0030
,
0100
0000
0010
0000
,
1000
0000
0100
0000
,
0010
0000
0100
0100
,
0100
0000
0010
0000
,
0001
0000
0001
0001
,
0001
0000
0100
0100
,
0100
0000
0010
0000
,
0100
0000
0010
0000
,
1000
0000
1000
0000
,
2000
0000
0000
0000
,
3000
0002
0000
0000
,
0000
0000
0000
0000
,
0003
0000
0000
0000
;

//--------------- dance-single - Highflyer ----------------
#NOTEDATA:;
#STEPSTYPE:dance-single;
#DESCRIPTION:Highflyer;
#DIFFICULTY:Easy;
#METER:7;
#RADARVALUES:0,0,0,0,0;
#NOTES:
0000
0000
0000
0000
,
0000
0000
0000
0000
,
0000
0000
0000
1001
,
1001
0000
0000
0000
,
0001
0000
0100
0100
,
0110
0000
0010
1000
,
1010
0000
1000
0100
,
1100
0000
0110
0000
,
0011
0000
0001
0000
,
0001
1000
0010
0100
,
0010
1000
0000
0000
,
0002
0003
0010
0100
,
1000
0001
0100
0010
,
2000
3000
0100
0010
,
0200
0320
0032
1003
,
0010
0220
0330
0010
,
1000
2002
3003
0001
,
0010
0100
0010
0001
,
1000
0010
0100
0010
,
1000
0002
0023
0230
,
2300
3020
0230
0000
,
0320
2030
3200
0320
,
0032
0000
0000
0000
,
0203
0000
0000
0000
,
0310
1000
0100
0010
,
0100
1000
0010
0100
,
0010
1000
0100
0010
,
0001
0000
1000
0000
,
1001
0001
0101
0100
,
0110
0010
1000
0100
,
0010
0100
1000
0001
,
0100
0100
0100
0010
,
1000
0001
0010
1000
,
0010
0001
0100
0010
,
1000
0100
0001
0100
,
1000
1000
0010
0010
,
0110
0010
1010
1000
,
1100
0100
0010
0001
,
2000
3010
0200
0301
,
2000
3200
2300
3002
,
0203
0300
0110
0000
,
0010
1000
0100
0010
,
0110
0000
1100
0000
,
1000
0001
0100
0010
,
1010
0000
0101
0000
,
1000
0100
1000
0010
,
0110
0000
1001
0000
,
2000
0000
3020
0000
,
0130
0000
0100
0000
,
0010
0000
1000
0100
,
0010
0000
0100
0000
,
0010
0001
0100
0010
,
1000
0000
0001
0000
,
1000
0000
0010
0100
,
0001
0001
1000
1000
,
0100
0100
0010
0010
,
0001
0000
1000
0010
,
0100
0010
1000
0100
,
0010
0100
1000
0001
,
0200
0310
2000
3001
,
0010
0001
1000
0010
,
0200
0320
0230
0301
,
1000
1100
0010
0011
,
1000
1010
2000
0000
,
3002
0000
0000
0000
,
0023
0000
0000
0000
,
0000
0100
0130
1000
,
2002
0000
3003
0000
,
0000
0000
0000
0000
,
0001
0000
1000
0000
,
0010
0000
0100
0010
,
0100
0000
0010
0000
,
1000
0000
0001
0010
,
0001
0000
1000
0000
,
0010
0000
0100
0010
,
0100
0000
0010
1000
,
0001
0000
0010
0100
,
0010
0001
1000
0010
,
0100
0010
1000
0100
,
0001
0100
0010
0001
,
0100
0020
0230
0320
,
1030
0001
0010
0100
,
1000
0001
0100
1000
,
0200
0310
2000
0000
,
3002
0000
0023
0000
,
0230
0000
1300
0000
,
1001
0000
0001
0000
,
0100
0000
0010
0110
,
1001
0000
1000
0000
,
0100
0020
0032
0203
,
0310
1000
0001
0011
,
1100
1000
0001
0100
,
0110
0010
1010
1000
,
1001
1000
0200
0000
,
0320
0000
0000
0000
,
0000
0200
0000
0000
,
0000
0000
0000
0000
,
0330
0000
0000
0000
;

//--------------- dance-single - Highflyer ----------------
#NOTEDATA:;
#STEPSTYPE:dance-single;
#DESCRIPTION:Highflyer;
#DIFFICULTY:Medium;
#METER:13;
#RADARVALUES:0,0,0,0,0;
#NOTES:
0000
0000
0000
0000
,
0000
0000
0000
0000
,
0000
0000
0000
0110
,
1001
1000
0100
0010
,
0001
0000
0000
1000
0000
0000
0010
0000
0100
0001
0000
0100
,
0001
1000
0100
0110
,
1001
0000
0000
1000
0000
0000
0010
0000
0100
0001
0000
0000
,
0010
0000
0000
0100
0000
1000
0100
0000
0000
0010
0000
0001
,
0100
0000
0000
0010
0000
0000
2000
0000
0001
0000
0010
0000
,
3002
0010
1000
0100
,
1000
0000
0000
0013
0000
0100
1000
0000
0010
0100
0000
0001
,
2000
0000
0000
3100
0000
0000
0010
0000
0100
1000
0000
0001
,
1000
0000
0010
1000
0000
0001
0100
0000
0001
1000
0000
0001
,
0020
0000
0000
0130
0000
0000
1000
0000
0010
0000
0100
0000
,
0020
0000
0000
2030
0000
0000
3100
0000
0010
0100
0000
0010
,
0002
0000
0000
0203
0000
0000
0310
0000
1000
0001
0000
0100
,
0002
0000
0000
0023
0000
0000
0130
0000
1000
0001
0000
0000
,
1000
0000
0010
0000
0000
0100
0001
0000
0010
0000
0100
0000
,
2000
0000
0000
3001
0000
1000
0010
0000
1000
0001
0000
0010
,
0200
0000
0000
1300
0001
0000
0200
0000
0000
0310
1000
0000
,
0200
0000
0000
0310
0001
0000
1000
0000
0010
0000
0100
0000
,
0002
0010
2003
0010
,
3002
0100
0010
0100
,
2003
0100
0010
0001
,
3100
0000
0000
0010
0000
0100
1000
0000
0001
0100
0000
0010
,
1000
0000
0001
0010
0000
0000
0100
0000
0010
0000
0100
0000
,
1000
0000
0001
0100
0000
0001
0010
0000
0001
0100
0000
0010
,
2000
0000
0010
0000
0001
0000
3020
0000
0100
0000
1000
0000
,
0130
0000
0001
0010
0000
0010
0100
0000
1000
0010
0000
0010
,
0100
0000
0010
1000
0000
1000
0001
0000
1000
0100
0000
0010
,
0100
0000
1000
0001
0000
0100
0010
0000
1000
0001
0000
1000
,
0100
0000
1000
0010
0000
1000
0100
0000
1000
0020
0000
0000
,
0130
0000
0000
0010
0000
0100
0001
0000
0100
0010
0000
1000
,
0001
0000
1000
0100
0000
0010
0001
0000
0100
0000
0010
0000
,
1000
0000
0001
0010
0000
0001
1000
0000
0010
1000
0000
0001
,
0100
0000
0100
0000
0100
0000
0010
0000
0010
0000
0010
0000
,
1000
0000
0001
0010
0000
0100
0010
0000
0001
1000
0000
0010
,
0100
0000
0010
1000
0000
0100
0010
0000
0001
0000
1000
0000
,
0010
0200
0000
0301
0000
0000
0010
0200
0000
1300
0000
0000
,
0010
0000
0100
0001
0000
0100
0010
0000
1000
0000
0001
0000
,
0010
0000
0010
0000
0100
0000
1000
0001
0000
1000
0000
0001
,
0100
0000
0020
0000
0200
0000
0000
0330
,
0100
0000
0010
0000
1000
0000
0001
0010
0000
0200
0000
0000
,
1300
0000
1000
0000
0001
0000
0100
0000
0100
0000
0010
0000
,
1000
0000
1000
0000
0001
0000
0010
0100
0000
0010
0000
0001
,
0100
0000
0020
0000
1030
0001
1000
0001
,
1000
0000
1000
0000
0100
0000
0010
0001
0000
1000
0000
0010
,
0100
0000
0010
0000
0000
0000
0100
0000
0000
0000
0010
0000
0200
0000
0000
0300
0001
0000
0000
0000
1000
0000
0000
0000
,
0100
0000
0010
0000
0100
0000
1000
0001
0000
0001
0000
1000
,
0010
0000
0000
0000
1000
0000
0200
0000
0000
0000
0000
0000
0310
0000
0000
0001
0000
0000
0010
0000
0000
0001
0000
0000
,
0010
0000
0010
0000
0100
0000
1000
0001
0000
0200
0000
0000
,
0302
0000
1000
0000
0100
0000
1000
0000
0010
0000
1000
0000
,
0103
0000
0100
0000
0010
0000
1000
0001
0000
1000
0000
0000
,
0001
1000
0000
0010
0000
0000
0100
0000
0010
0000
1000
0000
,
0011
1010
0101
1100
,
0110
1001
0012
0203
,
0320
0000
0000
1030
0000
0001
0010
0000
0100
0010
0000
0001
,
0010
0000
0001
1000
0000
0010
1000
0000
0001
0000
0010
0000
,
0200
0000
1300
0001
0000
1000
0010
0000
0100
0001
0000
1000
,
0200
0000
0000
0310
0002
0000
2003
0000
3010
0200
0000
0000
,
0310
0000
1000
0000
0001
0000
0010
0000
0100
1000
0000
0001
,
0200
0000
0000
0320
0000
0000
0230
0000
0301
0020
0000
0000
,
0130
1000
0000
1001
0000
0000
0001
0100
0000
0101
0000
0000
,
0100
0010
0000
0110
0000
0000
1010
0000
0011
0000
1100
0000
,
2002
0000
0000
0000
0000
0000
0000
0000
0000
0000
0003
0000
,
0020
0000
0000
0000
,
0000
0000
0000
3030
0000
0000
1000
0000
0000
0001
0010
0000
,
0200
0000
0000
0000
,
0000
0320
0001
0100
,
0031
2000
3010
0200
,
0301
0020
0230
2300
,
3010
2000
3100
0020
,
0031
0000
1000
0010
1000
0010
2000
0000
,
3100
0020
0130
0020
,
0031
2000
3020
2030
,
3002
0023
0130
0100
,
0100
2000
3002
0203
,
0310
0000
0000
1000
0100
0000
0010
0000
0000
0100
1000
0000
,
0001
0000
0000
0100
0010
0000
0100
0000
0100
0000
0001
0000
,
0010
0000
0000
0100
1000
0000
0001
0000
0000
1000
0010
0000
,
0200
0000
0000
0301
0000
1000
0001
0000
1000
0020
0000
0000
,
0130
0000
0000
0001
0010
0000
0100
0000
0000
1000
0001
0000
,
0100
0000
0000
0010
1000
0000
0001
0000
0010
0000
0001
0000
,
2000
0000
0000
0010
0000
0000
3002
0000
0010
0000
1000
0000
,
0203
0000
0000
0320
0000
0000
2030
0000
0010
0000
0001
0000
,
3200
0320
0031
2000
,
3010
0010
0100
0100
,
0001
0001
1000
0110
,
1001
0000
0000
1000
0000
0000
0001
0000
0000
0001
0000
0010
,
0100
0000
2000
0000
3020
0000
0230
0300
,
0101
0000
0000
0002
0000
0000
0023
0000
0030
0110
0000
0000
,
1001
0000
0000
1000
0000
0010
0100
0000
0010
1000
0000
0000
,
1010
1000
0011
1000
,
1100
0000
0000
0001
0000
0000
0200
0000
0010
0000
0001
0000
,
0320
2030
3002
2003
,
3002
0023
0000
0000
,
0000
0000
0000
0000
,
0030
0000
0000
0000
;

//--------------- dance-single - Highflyer ----------------
#NOTEDATA:;
#STEPSTYPE:dance-single;
#DESCRIPTION:Highflyer;
#DIFFICULTY:Hard;
#METER:16;
#RADARVALUES:0,0,0,0,0;
#NOTES:
0000
0000
0000
0000
,
0000
0000
0000
0000
,
0000
0000
0000
0110
,
1001
0000
0001
1000
0000
0000
0010
0000
0100
0001
0000
0000
,
0010
0000
0000
0100
0000
1000
0001
0000
1000
0010
0000
1000
,
0200
0000
0000
0310
0000
0100
1000
0000
0002
0100
0000
0000
,
1003
0000
0000
0001
0000
0010
0100
0000
0010
0001
0000
0000
,
1000
0000
0000
0010
0100
0010
0100
0000
0000
0001
1000
0001
,
1000
0000
0000
0100
0010
0100
0020
0000
0001
0000
0100
0000
,
0032
0010
0100
1000
,
0100
0000
0000
0013
0000
0100
1000
0000
0010
0100
0001
1000
,
0001
0000
0010
0100
0000
0000
0010
0000
0001
0100
0001
1000
,
0100
0000
0010
0100
1000
0001
0100
0000
0010
1000
0001
0010
,
0200
0000
0000
0310
0000
0001
2000
0000
0010
0000
3001
1000
,
0001
0000
1000
0020
0000
0130
0001
1000
0001
0010
0100
0010
,
0002
0000
1003
0020
0000
0000
0130
0000
0010
1000
0001
1000
,
0200
0000
0310
0002
0000
0000
1003
0000
0010
0100
0010
1000
,
0001
0000
0010
0100
1000
0100
0010
0000
0001
0000
1000
0000
,
0020
0000
0000
0130
0001
1000
0100
0010
0100
0010
0001
0010
,
0002
0000
0000
1003
0010
0100
0002
0000
0000
1003
0100
1000
,
0002
0000
0000
0103
0010
1000
0200
0000
1000
0000
0010
0000
,
2300
0010
3002
0100
,
2003
0010
0001
0010
,
3002
0010
1000
0010
,
0103
0000
0000
0010
0100
0010
0100
0000
0010
1000
0000
0001
,
0100
0010
1000
0001
1000
0010
0100
0000
0010
0000
1000
0001
,
1000
0000
0100
0010
0000
0100
1000
0001
1000
0010
0100
0001
,
2000
0000
0100
0000
0001
0000
0100
0000
0001
0000
0010
0000
,
3001
0000
1000
0010
0000
1000
0100
0000
0010
0001
0000
0100
,
0001
0000
1000
0001
0000
0100
0010
1000
0010
0100
0000
0010
,
1000
0001
1000
0100
0000
0010
0001
1000
0001
0100
0010
1000
,
0100
0010
0100
1000
0001
1000
0010
0100
0010
1000
0001
0010
,
0100
0000
0000
0010
0001
0010
0100
1000
0001
1000
0010
0100
,
0010
1000
0001
0100
0010
1000
0001
0000
0010
0000
0001
1000
,
0010
0000
0100
0001
0000
1000
0001
0000
0010
0100
0000
1000
,
0002
0000
0100
0000
1000
0000
0010
0000
1000
0000
0100
0000
,
0013
0000
0100
0010
0100
0010
0001
1000
0001
1000
0010
0100
,
0001
0010
0001
0010
0100
1000
0002
0000
0010
0000
1000
0000
,
0103
0001
0100
0010
0000
0100
0001
1000
0100
0010
0000
0100
,
1000
0001
1000
0010
0100
0010
2000
0000
0010
0000
0001
0000
,
3100
0000
0100
0000
1000
0000
0010
0100
0000
0010
0000
0100
,
0001
0000
0001
1000
0000
0100
0010
0001
1000
0010
0100
0001
,
1000
0000
1000
0000
0100
0000
0010
0001
0000
0200
0000
0310
,
2000
0000
0010
0000
0100
0000
3002
0000
0010
0000
1000
0000
,
0103
0000
0100
0000
0001
0000
0001
1000
0000
0100
0000
0010
,
0100
0000
0010
0001
0000
1000
0010
0100
0001
0010
0100
1000
,
0001
0000
0001
0000
0100
0000
0100
0010
0000
1000
0000
0010
,
1000
0001
0000
0100
0000
1000
0100
0000
0010
0000
1000
0000
,
0002
0000
0013
0100
0000
0010
0100
0010
0000
0100
0000
0010
,
0100
0010
0001
2000
0000
0000
3010
0100
0001
0010
0100
1000
,
0010
0000
0010
0000
1000
0010
1000
0000
0010
0200
0000
0310
,
2000
0000
3001
0010
0001
0000
2000
0000
3010
0100
0010
1000
,
0001
0000
1000
0001
1000
0000
0001
1000
0000
0001
0000
1000
,
0001
1000
0000
0010
0000
0100
0001
1000
0001
0010
0100
1000
,
0010
0000
1000
0100
0000
1000
0010
0000
0100
0001
0000
0010
,
0001
0000
0100
0010
0000
1000
0100
0000
0010
0001
0000
0100
,
0020
0000
0000
0130
0001
1000
0100
0000
0010
0100
0000
1000
,
0001
0000
0100
0010
0000
0100
0002
0000
0010
0000
1000
0000
,
0203
0000
0310
1000
0000
0001
0010
0000
0100
1000
0000
0001
,
0200
0000
0320
0000
0130
0001
0020
0000
0130
1000
0000
0001
,
0100
0001
0100
0001
2000
3000
0001
0010
0001
0010
0200
0300
,
2000
0000
0000
0010
0000
0000
3001
0000
1000
0100
0010
0001
,
1000
0000
0100
0001
0000
0000
0100
0000
0010
0001
0000
0000
,
1000
0000
0010
0001
0000
0000
0020
0000
0001
0000
0100
0000
,
2030
0000
0000
0000
,
3002
0000
0000
0000
,
0000
0000
0000
0103
0000
0010
0200
0000
0000
0310
1000
0010
,
2000
0000
0000
0000
,
0000
3001
0010
0100
,
1000
0000
0000
0001
0000
0100
0010
0000
0000
0100
0000
0010
,
1000
0000
0000
0001
0000
0010
0100
0000
0010
0001
0000
1000
,
0020
0000
0000
0130
0000
0001
0020
0000
0000
0130
0000
1000
,
0002
0000
1003
0010
1000
0100
0010
0001
,
2000
0000
0000
3010
0000
0100
0001
0000
0000
1000
0000
0100
,
0010
0000
0000
0100
0000
1000
0001
0000
0100
0010
0000
1000
,
0100
0000
0000
0010
0000
0100
1000
0000
0000
0001
0000
0000
,
1000
0000
0010
0100
0001
0010
0100
1000
,
0001
0000
1000
0100
1000
0000
0001
0000
0100
0010
0100
0000
,
0001
0000
1000
0100
0000
0010
0002
0000
0010
0000
1000
0000
,
0103
0000
0010
0100
0010
0000
1000
0000
0001
0010
0001
0000
,
0200
0000
0310
1000
0001
0010
0100
1000
,
0001
0000
0100
0010
0100
0000
0001
0000
1000
0100
1000
0000
,
0001
0000
1000
0010
1000
0000
0020
0000
1000
0000
0100
0000
,
2030
0000
3001
0010
0000
0100
2000
0000
0010
0000
0001
0000
,
3100
0000
0010
0100
0000
1000
0002
0000
0100
0000
1000
0000
,
0013
0000
0100
1000
0100
1000
0001
0000
0000
0200
0000
0000
,
0310
0000
1000
0001
0000
0000
0010
0000
0100
1000
0000
0000
,
0001
0000
1000
0010
0000
0100
0010
0000
0000
1010
0000
0000
,
1001
0000
0001
0010
0000
0000
0100
0000
1000
0001
0000
0100
,
0010
0000
0000
0100
0001
1000
0100
0010
0001
1000
0001
0100
,
0010
0000
0000
0100
0010
1000
0001
1000
0000
0110
0000
0000
,
1001
0000
0000
1000
0000
0100
0010
0100
1000
0010
0000
0000
,
0110
0000
0000
1000
0100
1000
0010
0000
0000
0100
0001
1000
,
0100
0000
0000
0010
0001
1000
0002
0000
0010
0000
1000
0000
,
0203
0010
0001
0010
,
0001
2000
0000
0000
,
0000
0000
0000
0000
,
3300
0000
0000
0000
;

//--------------- dance-single - Highflyer S4 S6 C3 C4 C8 ----------------
#NOTEDATA:;
#STEPSTYPE:dance-single;
#DESCRIPTION:Highflyer S4 S6 C3 C4 C8;
#DIFFICULTY:Challenge;
#METER:18;
#RADARVALUES:0,0,0,0,0;
#NOTES:
0000
0000
0000
0000
,
0000
0000
0000
0000
,
0000
0000
0000
0110
,
1001
0000
1000
0100
0000
0000
0010
0000
0001
1000
0000
0000
,
0010
0000
0100
0001
0000
1000
0100
0010
0100
1000
0001
0100
,
0010
0000
1000
0100
0000
0010
0100
0000
0000
0110
0000
0000
,
1001
0000
0000
0001
0000
1000
0100
0000
0010
0001
0000
0000
,
1000
0100
1000
0001
0100
0010
1000
0000
0000
0001
0010
0100
,
1000
0000
0000
0010
0000
0100
0002
0000
0100
0000
1000
0000
,
0023
0001
0100
1000
,
0100
0000
0000
0031
0000
1000
0010
0100
0001
0010
0001
0100
,
1000
0000
0100
0001
0000
0000
1000
0100
1000
0100
0010
0001
,
1000
0010
0100
1000
0100
0001
1000
0100
0010
1000
0010
0100
,
1000
0000
0010
1000
0001
0010
0100
0000
0010
0001
1000
0010
,
0100
0000
0010
1000
0000
0001
0010
0100
1000
0001
0100
0010
,
1000
0000
0100
0002
0000
0003
0100
0000
1000
0001
0100
0001
,
1000
0000
0010
0002
0000
0003
0010
0000
0100
0001
1000
0001
,
0010
0M00
0010
1000
0001
1000
0010
0M00
0010
0000
0001
0000
,
2000
0000
0000
3010
0100
0001
1000
0100
0010
0001
0010
0100
,
2000
0010
3001
1000
0010
0100
0002
0010
1003
0001
0010
0100
,
2000
0100
3001
1000
0010
0100
0002
0000
0010
0000
1000
0000
,
0203
0000
0000
0302
0000
0000
2003
0000
0000
3200
0000
0310
,
0002
0000
0000
1003
0010
1000
0001
1000
0100
0010
0001
1000
,
0020
0000
0130
0001
1000
0100
1000
0001
0100
0010
1000
0100
,
0001
0000
0000
0100
0010
0100
1000
0001
0100
0010
1000
0001
,
0100
0010
0100
1000
0100
0001
0010
0000
0100
0000
0010
0001
,
0100
0010
1000
0001
0100
0001
1000
0100
0010
0100
0001
0100
,
2000
0000
0010
0000
0100
0000
0001
0000
0010
0000
0100
0000
,
3001
0000
0100
0010
1000
0001
0100
00M0
0100
1000
0001
1000
,
0100
00M0
0100
0001
1000
0010
0100
0010
1000
0100
0010
0100
,
1000
0001
0100
0010
1000
0001
1000
0100
0001
0100
1000
0010
,
0100
0001
0010
0100
1000
0010
0100
0001
0010
0100
1000
0001
,
0100
0000
0000
0010
0100
0010
1000
0001
0010
0100
1000
0001
,
0100
0001
0010
0100
1000
0010
0100
0000
0010
0000
0100
0001
,
1000
0100
1000
0001
0100
0010
1000
0010
0001
0010
0100
0001
,
0020
0230
2300
3002
0203
0320
0230
0302
2003
3200
0320
0032
,
0203
0300
0010
0100
0001
1000
0100
0010
0001
0010
0100
1000
,
0001
0100
1000
0100
0001
0010
1000
0010
0100
0010
0001
0000
,
1000
0010
1000
0010
0M00
0010
0001
1000
0001
0010
0M00
0010
,
1000
0001
0100
0010
0100
0001
1000
0100
0010
0001
0100
0010
,
1000
0000
0001
0000
0010
0100
0010
0100
0000
0010
0000
0001
,
0100
0000
0000
0000
0001
0000
0000
0000
1000
0000
0000
0000
0100
0000
0000
0010
0000
0000
0100
0000
0000
1000
0000
0000
0001
0000
0000
0100
0000
0000
0001
0000
0000
1000
0000
0000
0100
0000
0000
0010
0000
0000
0001
0000
0000
1000
0000
0000
,
0010
0000
0000
0000
0000
0000
0000
0000
0100
0000
0000
0000
0000
0000
0000
0000
0010
0000
0000
0000
1000
0000
0000
0000
0010
0000
0000
0000
1000
0000
0000
0000
0000
0000
0000
0000
0001
0000
0000
0010
0000
0000
0001
0000
0000
1000
0000
0000
,
0001
0100
0010
1000
0100
1000
0001
0100
1000
0100
0001
0010
,
0100
0000
0010
0000
0100
1000
0100
1000
0000
0001
0000
0100
,
0010
0000
0000
0000
1000
0000
0000
0000
0001
0000
0000
0000
0010
0000
0000
0100
0000
0000
1000
0000
0000
0001
0000
0000
1000
0000
0000
0010
0000
0000
0100
0000
0000
0010
0000
0000
1000
0000
0000
0001
0000
0000
0100
0000
0000
0001
0000
0000
,
1000
0000
0000
0000
0000
0000
0000
0000
0100
0000
0000
0000
0000
0000
0000
0000
0010
0000
0000
0000
0001
0000
0000
0000
0010
0000
0000
0000
0001
0000
0000
0000
0000
0000
0000
0000
1000
0000
0000
0000
0000
0000
0010
0000
0000
0100
0000
0000
,
0002
1000
0000
0100
0000
0013
0200
0000
1300
0010
0100
0001
,
1000
0000
0100
0010
0000
0100
1000
0001
0000
0100
0000
0010
,
1000
0000
0000
0000
0001
0000
0000
0000
1000
0000
0000
0000
0100
0000
0000
0010
0000
0000
0100
0000
0000
0010
0000
0000
0001
0000
0000
1000
0000
0000
0001
0000
0000
0100
0000
0000
0010
0000
0000
0100
0000
0000
0001
0000
0000
1000
0000
0000
,
0100
0000
0000
0000
0000
0000
0000
0000
0010
0000
0000
0000
0000
0000
0000
0000
0001
0000
0000
0000
0100
0000
0000
0000
0001
0000
0000
0000
1000
0000
0000
0000
0000
0000
0000
0000
0001
0000
0000
0100
0000
0000
0001
0000
0000
0100
0000
0000
,
0001
1000
0100
0001
0100
1000
0001
0100
1000
0100
0001
0010
,
0100
0000
1000
0000
0001
0100
0010
0100
0000
0010
0000
1000
,
0001
0010
0100
1000
0000
0001
1000
0010
0001
0010
1000
0001
,
0020
0100
0031
2000
0010
3001
0200
0010
0301
2000
0001
3010
,
0200
0010
0301
2000
0100
3001
1000
0010
0100
0010
1000
0100
,
0020
0000
0000
0130
1000
0001
1000
0100
0010
0001
1000
0001
,
0100
0010
1000
0001
0010
0100
1000
0100
0010
0001
1000
0010
,
0200
0000
0310
1000
0001
0010
0001
1000
0010
0100
0001
1000
,
0001
0000
0000
0010
0000
0000
0001
0000
0000
1000
0000
0000
0010
0000
0000
0000
0100
0000
0000
0000
0001
0000
0000
0000
0020
0000
0000
0000
0000
0000
0000
0000
0130
0000
0000
0000
1000
0000
0000
0000
0001
0000
0000
0000
0010
0000
0000
0000
,
0001
0100
1000
0100
0001
1000
0100
0010
0001
1000
0010
0100
,
0002
0000
0000
0023
0000
0000
0230
0000
1300
0001
0100
0010
,
0100
0010
1000
1100
0000
0000
0100
0010
0001
0101
0000
0000
,
0100
0001
1000
1010
0000
0000
2001
0000
0010
0000
0001
0000
,
3200
0000
0000
0000
0000
0000
0000
0000
0000
0000
0000
0310
,
0002
0000
0000
0000
,
0000
0000
0000
1003
0000
0010
0200
0000
0000
0310
1000
0100
,
0020
0000
0000
0000
,
0000
0000
0000
0130
0000
1000
0001
0000
0100
0010
0000
1000
,
0001
0000
0000
0010
0000
0100
1000
0000
0000
0010
0000
0100
,
0001
0000
0000
1000
0000
0100
1000
0000
0001
0100
0000
0010
,
1000
0000
0000
0010
0000
1000
0100
0000
0000
0010
0000
0100
,
1000
0000
0100
1000
0001
0100
0010
0100
,
0001
0000
0000
1000
0000
0001
0010
0000
0000
0100
0000
1000
,
0010
0000
0000
0100
0000
0001
1000
0000
0100
0010
0000
0001
,
0100
0000
0000
0000
0000
0000
0010
0000
0000
0000
0100
0000
0002
0000
0000
0003
0000
0000
0020
0000
0000
0030
0000
0000
,
0200
0000
0000
0000
0000
0000
0300
0000
0000
0000
0000
0000
1000
0000
0000
0010
0000
0000
1000
0000
0000
0001
0000
0000
0010
0000
0000
0001
0000
0000
1000
0000
0000
0100
0000
0000
1000
0000
0000
0000
0001
0000
0000
0000
0100
0000
0000
0000
,
0010
1000
0001
1000
0100
0010
1000
0010
0001
1000
0010
0100
,
1000
0100
0001
1000
0100
0010
0002
0010
1003
0010
0100
0001
,
1000
0100
0010
0001
0100
1000
0100
0010
1000
0001
0010
1000
,
0020
0000
0000
0000
0031
1000
0001
0000
1000
0010
1000
0001
0010
0100
1000
0001
,
0100
0010
1000
0001
0010
0100
0001
0100
1000
0001
0100
0010
,
0001
0010
1000
0001
0010
0100
2000
0010
3001
1000
0010
0100
,
0002
0000
0013
0100
1000
0010
0200
0000
1000
0000
0001
0000
,
0320
0000
0130
0001
1000
0100
0020
0000
1000
0000
0001
0000
,
0130
0010
0001
1000
0010
0100
0020
0000
0000
0000
0000
0000
,
1030
0000
0001
0100
0000
0000
0010
0000
1000
0001
0000
0000
,
0010
0000
0100
1000
0000
0000
0010
0000
0000
0110
0000
0000
,
1001
0000
1000
0010
0000
0000
0100
0000
0001
1000
0000
0100
,
0010
0000
0000
0010
0000
0001
1000
0000
0100
0010
0000
0100
,
1000
0000
0000
0001
0100
0010
1000
0001
1000
0100
0000
0000
,
0010
0000
0100
1000
0000
0001
0100
0010
1000
0100
0000
0000
,
0010
0000
0000
0001
0100
0010
1000
0000
0000
0001
0010
0100
,
1000
0000
0000
0001
0100
0010
2000
0000
0010
0000
0001
0000
,
3200
0000
0000
0000
1300
0001
1000
0001
0100
0010
1000
0001
1000
0010
0100
0001
,
1000
0200
0000
0000
,
0000
0000
0000
0000
,
0300
0000
0000
0000
;

//--------------- dance-double - Highflyer ----------------
#NOTEDATA:;
#STEPSTYPE:dance-double;
#DESCRIPTION:Highflyer;
#DIFFICULTY:Easy;
#METER:8;
#RADARVALUES:0,0,0,0,0;
#NOTES:
00000000
00000000
00000000
00000000
,
00000000
00000000
00000000
00000000
,
00000000
00000000
00000000
00011000
,
00011000
00000000
00000000
00000000
,
01000000
00000000
00100000
00010000
,
00011000
00000000
00001000
00001001
,
00000110
00000000
00000001
00000100
,
00010010
00000000
00101000
00000000
,
00010100
00000000
00002000
00000000
,
01003000
00010000
00100000
00001000
,
00000100
00000001
00000020
00000000
,
00000230
00000300
00001000
00010000
,
00100000
10000000
00100000
00010000
,
00000200
00000300
00010000
00001000
,
00020000
02030000
23000000
31000000
,
00100000
00202000
00303000
00001000
,
00010000
00020020
00030030
00010000
,
00001000
00001000
00000010
00000001
,
00000100
00010000
00100000
10000000
,
00100000
01000000
00020000
00031000
,
00000020
00000130
00002000
00000000
,
00003020
00002030
00023000
00230000
,
20300000
00000000
00000000
00000000
,
30200000
00000000
00000000
00000000
,
00301000
00010000
00001000
00000010
,
00000001
00000010
00000200
00010300
,
00001000
01000000
10000000
01000000
,
00020000
00030000
20000000
30000000
,
10010000
00010000
00011000
00001000
,
00001001
00000001
00000010
00000100
,
00010000
00100000
10000000
00100000
,
01000000
01000000
01000000
00001000
,
00020000
00030100
00010000
00001000
,
00000010
00000001
00001000
00000010
,
00010000
01000000
10000000
01000000
,
00010000
00010000
00001000
00001000
,
00011000
00100000
00101000
00001000
,
01001000
01000000
00100000
10000000
,
00020000
00130000
00002000
00013000
,
00002000
00003200
00000302
00000203
,
00020300
00030000
00011000
00000000
,
00100000
00001000
01000000
00100000
,
01100000
00000000
00011000
00000000
,
00010000
01000000
10000000
01000000
,
00010000
00000000
00011000
00000000
,
00010000
00001000
00000100
00000001
,
00000110
00000000
00011000
00000000
,
00020000
00000000
00032000
00000000
,
01003000
00000000
01000000
00000000
,
00001000
00000000
00010000
00100000
,
10000000
00000000
00010000
00000000
,
00001000
00000100
00000001
00000100
,
00001000
00000000
00000010
00000000
,
00010000
00000000
00001000
01000000
,
01001000
01001000
00010010
00010010
,
00001100
00001100
00101000
00101000
,
00002000
00000000
01003000
00100000
,
01000000
00001000
00100000
01000000
,
00200000
00301000
00010000
00001000
,
00000010
00000100
00002000
00003001
,
00000100
00000010
00010000
00100000
,
02000000
03200000
02300000
03010000
,
10000000
11000000
00100000
00101000
,
00010000
00010010
00002000
00000000
,
00003020
00000000
00000000
00000000
,
00200030
00000000
00000000
00000000
,
00000000
01000000
01300000
10000000
,
00022000
00000000
00033000
00000000
,
00000000
00000000
00000000
00000000
,
00010000
00000000
00001000
00000000
,
00100000
00000000
01000000
00100000
,
00001000
00000000
00010000
00000000
,
00000010
00000000
00000100
00000001
,
00000010
00000000
00000100
00000000
,
00010000
00000000
00001000
01000000
,
00100000
00000000
00100000
10000000
,
00010000
00000000
00100000
01000000
,
00010000
00001000
00000100
00001000
,
00010000
01000000
00010000
00001000
,
00010000
00100000
00010000
00001000
,
00000020
00000230
00020300
00032000
,
00013000
00100000
00010000
00001000
,
00000010
00001000
00010000
01000000
,
00010000
00001000
00020000
00000000
,
00032000
00000000
02003000
00000000
,
03200000
00000000
10300000
00000000
,
10010000
00000000
00010000
00000000
,
00100000
00000000
00001000
00011000
,
00010100
00000000
00000100
00000000
,
00000010
00000002
00000203
00020300
,
00130000
01000000
10000000
11000000
,
00110000
00010000
00000010
00000001
,
00001001
00001000
00011000
00010000
,
10010000
10000000
02000000
00000000
,
03200000
00000000
00000000
00000000
,
00000000
00002000
00000000
00000000
,
00000000
00000000
00000000
00000000
,
00303000
00000000
00000000
00000000
;

//--------------- dance-double - Highflyer ----------------
#NOTEDATA:;
#STEPSTYPE:dance-double;
#DESCRIPTION:Highflyer;
#DIFFICULTY:Medium;
#METER:13;
#RADARVALUES:0,0,0,0,0;
#NOTES:
00000000
00000000
00000000
00000000
,
00000000
00000000
00000000
00000000
,
00000000
00000000
00000000
00011000
,
10010000
10000000
01000000
00100000
,
00010000
00000000
00000000
00000010
00000000
00000001
00000100
00000000
00000010
00010000
00000000
00000100
,
00001000
00000010
00000001
00000110
,
00011000
00000000
00000000
00000100
00000000
00000000
00010000
00000000
00100000
10000000
00000000
00000000
,
00100000
00000000
00000000
01000000
00000000
00001000
00010000
00000000
00000000
00000010
00000000
00010000
,
00001000
00000000
00000000
00100000
00000000
00010000
20000000
00000000
00010000
00000000
00100000
00000000
,
30002000
00010000
00000100
00000001
,
00000010
00000000
00000000
00013000
00000000
00001000
00010000
00000000
00001000
01000000
00000000
00010000
,
20000000
00000000
00000000
31000000
00000000
00000000
00100000
00000000
01000000
10000000
00000000
00010000
,
00100000
00000000
00001000
01000000
00000000
00000100
00010000
00000000
00000010
00001000
00000000
00000001
,
00000020
00000000
00000000
00000130
00010000
00001000
00010000
00000000
00100000
00000000
01000000
00000000
,
00200000
00000000
00000000
20300000
00000000
00000000
31000000
00000000
00100000
01000000
00000000
00100000
,
00002000
00000000
00000000
00003200
00000000
00000000
00010300
00000000
01000000
10000000
00000000
01000000
,
00200000
00000000
00000000
00302000
00000000
00000000
00103000
00000000
01000000
00001000
00000000
00100000
,
00001000
00000000
00100000
01000000
00000000
00100000
00010000
00000000
00001000
00000000
00000100
00000000
,
00000002
00000000
00000000
00000103
00000000
00001000
00010000
00000000
00010000
00000100
00000000
00001000
,
00000020
00000000
00000000
00001030
00000100
00000000
00020000
00000000
00000000
00031000
01000000
00000000
,
00200000
00000000
00000000
10300000
01000000
00000000
00100000
00000000
00001000
00000000
00010000
00000000
,
00002000
00100000
00023000
00000010
,
00032000
00000100
00000001
00000010
,
00023000
01000000
10000000
00100000
,
00031000
00000000
00000000
00010000
00000000
00001000
00100000
00000000
00000010
00010000
00000000
00001000
,
00100000
00000000
00000010
00010000
00000000
00001000
01000000
00000000
10000000
00000000
01000000
00000000
,
00100000
00000000
10000000
01000000
00000000
00010000
00001000
00000000
00000010
00000001
00000000
00000100
,
00000020
00000000
00010000
00000000
00001000
00000000
00020030
00000000
00001000
00000000
01000000
00000000
,
00031000
00000000
00010000
00001000
00000000
00000010
00001000
00000000
00010000
00001000
00000000
00000100
,
00001000
00000000
00010000
00001000
00000000
00100000
01000000
00000000
10000000
01000000
00000000
00100000
,
00001000
00000000
00010000
00000100
00000000
00001000
00000010
00000000
00000100
00000001
00000000
00000100
,
00000010
00000000
00010000
00001000
00000000
00100000
01000000
00000000
10000000
00200000
00000000
00000000
,
01300000
00000000
00000000
00100000
00000000
01000000
00010000
00000000
01000000
00100000
00000000
10000000
,
00010000
00000000
10000000
01000000
00000000
00100000
00001000
00000000
00000100
00000000
00000001
00000000
,
00000100
00000000
00000010
00010000
00000000
00000100
00000010
00000000
00000100
00010000
00000000
00000010
,
00010000
00000000
00010000
00000000
00010000
00000000
00001000
00000000
00001000
00000000
00001000
00000000
,
00100000
00000000
00010000
00100000
00000000
01000000
10000000
00000000
00010000
10000000
00000000
00100000
,
00010000
00000000
00001000
00000100
00000000
00000001
00000010
00000000
00001000
00000000
00010000
00000000
,
00001000
02000000
00000000
03010000
00000000
10000000
00100000
02000000
00000000
03001000
00000000
00010000
,
00000100
00000000
00010000
00001000
00000000
00010000
00000010
00000000
00000100
00000000
00001000
00000000
,
00010000
00000000
00010000
00000000
00000100
00000000
00000010
00000100
00000000
00010000
00000000
00001000
,
01000000
00000000
00100000
00000000
00000000
00000000
02000000
00000000
00000000
00000000
00000000
00000000
00002000
00000000
00000000
00000000
00000000
00000000
00000000
00000000
00000000
03003000
00000000
00000000
,
01000000
00000000
01000000
00000000
00001000
00000000
00010000
01000000
00000000
20000000
00000000
00000000
,
30100000
00000000
00010000
00000000
00001000
00000000
00000100
00000000
00000001
00000000
00000010
00000000
,
00001000
00000000
00001000
00000000
00010000
00000000
00001000
01000000
00000000
00100000
00000000
01000000
,
00001000
00000000
00010000
00000000
00000000
00000000
00002000
00000000
00000000
00000000
00000000
00000000
00013000
00000000
00000000
00100000
00000000
00000000
10000000
00000000
00000000
00100000
00000000
00000000
,
00010000
00000000
00010000
00000000
00001000
00000000
00010000
00000100
00000000
00000020
00000000
00000000
,
00000130
00010000
00000000
00001000
00000000
00010000
02000000
00000000
13000000
00000000
10000000
00000000
,
01000000
00000000
00100000
00000000
01000000
00000000
10000000
00010000
00000000
00010000
00000000
01000000
,
00001000
00000000
00000000
00000000
00001000
00000000
00020000
00000000
00000000
00000000
00000000
00000000
00031000
00000000
00000000
00000100
00000000
00000000
00000001
00000000
00000000
00000100
00000000
00000000
,
00001000
00000000
00001000
00000000
00010000
00000000
00001000
00100000
00000000
00002000
00000000
00000000
,
00023000
00000000
00000100
00000000
00001000
00000000
00100000
00000000
00001000
00000000
00000100
00000000
,
00031000
00000000
01000000
00000000
00001000
00000000
00010000
00000100
00000000
00000010
00000000
00000001
,
00001000
00000001
00000000
00000100
00000000
00000010
00000100
00000000
00000001
00000000
00000010
00000000
,
00001001
00011000
10010000
00011000
,
00001001
00011000
10020000
02030000
,
03200000
00000000
00000000
10300000
00000000
00010000
00100000
00000000
00001000
01000000
00000000
00010000
,
00100000
00000000
00001000
00010000
00000000
01000000
10000000
00000000
01000000
00000000
00010000
00000000
,
02000000
00000000
13000000
00010000
00000000
10000000
00100000
00000000
01000000
00001000
00000000
00010000
,
00002000
00000000
00000000
00013000
00000200
00000000
00002300
00000000
00003010
00000200
00000000
00000000
,
00000301
00000000
00000100
00000000
00010000
00000000
01000000
00000000
10000000
01000000
00000000
00010000
,
00200000
00000000
00000000
00302000
00000000
00000000
02003000
00000000
03010000
00200000
00000000
00000000
,
01300000
10000000
00000000
10010000
00000000
00000000
00010000
01000000
00000000
01001000
00000000
00000000
,
00001000
00100000
00000000
00101000
00000000
00000000
00101000
00000000
00011000
00000000
00010100
00000000
,
00000220
00000000
00000030
00000000
,
00020300
00000000
00000000
00000000
,
00000000
00000000
00000000
00000000
00000000
00000000
00031000
00000000
00000000
00010000
00100000
00000000
,
02000000
00000000
00000000
00000000
,
00000000
03002000
00010000
01000000
,
00013000
00002000
00103000
02000000
,
13000000
00200000
02300000
23000000
,
31000000
00002000
00013000
00000200
,
00000310
00000000
00000001
00000100
00001000
00000100
00000001
00000010
,
00000100
00020000
00031000
00200000
,
00310000
20000000
30200000
20300000
,
30020000
00230000
00301000
00010000
,
00001000
02000000
03002000
00023000
,
00030100
00000000
00000000
00000010
00000001
00000000
00000100
00000000
00000000
00000010
00010000
00000000
,
00001000
00000000
00000000
01000000
00010000
00000000
10000000
00000000
01000000
00000000
00010000
00000000
,
00001000
00000000
00000000
01000000
00100000
00000000
10000000
00000000
00000000
00010000
00100000
00000000
,
02000000
00000000
00000000
13000000
00000000
10000000
00010000
00000000
00010000
00002000
00000000
00000000
,
01003000
00000000
00000000
00010000
00100000
00000000
00001000
00000000
00000000
00010000
00000100
00000000
,
00000010
00000000
00000000
00000001
00001000
00000000
00000010
00000000
00000001
00000000
00000010
00000000
,
00002000
00000000
00000000
00000001
00000000
00000000
00003200
00000000
00000010
00000000
00001000
00000000
,
00020300
00000000
00000000
00032000
00000000
00000000
02003000
00000000
00100000
00000000
00010000
00000000
,
03002000
00203000
00301000
00010000
,
00100000
00100000
01000000
01000000
,
00001000
00001000
00010000
00011000
,
00001001
00000000
00000000
00000001
00000000
00000000
00000100
00000000
00000000
00000100
00000000
00001000
,
00010000
02000000
23000000
30100000
,
01010000
00000000
00000000
00020000
00000000
00000000
00230000
00000000
00300000
00101000
00000000
00000000
,
00011000
00000000
00000000
00001000
00000000
01000000
00001000
00000000
00010000
00000100
00000000
00000000
,
00010100
00000100
00000110
00000010
,
00000011
00000000
00000000
00000001
00000000
00000000
00002000
00000000
00000100
00000000
00000010
00000000
,
00003002
00000203
00002300
00023000
,
02030000
23000000
00000000
00000000
,
00000000
00000000
00000000
00000000
,
30000000
00000000
00000000
00000000
;

//--------------- dance-double - Highflyer ----------------
#NOTEDATA:;
#STEPSTYPE:dance-double;
#DESCRIPTION:Highflyer;
#DIFFICULTY:Hard;
#METER:16;
#RADARVALUES:0,0,0,0,0;
#NOTES:
00000000
00000000
00000000
00000000
,
00000000
00000000
00000000
00000000
,
00000000
00000000
00000000
01100000
,
10010000
00000000
00010000
10000000
00000000
00000000
00100000
00000000
01000000
00001000
00000000
00000000
,
00100000
00000000
00000000
00001000
00000000
00010000
00001000
00000000
00010000
00000100
00000000
00001000
,
00000020
00000000
00000000
00000130
00000000
00000010
00010000
00000000
00002000
01000000
00000000
00000000
,
00013000
00000000
00000000
00001000
00000000
00100000
01000000
00000000
20000000
00010000
00000000
00000000
,
30100000
00000000
00000000
01000000
00010000
01000000
00010000
00000000
00000000
00100000
00001000
00100000
,
00001000
00000000
00000000
00010000
00000100
00010000
00002000
00000000
00010000
00000000
01000000
00000000
,
00023000
00001000
00100000
10000000
,
01000000
00000000
00000000
00031000
00000000
00010000
00001000
00000000
00010000
00001000
00010000
00001000
,
00200000
00000000
01300000
10000000
00000000
00000000
00100000
00000000
01000000
00001000
00010000
00001000
,
00000100
00000010
00000001
00001000
00000100
00010000
00001000
00000000
00010000
00001000
01000000
00100000
,
02000000
00000000
00000000
03100000
00000000
10000000
00020000
00000000
00100000
00000000
10030000
01000000
,
00100000
00000000
00001000
00200000
00000000
00301000
00010000
00000100
00001000
00000001
00000100
00000010
,
00000200
00000000
00000310
00020000
00000000
00000000
00031000
00000000
00010000
00000100
00000010
00000100
,
00001000
00000000
00000001
00000200
00000000
00000000
00000310
00000000
00010000
00001000
00010000
00000100
,
00010000
00000000
00001000
01000000
00010000
01000000
00002000
00000000
00100000
00000000
00010000
00000000
,
00203000
00000000
00000000
01300000
10000000
00010000
01000000
00100000
01000000
00100000
10000000
00100000
,
02000000
00000000
00000000
03001000
00010000
00000100
00002000
00000000
00000000
00003010
00010000
00001000
,
02000000
00000000
03000000
00001000
00010000
00000100
00000020
00000000
00000100
00000000
00000001
00000000
,
00000230
00010000
00002300
00000010
,
00023000
00100000
10000000
00100000
,
20030000
00100000
01000000
00100000
,
31000000
00000000
00000000
00100000
01000000
00100000
01000000
00000000
00010000
00001000
00000000
00000010
,
00000100
00000000
00001000
00000001
00001000
00000001
00000010
00000000
00000100
00000000
00010000
00001000
,
00010000
00000000
00001000
00100000
00000000
00001000
01000000
00010000
10000000
00100000
01000000
00010000
,
20000000
00000000
01000000
00000000
00010000
00000000
01000000
00000000
00010000
00000000
00100000
00000000
,
30010000
00000000
01000000
00001000
00000000
00010000
00000100
00000000
00100000
00001000
00000000
00010000
,
00000010
00000000
00010000
00001000
00000000
00010000
00000100
00010000
00001000
01000000
00000000
00100000
,
10000000
00010000
10000000
01000000
00000000
00100000
00010000
10000000
00010000
01000000
00100000
10000000
,
01000000
00100000
00010000
00001000
00000100
00000010
00000001
00000010
00000100
00001000
00010000
00000100
,
00001000
00000000
00000000
00000100
00010000
00001000
01000000
00001000
00010000
00000010
00001000
00000100
,
00010000
00001000
00100000
00001000
01000000
00100000
10000000
00000000
00100000
00000000
01000000
00001000
,
00010000
00001000
00100000
00001000
00000000
00010000
00000100
00000000
00001000
00000001
00000000
00000100
,
00000002
00000000
00000010
00000000
00001000
00000000
00000100
00000000
00001000
00000000
00000010
00000000
,
00000103
00000000
00000010
00010000
00001000
00100000
00010000
10000000
00010000
10000000
00100000
01000000
,
00001000
00100000
00001000
00010000
00000100
00000010
00000002
00000000
00000100
00000000
00001000
00000000
,
00000013
00000100
00001000
00010000
00000000
00001000
00010000
01000000
10000000
00100000
00000000
01000000
,
00001000
00010000
00001000
00100000
01000000
00100000
00020000
00000000
00100000
00000000
10000000
00000000
,
01030000
00000000
01000000
00000000
00100000
00000000
01000000
00010000
00000000
00100000
00000000
01000000
,
00010000
00000000
00001000
00020000
00000000
00031000
00010000
00000010
00000100
00000001
00001000
00000100
,
00000010
00000000
00000010
00000000
00000100
00000000
00010000
00001000
00000000
02000000
00000000
03100000
,
20000000
00000000
00100000
00000000
01000000
00000000
30020000
00000000
00100000
00000000
10000000
00000000
,
01030000
00000000
01000000
00000000
00010000
00000000
00010000
10000000
00000000
01000000
00000000
00100000
,
01000000
00000000
00100000
00010000
00000000
10000000
00100000
01000000
00001000
00010000
00000100
00000010
,
00000001
00000000
00000001
00000000
00001000
00000000
00000010
00000100
00000000
00000020
00000000
00000000
,
00010030
00001000
00000000
00010000
00000000
00001000
00020000
00000000
00100000
00000000
00001000
00000000
,
01030000
00000000
00100000
01000000
00000000
00100000
01000000
00100000
00000000
01000000
00000000
00100000
,
01000000
00100000
00010000
02000000
00000000
00000000
03001000
00010000
00001000
00000100
00000010
00001000
,
00000001
00000000
00000001
00000000
00001000
00000100
00001000
00000000
00000010
00000200
00000000
00000310
,
00001000
00000000
00000100
00010000
00000100
00000000
00020000
00000000
00030010
00001000
00000010
00010000
,
00001000
00000000
00010000
00001000
00010000
00000000
00001000
00010000
00000000
00001000
00000000
00010000
,
00001000
00010000
00000000
01000000
00000000
01000000
10000000
00010000
10000000
00100000
01000000
00010000
,
10000000
00000000
10000000
00010000
00000000
00010000
00001000
00000000
00001000
00000001
00000000
00000001
,
00001000
00000000
00001000
00010000
00000000
00010000
10000000
00000000
00100000
01000000
00000000
01000000
,
00200000
00000000
00000000
01300000
00010000
10000000
01000000
00000000
00100000
00001000
00000000
00010000
,
00000100
00000000
00000010
00000001
00000000
00001000
00000020
00000000
00000100
00000000
00010000
00000000
,
00002030
00000000
00003100
00010000
00000000
00001000
00100000
00000000
01000000
10000000
00000000
00010000
,
02000000
00000000
03200000
00000000
01300000
00001000
00020000
00000000
01030000
00100000
00000000
00010000
,
01000000
00010000
01000000
00010000
00200000
00300000
00001000
00010000
00001000
00010000
00000200
00000300
,
00000020
00000000
00000000
00000001
00000000
00000000
00000230
00000000
00010300
00001000
01000000
00100000
,
10000000
00000000
01000000
00010000
00000000
00000000
00001000
00000000
00000010
00000001
00000000
00000000
,
00001000
00000000
00100000
10000000
00000000
00000000
00200000
00000000
10000000
00000000
01000000
00000000
,
20300000
00000000
00000000
00000000
,
30020000
00000000
00000000
00000000
,
00000000
00000000
00000000
00130000
00000000
00001000
00020000
00000000
00000000
00130000
00010000
00001000
,
00000200
00000000
00000000
00000000
,
00000000
00000310
00010000
00001000
,
00100000
00000000
00000000
00010000
00000000
01000000
00100000
00000000
00000000
01000000
00000000
00010000
,
00100000
00000000
00000000
00010000
00000000
10000000
00010000
00000000
00010000
00001000
00000000
00001000
,
00000002
00000000
00000000
00000103
00000000
00000010
00000200
00000000
00000000
00000301
00000000
00000010
,
00000200
00000000
00010300
00001000
00000100
00000001
00000100
00001000
,
00020000
00000000
00000000
00130000
00000000
01000000
00010000
00000000
00000000
10000000
00000000
01000000
,
00100000
00000000
00000000
01000000
00000000
10000000
00010000
00000000
00010000
00001000
00000000
00001000
,
00000001
00000000
00000000
00000010
00000000
00000100
00010000
00000000
00000000
00001000
00000000
00000000
,
00010000
00000000
00001000
00010000
00100000
10000000
00100000
00010000
,
00001000
00000000
00100000
00010000
00100000
00000000
00001000
00000000
01000000
00010000
01000000
00000000
,
00001000
00000000
00010000
00000100
00000000
00000010
00000002
00000000
00000100
00000000
00001000
00000000
,
00000103
00000000
00000010
00000100
00000010
00000000
00010000
00000000
00000100
00001000
00000100
00000000
,
00020000
00000000
00031000
00000010
00000001
00000010
00001000
00100000
,
00010000
00000000
01000000
00100000
01000000
00000000
00010000
00000000
10000000
01000000
10000000
00000000
,
00100000
00000000
01000000
00001000
01000000
00000000
00200000
00000000
10000000
00000000
01000000
00000000
,
20300000
00000000
30010000
00100000
00000000
00001000
00020000
00000000
00100000
00000000
00001000
00000000
,
01030000
00000000
00100000
00001000
00000000
00010000
00002000
00000000
00000100
00000000
00010000
00000000
,
00003010
00000100
00000010
00000001
00001000
00000010
00020000
00000000
00000000
00032000
00000000
00000000
,
00103000
00000000
00001000
00010000
00000000
00000000
00000100
00000000
00000010
00000001
00000000
00000000
,
00000100
00000000
00000010
00010000
00000000
00001000
00100000
00000000
00000000
00101000
00000000
00000000
,
00010010
00000000
00010000
00001000
00000000
00000000
01000000
00000000
00100000
10000000
00000000
01000000
,
00100000
00000000
00000000
01000000
00100000
00001000
01000000
00100000
10000000
01000000
00100000
00001000
,
00010000
00000000
00001000
00010000
00000100
00000010
00000001
00001000
00000000
00000110
00000000
00000000
,
00011000
00000000
00000000
00010000
00000000
00000100
00000010
00000100
00001000
00000010
00000000
00000000
,
00001010
00000000
00000000
00001000
00000100
00010000
00001000
00000000
00000000
01000000
00010000
10000000
,
01000000
00000000
00000000
00100000
00001000
00010000
00002000
00000000
00100000
00000000
00010000
00000000
,
02003000
00100000
00010000
00100000
,
00010000
20000000
00000000
00000000
,
00000000
00000000
00000000
00000000
,
33000000
00000000
00000000
00000000
;

//--------------- dance-double - Highflyer ----------------
#NOTEDATA:;
#STEPSTYPE:dance-double;
#DESCRIPTION:Highflyer;
#DIFFICULTY:Challenge;
#METER:19;
#RADARVALUES:0,0,0,0,0;
#NOTES:
00000000
00000000
00000000
00000000
,
00000000
00000000
00000000
00000000
,
00000000
00000000
00000000
01100000
,
10010000
00000000
10000000
01000000
00000000
00000000
00100000
00000000
00001000
00010000
00000000
00000000
,
00001000
00000000
00010000
00001000
00000000
00100000
00001000
00010000
00000100
00001000
00000010
00000100
,
00000001
00000000
00000100
00000010
00000000
00001000
00000100
00000000
00000000
00010100
00000000
00000000
,
00101000
00000000
00000000
00001000
00000000
01000000
00010000
00000000
10000000
00010000
00000000
00000000
,
10000000
01000000
10000000
01000000
00100000
00001000
00010000
00000000
00000000
00001000
00010000
00000010
,
00001000
00000000
00000000
00000001
00000000
00000100
00000020
00000000
00010000
00000000
00001000
00000000
,
00020030
00001000
00100000
10000000
,
01000000
00000000
00000000
00031000
00000000
00100000
00001000
00010000
00000100
00010000
00000010
00001000
,
00000001
00000000
00000100
00000020
00000000
00000000
00010030
00001000
01000000
00100000
10000000
01000000
,
00100000
00010000
00001000
00000100
00000001
00000100
00001000
00010000
01000000
00100000
00010000
00100000
,
10000000
00000000
00100000
10000000
00010000
00100000
00001000
00000000
00100000
00010000
10000000
00100000
,
01000000
00000000
00001000
00100000
00000000
00001000
00010000
00000100
00001000
00000001
00000100
00000010
,
00002000
00000000
00003010
00200000
00000000
00300000
00100000
00000000
01000000
10000000
00010000
01000000
,
00100000
00000000
01000000
00000200
00000000
00000300
00000100
00000000
00010000
00001000
00100000
00001000
,
00010000
00M00000
00010000
10000000
00100000
01000000
00010000
00M00000
00010000
00000000
00001000
00000000
,
00000020
00000000
00000000
00000130
00010000
00001000
00100000
00001000
00010000
00000010
00000100
00001000
,
00020000
00000000
00130000
10000000
01000000
00010000
00002000
00000000
00003010
00000001
00000010
00001000
,
00020000
00000000
01030000
10000000
00100000
00010000
00002000
00000000
00100000
00000000
10000000
00000000
,
02003000
00000000
00000000
03020000
00000000
00000000
20030000
00000000
00000000
32000000
00000000
03100000
,
00020000
00000000
00000000
10030000
00100000
01000000
00001000
00010000
00000100
00000010
00000001
00000100
,
00000020
00000000
00010030
00001000
00100000
01000000
10000000
00010000
01000000
00001000
00100000
00010000
,
10000000
00000000
00000000
01000000
00100000
01000000
10000000
00010000
01000000
00100000
10000000
00010000
,
00100000
00001000
00010000
00000100
00000010
00000001
00000100
00000000
00001000
00000000
00000100
00000010
,
00001000
00000001
00000010
00000100
00010000
00001000
00010000
00100000
10000000
00100000
00010000
00001000
,
00000200
00000000
00000001
00000000
00001000
00000000
00000010
00000000
00001000
00000000
00000001
00000000
,
00000310
00000000
00010000
00001000
00100000
00010000
00100000
0M000000
00100000
10000000
00010000
10000000
,
01000000
00M00000
01000000
00001000
00010000
00000100
00010000
00001000
00100000
00010000
01000000
00001000
,
00010000
00000000
00000100
00000000
00000010
00000001
00000010
00000000
00000100
00000000
00010000
00000000
00001000
00000000
00000100
00000000
00000001
00000000
00000100
00000000
00001000
00000000
00010000
00000000
,
00001000
00100000
01000000
10000000
00010000
00100000
00001000
00010000
00000010
00001000
00000100
00010000
,
00002000
00000000
00000000
00103000
01000000
00100000
00010000
10000000
00100000
01000000
10000000
01000000
,
00010000
00100000
00001000
00010000
00001000
00000100
00000020
00000000
00000001
00000000
00001030
00000100
,
00000010
00000100
00010000
00000010
00010000
00001000
00010000
00100000
01000000
00010000
01000000
10000000
,
02000000
03020000
00230000
00302000
00023000
00030200
00020300
00032000
02003000
03020000
00230000
00302000
,
00023000
00000000
00030010
00001000
00000001
00000010
00000100
00000010
00000001
00001000
00000100
00010000
,
00001000
01000000
10000000
01000000
00010000
00100000
00001000
00000010
00000001
00000010
00001000
00010000
,
00000010
00001000
00000100
00010000
00M00000
00010000
00100000
00001000
01000000
00001000
00000M00
00001000
,
00000100
00000010
00000001
00000100
00000010
00010000
00001000
00010000
00000100
00010000
00001000
01000000
,
00010000
00000000
00010000
00000000
00100000
01000000
00100000
01000000
00000000
00100000
00000000
00010000
,
01000000
00000000
00000000
00000000
00001000
00000000
00000000
00000000
00010000
00000000
00000000
00000000
00001000
00000000
00000000
00100000
00000000
00000000
00001000
00000000
00000000
00010000
00000000
00000000
00000100
00000000
00000000
00001000
00000000
00000000
00000100
00000000
00000000
00000010
00000000
00000000
00000001
00000000
00000000
00000010
00000000
00000000
00000100
00000000
00000000
00001000
00000000
00000000
,
00000001
00000000
00000000
00000000
00000000
00000000
00000000
00000000
00000100
00000000
00000000
00000000
00000000
00000000
00000000
00000000
00000010
00000000
00000000
00000000
00001000
00000000
00000000
00000000
00000010
00000000
00000000
00000000
00001000
00000000
00000000
00000000
00000000
00000000
00000000
00000000
00000100
00000000
00000000
00010000
00000000
00000000
00001000
00000000
00000000
00010000
00000000
00000000
,
00001000
00000100
00000001
00000100
00001000
00100000
00001000
00100000
10000000
00100000
00010000
00100000
,
01000000
00000000
00100000
00000000
00001000
00010000
00001000
00010000
00000000
00000100
00000000
00010000
,
00000010
00000000
00000000
00000000
00010000
00000000
00000000
00000000
00001000
00000000
00000000
00000000
00010000
00000000
00000000
00000100
00000000
00000000
00010000
00000000
00000000
00001000
00000000
00000000
00100000
00000000
00000000
00010000
00000000
00000000
10000000
00000000
00000000
01000000
00000000
00000000
00100000
00000000
00000000
01000000
00000000
00000000
10000000
00000000
00000000
00010000
00000000
00000000
,
01000000
00000000
00000000
00000000
00000000
00000000
00000000
00000000
00010000
00000000
00000000
00000000
00000000
00000000
00000000
00000000
00100000
00000000
00000000
00000000
00001000
00000000
00000000
00000000
01000000
00000000
00000000
00000000
00010000
00000000
00000000
00000000
00000000
00000000
00000000
00000000
01000000
00000000
00000000
00000000
00000000
00000000
00100000
00000000
00000000
01000000
00000000
00000000
,
00020000
10000000
00000000
01000000
00000000
00130000
02000000
00000000
03100000
00001000
00010000
00000100
,
00000002
00000000
00000103
00010000
00000000
00001000
00010000
00001000
00000000
00100000
00000000
00001000
,
01000000
00000000
00000000
00000000
00100000
00000000
00000000
00000000
00010000
00000000
00000000
00000000
00001000
00000000
00000000
00010000
00000000
00000000
00000100
00000000
00000000
00010000
00000000
00000000
00001000
00000000
00000000
00010000
00000000
00000000
00000010
00000000
00000000
00001000
00000000
00000000
00000001
00000000
00000000
00000010
00000000
00000000
00000100
00000000
00000000
00001000
00000000
00000000
,
00000001
00000000
00000000
00000000
00000000
00000000
00000000
00000000
00000010
00000000
00000000
00000000
00000000
00000000
00000000
00000000
00000100
00000000
00000000
00000000
00010000
00000000
00000000
00000000
00000100
00000000
00000000
00000000
00010000
00000000
00000000
00000000
00000000
00000000
00000000
00000000
00001000
00000000
00000000
00010000
00000000
00000000
00001000
00000000
00000000
00010000
00000000
00000000
,
00001000
00010000
00100000
10000000
00100000
00010000
00001000
00000010
00000001
00000010
00001000
00010000
,
01000000
00000000
10000000
00000000
00010000
01000000
00001000
00010000
00000000
00000100
00000000
00010000
,
00000100
00000010
00000001
00000100
00000000
00000010
00010000
01000000
10000000
01000000
00100000
00010000
,
20000000
01000000
30010000
02000000
00010000
03001000
00020000
00001000
00030100
00002000
00000100
00003001
,
00000200
00000000
00000010
00000000
00000301
00000000
00002000
00000000
00000001
00000000
00003100
00010000
00000100
00000000
00001000
00000000
00000100
00000000
00010000
00000000
00001000
00000000
01000000
00000000
,
00200000
00000000
00000000
01300000
00001000
00010000
01000000
10000000
00100000
01000000
00001000
00010000
,
00001000
00000010
00000001
00000010
00001000
00010000
00001000
00000100
00000001
00000100
00001000
00010000
,
00000200
00000000
00100300
00001000
00010000
00100000
00010000
00001000
00100000
01000000
00010000
01000000
,
10000000
00000000
00000000
00010000
00000000
00000000
10000000
00000000
00000000
00010000
00000000
00000000
01000000
00000000
00000000
00000000
00100000
00000000
00000000
00000000
01000000
00000000
00000000
00000000
00002000
00000000
00000000
00000000
00000000
00000000
00000000
00000000
01003000
00000000
00000000
00000000
00010000
00000000
00000000
00000000
10000000
00000000
00000000
00000000
01000000
00000000
00000000
00000000
,
00100000
00001000
00010000
00001000
00000010
00000001
00000010
00001000
00010000
00001000
00000100
00000001
,
00000200
00000000
00000000
00000320
00000000
00000000
00020030
00000000
00031000
00100000
00010000
01000000
,
00100000
10000000
01000000
01100000
00000000
00000000
00100000
00001000
00010000
00011000
00000000
00000000
,
00010000
00001000
00000010
00000011
00000000
00000000
00001002
00000000
00000010
00000000
00001000
00000000
,
00000203
00000000
00000000
00000000
00000000
00000000
00000000
00000000
00000000
00000000
00000000
00000310
,
00020000
00000000
00000000
00000000
,
00000000
00000000
00000000
00031000
00000000
00100000
02000000
00000000
00000000
03100000
00010000
00001000
,
00000200
00000000
00000000
00000000
,
00000000
00000000
00000000
00010300
00000000
00001000
00010000
00000000
00001000
00100000
00000000
00010000
,
01000000
00000000
00000000
00100000
00000000
01000000
00010000
00000000
00000000
00100000
00000000
01000000
,
10000000
00000000
00000000
00010000
00000000
10000000
00010000
00000000
00010000
00001000
00000000
00001000
,
00000001
00000000
00000000
00000010
00000000
00000100
00001000
00000000
00000000
00000010
00000000
00001000
,
00000100
00000000
00010000
00001000
00010000
01000000
10000000
01000000
,
00010000
00000000
00000000
00001000
00000000
00010000
00000100
00000000
00000000
00001000
00000000
00000100
,
00000010
00000000
00000000
00000010
00000000
00000001
00001000
00000000
00001000
00010000
00000000
00010000
,
10000000
00000000
00000000
00000000
00000000
00000000
00100000
00000000
00000000
00000000
01000000
00000000
00020000
00000000
00000000
00030000
00000000
00000000
00200000
00000000
00000000
00300000
00000000
00000000
,
02000000
00000000
00000000
00000000
00000000
00000000
03000000
00000000
00000000
00000000
00000000
00000000
10000000
00000000
00000000
00100000
00000000
00000000
10000000
00000000
00000000
00010000
00000000
00000000
00100000
00000000
00000000
00010000
00000000
00000000
10000000
00000000
00000000
01000000
00000000
00000000
10000000
00000000
00000000
00000000
00010000
00000000
00000000
00000000
01000000
00000000
00000000
00000000
,
00100000
01000000
00001000
00010000
00100000
10000000
00100000
00010000
00001000
00010000
01000000
10000000
,
01000000
00010000
00001000
00100000
00001000
00010000
00000100
00000010
00001000
00000010
00000001
00001000
,
00000010
00010000
00000100
00001000
00000010
00000001
00000010
00001000
00010000
00001000
00000100
00000001
,
00000200
00000000
00000000
00000000
00000310
00000001
00000010
00000000
00000100
00010000
00001000
01000000
00001000
00010000
00000100
00010000
,
00001000
00100000
00001000
00010000
01000000
10000000
01000000
00100000
00010000
00001000
00000010
00000001
,
00000010
00000100
00000010
00010000
00001000
00010000
00100000
01000000
10000000
01000000
00100000
10000000
,
02000000
00000000
03100000
01000000
10000000
00100000
02000000
00000000
10000000
00000000
00010000
00000000
,
03200000
00000000
01300000
00001000
00010000
00000100
00000020
00000000
00001000
00000000
00000001
00000000
,
00000130
00010000
00001000
01000000
00100000
10000000
02000000
00000000
00000000
00000000
00000000
00000000
,
13000000
00000000
00010000
01000000
00000000
00000000
00100000
00000000
01000000
00001000
00000000
00000000
,
00100000
00000000
01000000
10000000
00000000
00000000
00100000
00000000
00000000
00011000
00000000
00000000
,
00001001
00000000
00000001
00000100
00000000
00000000
00000010
00000000
00010000
00000100
00000000
00001000
,
00000100
00000000
00000000
00001000
00000010
00000100
00000001
00001000
00000100
00010000
00001000
00100000
,
01000000
00000000
00000000
00100000
00001000
00010000
00000100
00010000
00001000
01000000
00000000
00000000
,
00100000
00000000
10000000
00010000
00000000
00100000
00001000
00100000
00010000
01000000
00000000
00000000
,
00100000
00000000
00000000
01000000
00001000
00010000
00000100
00000000
00000000
00010000
00001000
01000000
,
00100000
00000000
00000000
01000000
00001000
00010000
00002000
00000000
01000000
00000000
00100000
00000000
,
00023000
00000000
00000000
00000000
00000000
00000000
00000000
00000000
00030000
00000000
00000000
00000000
00001000
00000000
00000000
00010000
00000000
00000000
00000100
00000000
00000000
00001000
00000000
00000000
00000100
00000000
00000000
00000010
00000000
00000000
00000001
00000000
00000000
00000010
00000000
00000000
00000100
00000000
00000000
00001000
00000000
00000000
00000100
00000000
00000000
00010000
00000000
00000000
,
00001000
02000000
00000000
00000000
,
00000000
00000000
00000000
00000000
,
03000000
00000000
00000000
00000000
;
