#TITLE:リグレット;
#ARTIST:星野奏子;
#TITLETRANSLIT:Regret;
#ARTISTTRANSLIT:Kanako Hoshino;
#BANNER:Regret.png;
#BACKGROUND:Regret-bg.png;
#JACKET:Regret-jacket.png;
#CDTITLE:./CDTITLES/BEATMANIA IIDX.PNG;
#MUSIC:Regret.ogg;
#SAMPLESTART:52.451;
#SAMPLELENGTH:15;
#BPMS:0=155;

//---------------dance-single - t7r----------------
#NOTES:
     dance-single:
     t7r:
     Beginner:
     5:
     :
0000
0000
0000
0000
,
0000
0000
0000
0000
,
0000
0000
0000
0000
,
0000
0000
0000
0000
,
0000
0000
0000
0000
,
1000
0000
0000
0000
,
0001
0000
0000
0000
,
0100
0000
0000
0000
,
0010
0000
0000
0000
,
1000
0000
0000
0000
,
1000
0000
0000
0000
,
1000
0000
0000
0000
,
0000
0000
0000
0000
,
0001
0000
0000
0000
,
0001
0000
0000
0000
,
0001
0000
0000
0000
,
0000
0000
0000
0000
,
0100
0000
0000
0000
,
0100
0000
0000
0000
,
0010
0000
0000
0000
,
0010
0000
0000
0000
,
1000
0000
0000
0000
,
1000
0000
0000
0000
,
0001
0000
0000
0000
,
0001
0000
0000
0000
,
0000
0000
0010
0000
,
0010
0000
0010
0000
,
0100
0000
0000
0000
,
0100
0000
0100
0000
,
1000
0000
0000
0000
,
1000
0000
1000
0000
,
0010
0000
0000
0000
,
0010
0000
0000
0000
,
0000
0000
0000
0000
,
0100
0000
0000
0000
,
0100
0000
0000
0000
,
0010
0000
0000
0000
,
0010
0000
0000
0000
,
1000
0000
0000
0000
,
1000
0000
0000
0000
,
0001
0000
0000
0000
,
0001
0000
0000
0000
,
0010
0000
0000
0000
,
0010
0000
0000
0000
,
0100
0000
0000
0000
,
0100
0000
0000
0000
,
0010
0000
0000
0000
,
0010
0000
0000
0000
,
0001
0000
0000
0000
,
0001
0000
0000
0000
,
1000
0000
0000
0000
,
1000
0000
0000
0000
,
0001
0010
0100
1000
,
0001
0010
0100
1000
,
0001
0010
0100
1000
,
0100
0010
0001
1000
,
0000
0000
0000
0000
,
0010
0000
0000
0000
,
0000
0000
0000
0000
,
0100
0000
0000
0000
,
0000
0000
0000
0000
,
0001
0000
0000
0000
,
0000
0000
0000
0000
,
1000
0000
0000
0000
,
0000
0000
0000
0000
,
0100
0000
0000
0000
,
0100
0000
0100
0000
,
1000
0000
0000
0000
,
1000
0000
1000
0000
,
0001
0000
0000
0000
,
0001
0000
0001
0000
,
0100
0000
0000
0000
,
0100
0000
0100
0000
,
0010
0000
0000
0000
,
0010
0000
0010
0000
,
1000
0000
0000
0000
,
1000
0000
1000
0000
,
0001
0000
0000
0000
,
0010
0000
0001
0000
,
0100
0000
0000
0000
;

//---------------dance-single - t7r----------------
#NOTES:
     dance-single:
     t7r:
     Easy:
     8:
     :
0000
0000
0000
0000
,
0000
0000
0000
0000
,
0000
0000
0000
0000
,
0000
0000
0000
0000
,
0000
0000
0000
0000
,
2002
0000
0000
3003
,
1000
0000
0100
0000
,
0010
0010
0001
1000
,
0010
0100
0110
0000
,
0001
0000
0010
0001
,
1000
0000
0010
1000
,
0001
0000
0100
0001
,
1000
0000
0010
1000
,
0001
0000
0000
0010
0000
0000
0020
0000
,
0000
0030
0100
1000
,
0020
0000
0000
0130
0000
0000
0100
0000
,
0002
0000
0000
0003
,
1000
0100
0010
0100
,
1000
0100
0010
0100
,
1000
0010
0100
0010
,
1000
0010
0001
0010
,
1000
0100
0010
0001
,
1000
0100
0010
0001
,
1000
0100
0010
0100
,
1000
0000
0000
1001
0000
0000
0001
0000
,
0100
0000
0000
0010
0000
0010
0000
0000
,
1000
0100
1000
0010
,
0100
0000
0000
0001
0000
0001
0000
0000
,
0010
0100
1000
0001
,
0010
0000
0000
0100
0000
0100
0000
0000
,
1000
0010
0100
0001
,
1000
0000
0110
0000
,
0001
1000
0010
0110
,
2000
0000
0000
3000
,
1001
1000
0100
0000
,
1000
0010
0100
0001
,
0010
0100
2000
0000
,
3010
0000
0100
0000
,
0001
1000
0010
0000
,
1000
0100
0010
0001
,
0100
0010
0200
0000
,
0310
0000
0001
1000
,
1001
0001
0100
0000
,
0001
0010
0100
1000
,
0010
0100
0002
0000
,
0013
0000
0100
0000
,
1000
0001
0010
0000
,
0001
0100
0110
0000
,
1000
0000
0000
0100
0000
0000
0010
0000
,
0000
0001
0000
0000
1000
0000
0000
0000
,
0001
0000
0100
0000
0000
0010
0000
0000
,
1000
0000
0000
0001
0000
0000
1000
0000
,
0001
0010
0100
1000
0001
0010
0100
1000
,
0001
0010
0100
1000
0100
0010
0001
0000
,
1000
0010
0100
0001
0100
0010
1000
0010
,
0100
0001
1000
0000
0100
1000
0001
0000
,
0010
0100
1000
0001
,
2002
0000
0000
0000
,
0000
0000
0000
0000
,
3003
0000
0000
0000
,
0010
0000
0100
0000
,
1001
0000
0000
0000
,
1000
0000
0001
0000
,
0100
0100
0010
0010
,
1000
0000
0000
0000
,
1001
0001
0010
0001
,
0100
0100
0010
0010
,
1000
0100
0020
0000
,
0031
0100
0010
1000
,
1001
1000
0010
1000
,
0100
0100
0010
0010
,
0001
0100
0020
0000
,
2030
0100
3002
0100
,
1003
0010
0100
0010
,
0001
0010
1000
0100
,
0001
0100
0020
0000
,
0130
0000
0010
0000
,
1001
1000
0010
0100
,
0010
0000
0000
0001
0000
0000
0010
0000
1000
0000
0000
0000
0000
0000
0000
0000
,
2002
0000
0000
0000
,
0000
0000
0000
0000
,
3003
0000
0000
0000
;

//---------------dance-single - t7r----------------
#NOTES:
     dance-single:
     t7r:
     Medium:
     13:
     :
0000
0000
0000
0000
,
0000
0000
0000
0000
,
0000
0000
0000
0000
,
0000
0000
0000
0000
,
0000
0000
0000
0000
,
2002
0000
0000
3003
,
1000
1000
0100
0100
,
1000
1000
0001
0001
0100
0100
0010
0010
,
1000
1002
2003
3020
,
2030
0000
3100
0020
0000
0000
0032
0000
,
0103
0020
0000
0000
2030
0000
3002
0000
,
0203
0000
0310
2000
0100
0000
3001
0000
,
1000
0000
0000
0100
0000
0000
1000
0000
0010
0000
0000
0000
1000
0000
0000
0000
,
0002
0000
0103
0020
0000
0000
2030
0000
,
0010
3001
2000
3020
,
2030
0000
3100
0020
0001
0000
0130
0000
,
2200
0000
0000
3300
,
1000
0000
0000
0000
0010
0000
0000
1000
0000
0000
0001
0000
1000
0000
0001
0000
,
0010
0000
0000
0000
0001
0000
0000
1000
0000
0000
0001
0000
0100
0000
0001
0000
,
1000
0000
0000
0000
0010
0000
0000
0100
0000
0000
0010
0000
1000
0000
0001
0000
,
0010
0000
0000
0000
0100
0000
0000
0020
0000
0000
0031
0000
1000
0000
0000
0000
,
0001
0000
0000
0000
0100
0000
0000
0001
0000
0000
0010
0000
0001
0000
1000
0000
,
0010
0000
0000
0000
0100
0000
0000
0001
0000
0000
1000
0000
0100
0000
0010
0000
,
0001
0000
0000
0000
0010
0000
0000
0001
0000
0000
1000
0000
0001
0000
0100
0000
,
0010
0000
0100
0100
0000
0001
1000
0001
,
1000
0100
0100
1000
0000
1001
0000
0001
,
0100
0000
0000
0001
0000
0000
1000
0000
0010
0000
0000
0100
0000
0000
0100
0000
,
0001
0000
0000
0010
0000
0000
0011
0000
0000
0000
0001
0000
0000
0000
1000
0000
,
0001
0000
0000
0010
0000
0000
0100
0000
1000
0000
0000
0001
0000
0000
1000
0000
,
0100
0000
0000
0010
0000
0000
0100
0000
0000
0000
0001
0000
0100
0000
0000
0000
,
1000
0000
0000
0010
0000
0000
0100
0000
0010
0000
0000
0001
0000
0000
0010
0000
,
0100
0000
0000
0010
0000
0000
0010
0000
1000
0000
0000
0001
0000
0000
0001
0000
,
1000
0000
0000
0100
0000
0000
0010
0000
0001
0000
0001
0000
1000
0000
0010
0000
,
0200
1000
0010
0301
,
1001
0000
0000
1000
0000
0000
0200
0000
0000
0000
0310
0000
0001
0000
0000
0000
,
1000
0000
0000
1000
0000
0000
0010
0000
0100
0000
0000
0100
0000
0000
0001
0000
,
0010
0000
0000
0010
0000
0000
0100
0000
0020
0000
0000
0000
0031
0000
0001
0000
,
1000
0000
0000
0010
0000
0000
1000
0000
1000
0000
0000
0001
0000
0000
0010
0000
,
0001
0000
0000
0001
0000
0000
0200
0000
0000
0000
0310
0000
1000
0000
0000
0000
,
0001
0000
0000
0001
0000
0000
0010
0000
0100
0000
0000
0100
0000
0000
1000
0000
,
0010
0000
0000
0010
0000
0000
0100
0000
0020
0000
0000
0000
0000
0000
1030
0000
,
0002
0000
0013
0100
0000
1000
0000
0001
,
1000
0000
0000
1000
0000
0000
0020
0000
0000
0000
0130
0000
1000
0000
0000
0000
,
0100
0000
0000
0100
0000
0000
0010
0000
0100
0000
0000
0100
0000
0000
0001
0000
,
0010
0000
0000
1000
0000
0000
0010
0000
0200
0000
0000
0000
1300
0000
0001
0000
,
0100
0000
0000
0001
0000
0000
0010
0000
0010
0000
0000
0001
0000
0000
1000
0000
,
0001
0000
0000
0010
0000
0000
0200
0000
0000
0000
0301
0000
0100
0000
0000
0000
,
1000
0000
0000
1001
0000
0000
0010
0000
0100
0000
0000
0000
0110
0000
0000
0000
,
0002
0000
0013
0200
0000
1300
0020
0000
,
0130
0002
0000
1003
0200
0000
1300
0002
,
0100
0000
2003
0000
3010
0002
0000
0013
,
0200
0000
0301
2000
0100
0000
3002
0000
,
1003
0000
0100
0010
0100
0000
0010
0000
0001
0000
0010
0100
0010
0000
0100
0000
,
1000
0000
0010
0100
0010
0000
0100
0000
0001
0000
0100
0010
0100
0000
0001
0000
,
1000
0000
0001
0100
0010
0000
1000
0001
1000
0000
0001
0010
0100
0000
1000
0000
,
0001
0000
0100
0001
1000
0000
0100
1000
0001
0000
0100
0010
1000
0000
0100
0010
,
0001
0000
0000
0001
0100
0000
0010
0000
1000
0002
0000
1003
0001
0000
1000
0000
,
0100
0000
0000
0100
0000
0000
0020
0000
0000
0000
0000
0000
0030
0000
0000
0000
,
0001
0000
0000
0100
0000
0000
0100
0000
0020
0000
0000
0000
0030
0000
0000
0000
,
1000
0000
0000
0100
0000
0000
0010
0000
0002
0000
0000
0000
0000
0000
0000
0000
,
0100
0000
0000
0000
1003
0000
0000
0001
,
0010
0000
0000
0010
0000
0000
0200
0000
0000
0000
0000
0000
0300
0000
0000
0000
,
1000
0000
0000
0010
0000
0000
0100
0000
0002
0000
0000
0000
0003
0000
0000
0000
,
1000
0000
0100
0010
0001
0000
0100
0000
,
0220
0000
0000
0330
,
1001
0000
0000
1000
0000
0000
0200
0000
0000
0000
1300
0000
0001
0000
0000
0000
,
1000
0000
0000
0100
0000
0000
1000
0000
0010
0000
0000
0100
0000
0000
0001
0000
,
0010
0000
0000
0001
0000
0000
0100
0000
0020
0000
0000
0000
0001
0000
0000
0000
,
0130
0000
0000
0100
0000
0000
0010
0000
1000
0000
0000
1000
0000
0000
0001
0000
,
1000
0000
0000
0001
0000
0000
0200
0000
0000
0000
0301
0000
1000
0000
0000
0000
,
0010
0000
0000
1000
0000
0000
0001
0000
0010
0000
0000
0100
0000
0000
1000
0000
,
0010
0000
0000
0001
0000
0000
0010
0000
0200
0000
0000
0000
1000
0000
0000
0000
,
0320
0000
1030
0200
0000
0310
0000
0001
,
1000
0000
0000
0010
0000
0000
0200
0000
0000
0000
1300
0000
0100
0000
0000
0000
,
0001
0000
0000
0010
0000
0000
1000
0000
0001
0000
0000
0100
0000
0000
0010
0000
,
0001
0000
0000
0100
0000
0000
0010
0000
0200
0000
0000
0000
1300
0000
0100
0000
,
0001
0000
0000
0010
0000
0000
0100
0000
0010
0000
0000
1000
0000
0000
0010
0000
,
0001
0000
0000
0100
0000
0000
0020
0000
0000
0000
0031
0000
0010
0000
0100
0000
,
0010
0000
0000
0110
0000
0000
1000
0000
0001
0000
0000
0000
0110
0000
0000
0000
,
2002
0000
0000
0000
,
0000
0000
0000
0000
,
3003
0000
0000
0000
;

//---------------dance-single - t7r----------------
#NOTES:
     dance-single:
     t7r:
     Hard:
     15:
     :
0000
0000
0000
0000
,
0000
0000
0000
0000
,
0000
0000
0000
0000
,
0000
0000
0000
0000
,
0000
0000
0000
0000
,
1001
0000
0000
1000
0000
0000
0020
0000
0000
0000
1030
0000
0001
0000
0100
0000
,
0001
0000
0000
0001
0000
0000
0010
0000
0100
0000
0000
0100
0000
0000
1000
0000
,
0010
0100
0010
0000
0100
0000
0100
0000
0001
1000
0001
0000
1000
0000
1000
0000
,
0100
0000
0000
0010
0001
0000
1000
0000
0002
0000
0000
0000
0023
0000
0000
0000
,
0032
0000
0100
2003
0100
0000
3020
0000
,
0031
0000
0020
0000
0100
0000
0000
0000
1030
0000
0000
0001
1000
0000
0001
0000
,
2000
0000
0100
3002
0010
0000
1000
0000
,
0103
0000
0000
0010
0100
0000
0001
0000
1000
0000
0000
0010
1000
0000
0001
0010
,
0002
0000
0010
2003
0010
0000
3002
0000
,
0100
0000
0000
0000
1000
0000
0000
0000
0013
0000
0000
0001
2000
0000
0000
0000
,
3020
0000
0001
0230
1000
0000
0310
0000
,
1001
0000
0000
0001
0100
0000
0010
0000
1000
0001
0000
1000
0001
0000
1000
0001
,
1000
0000
0100
0000
0010
0000
0100
1000
0000
0001
1000
0000
0001
0000
0010
0000
,
0001
0000
0100
0000
0010
0000
0100
0001
0000
1000
0001
0000
0010
0000
0001
0000
,
1000
0000
0010
0000
0100
0000
0010
1000
0000
0001
1000
0000
0001
0000
0010
0000
,
0001
0000
0100
0000
0010
0000
0001
0020
0000
0000
1030
0000
0001
0000
1000
0000
,
0100
0000
0001
0000
0100
0000
0010
0100
0000
0010
1000
0000
0010
0000
0001
0000
,
0100
0000
1000
0000
0100
0000
0010
0100
0000
1000
0100
0000
0001
0000
0010
0000
,
1000
0000
0010
0000
0100
0000
0010
1000
0000
0010
0001
0000
0100
0000
0010
0000
,
0001
0000
0010
0000
1000
0000
0001
0020
0000
0000
1030
0000
0010
0000
0010
0000
,
0100
1000
1000
1001
0000
0101
0000
1001
,
1000
0000
0000
1000
0100
0000
0010
0000
0001
0000
0000
0001
0100
0000
0010
0000
,
0110
0000
0000
0100
0000
0000
0101
0000
0001
0000
1001
0000
0000
0000
1100
0000
,
1000
0000
0000
1000
0010
0000
0100
0000
0001
0000
0000
0001
0010
0000
0001
1000
,
0001
0000
0000
0001
0100
0000
0110
0000
0000
0000
0101
0000
0100
0000
0001
0000
,
1001
0000
0000
1000
0100
0000
0010
0000
1000
0000
0000
1000
0010
0000
0100
0000
,
0110
0000
0000
0010
0001
0000
0100
0000
0110
0000
0000
0100
1000
0000
0100
0000
,
0010
0000
0000
0000
0110
0000
0000
0000
1000
0001
1000
0000
0100
0000
0010
0000
,
0001
0000
0000
0100
0010
0000
1000
0000
0001
2000
0000
0000
3001
0000
1000
0001
,
1000
0000
0000
1000
0100
0000
0020
0000
0000
0000
0031
0000
1000
0000
0001
0000
,
0100
0000
0000
0100
0010
0000
0100
0000
0001
0000
0000
0001
1000
0000
0001
0010
,
0001
0000
0000
0001
1000
0000
0100
0000
2000
0000
0000
0000
0010
0000
0010
0000
,
3001
0000
0000
0001
0100
0000
0010
0000
1000
0000
0000
1000
0100
0000
1000
0001
,
1000
0000
0000
1000
0010
0000
0200
0000
0000
0000
0301
0000
1000
0000
0001
0000
,
0010
0000
0000
0010
0100
0000
0010
0000
0001
0000
0000
0001
1000
0000
0100
0000
,
1000
0000
0000
1000
0001
0000
0010
0000
0002
0000
0000
0000
0100
0000
0100
0000
,
2003
0000
0000
0000
0010
0000
3002
0000
0000
0000
0103
0000
0000
0000
0001
1000
,
0001
0000
0000
0001
0100
0000
0020
0000
0000
0000
0031
0000
0010
0000
0100
0000
,
0010
0000
0000
0010
1000
0000
0100
0000
0010
0000
0000
0010
1000
0000
0010
0000
,
0100
0000
0000
0100
1000
0000
0001
0000
0200
0000
0000
0000
1000
0000
1000
0000
,
0310
0000
0000
0010
0100
0000
0001
0000
0010
0000
0000
0010
0100
0000
1000
0001
,
1000
0000
0000
1000
0100
0000
0020
0000
0000
0000
1030
0000
0010
0000
0100
0000
,
0010
0000
0000
0110
0000
0000
0001
1000
0001
0000
0000
0000
1001
0000
0000
0000
,
2100
0000
3001
0020
0100
0030
0012
0000
,
1003
0020
0100
0030
2010
0000
3001
1000
,
1001
0000
1020
0000
0130
0002
0010
0003
,
0201
0000
0310
2000
0100
3000
1002
0000
,
1003
0100
1000
0100
0010
0001
0010
0100
1000
0000
0001
1000
0100
0000
1000
0000
,
0001
0100
0001
0100
0010
1000
0010
0100
0001
0000
0100
0001
1000
0000
0001
0000
,
1000
0100
0010
0001
0010
0100
1000
0000
0001
0100
0010
1000
0010
0100
0001
0000
,
1000
0001
1000
0001
1000
0001
1000
0001
0100
0010
0100
0010
1000
0001
1000
0001
,
0100
0000
0000
0100
0001
0000
1000
0001
2000
0100
0000
3001
1000
0000
0010
1000
,
0010
0000
0000
0010
0000
0000
2000
0000
0000
0000
3001
0000
0100
0000
0001
0000
,
0010
0000
0000
0010
0000
0000
0001
0000
1000
0000
0000
1000
0000
0000
0010
0100
,
0010
0000
0000
0010
0000
0000
1000
0000
0002
0000
0000
0000
0000
0000
0000
0000
,
0010
0000
0000
0000
1003
0000
0000
0001
,
1001
0000
0000
1000
0000
0000
0002
0000
0000
0000
1003
0000
0100
0000
1000
0000
,
0010
0000
0000
0010
0000
0000
1000
0000
0001
0000
0000
0001
0000
0000
0010
0000
,
0001
1000
0001
0000
0100
0000
0001
0000
1000
0001
1000
0000
0100
0000
1000
0000
,
0010
0000
0000
0100
0010
0000
1000
0000
0002
0000
0000
0000
0000
0000
1003
0100
,
1000
0000
0000
1000
0010
0000
1000
0000
0001
0100
0000
0001
1000
0000
0001
0000
,
0010
0000
0000
0010
0100
0000
1000
0000
0010
0000
0000
0010
0100
0000
0001
1000
,
0001
0000
0000
0001
0010
0000
0001
0000
2000
0100
0000
3001
1000
0000
0010
0000
,
0200
0000
0000
1000
0000
0000
0010
0000
0310
0100
0000
0010
1000
0000
0001
1000
,
0001
0000
0000
0001
0010
0000
0001
0000
1000
0100
0000
1000
0001
0000
1000
0000
,
0010
0000
0000
0010
0100
0000
0001
0000
0010
0000
0000
0010
0100
0000
1000
0000
,
0001
0000
0000
0001
0100
0000
0001
0000
2000
0010
0000
3001
1000
0000
0100
0000
,
0020
0000
0000
0000
1000
0000
0130
0000
1000
0001
0000
0100
0010
0000
1000
0010
,
1000
0000
0000
1000
0010
0000
0100
0000
1000
0100
0000
0010
0100
0000
1000
0000
,
0100
0000
0000
0100
0001
0000
0010
0000
1000
0000
0000
1000
0001
0000
0100
0000
,
0010
0000
0000
0010
0001
0000
0100
0000
0020
0001
0000
0130
0010
0000
1000
0000
,
0200
0000
0000
0001
0000
0000
0010
0000
0310
0100
0000
1000
0100
0000
1000
0001
,
1000
0000
0000
1000
0100
0000
0001
0000
1000
0010
0000
0100
0010
0000
0001
0000
,
0100
0000
0000
1100
0000
0000
0001
0010
0100
0000
0000
0000
0110
0000
0000
0000
,
2002
0000
0000
0000
,
0000
0000
0000
0000
,
3003
0000
0000
0000
;

//---------------dance-double - t7r----------------
#NOTES:
     dance-double:
     t7r:
     Easy:
     8:
     :
00000000
00000000
00000000
00000000
,
00000000
00000000
00000000
00000000
,
00000000
00000000
00000000
00000000
,
00000000
00000000
00000000
00000000
,
00000000
00000000
00000000
00000000
,
00022000
00000000
00000000
00033000
,
00001000
00000000
01000000
00000000
,
00010000
00010000
00100000
01000000
,
10000000
00000000
00000000
00000000
,
10010000
00000000
10000000
01000000
,
00100000
00000000
00010000
00001000
,
00000100
00000000
00001000
00000010
,
00000100
00000000
00000001
00000010
,
00000001
00000000
00000000
00001000
00000000
00000000
00002000
00000000
,
00000000
00003000
00000001
00000010
,
00001000
00000000
00000000
00010000
00000000
00000000
00100000
00000000
,
20000000
00000000
00000000
30000000
,
00010000
00100000
01000000
00100000
,
00001000
00000000
00010000
00000000
,
00000010
00001000
00000001
00000100
,
00000010
00000000
00010000
00000000
,
00001000
00100000
00010000
01000000
,
00100000
00000000
10000000
00000000
,
01000000
00100000
00010000
00001000
,
00000010
00000000
00000000
00000100
00000000
00000000
00000001
00000000
,
00001000
00000000
00000000
00000100
00000000
00000100
00000000
00000000
,
00010000
00001000
01000000
00010000
,
10000000
00000000
00000000
10000000
00000000
10000000
00000000
00000000
,
01000000
00100000
00010000
00001000
,
00000010
00000000
00000000
00000100
00000000
00000000
00000001
00000000
,
00001000
00000100
00010000
00001000
,
01000000
00000000
10010000
00000000
,
10000000
01000000
00010000
00001000
,
00000020
00000000
00000000
00000030
,
00001001
00000001
00000100
00000000
,
00000001
00000010
00000100
00000000
,
00010000
00001000
00200000
00000000
,
00310000
00000000
01000000
00000000
,
00100000
10000000
00010000
00000000
,
10000000
01000000
00100000
00000000
,
00001000
00010000
00000020
00000000
,
00000130
00000000
00000001
00000000
,
00000010
00000100
00001000
00000000
,
00010000
00100000
01000000
00000000
,
10000000
00100000
02000000
00000000
,
03001000
00000000
00010000
00000000
,
00000010
00001000
00000001
00000000
,
00000100
00001000
00010000
00000000
,
00011000
00000000
00000000
00100000
00000000
00000000
00010000
00000000
,
00000000
10000000
00000000
00000000
00100000
00000000
00000000
00010000
,
00000000
00000000
00001000
00000000
00000000
00000100
00000000
00000000
,
00000001
00000000
00000000
00000010
00000000
00000000
00000100
00000000
,
00010000
00000100
00001000
00000000
00000001
00000100
00001000
00000000
,
00010000
00001000
01000000
00000000
00010000
10000000
01000000
00000000
,
10000000
00100000
00010000
00000000
00001000
00000100
00000001
00000000
,
00000010
00001000
00010000
00000000
01000000
10000000
00100000
00000000
,
01000000
00000000
00100000
00000000
10000000
00010000
01000000
00000000
,
00002000
00000000
00000000
00000000
,
00000000
00000000
00000000
00000000
,
00003000
00000000
00000000
00000000
,
00000000
00000000
00000000
00000000
,
00000110
00000000
00000000
00000000
,
00000000
00000000
00000000
00000000
,
00000001
00000010
00001000
00010000
,
00011000
00000000
00000000
00000000
,
01000000
00010000
00100000
00010000
,
10000000
10000000
00100000
01000000
,
00010000
00001000
00000020
00000000
,
00000130
00000000
00000001
00000000
,
00000010
00000100
00001000
00000001
,
00000100
00000100
00001000
00010000
,
01000000
10000000
00200000
00000000
,
01300000
00000000
00010000
00000000
,
10010000
10000000
01000000
00100000
,
00010000
00001000
00000100
00000010
,
00000001
00000100
00000020
00000000
,
00001030
00000000
00000100
00000000
,
00011000
00001000
01000000
00010000
,
00100000
00000000
00000000
00001000
00000000
00000000
00010000
00000000
00000000
00000000
00000000
00000000
00000000
00000000
00000000
00000000
,
00022000
00000000
00000000
00000000
,
00000000
00000000
00000000
00000000
,
00033000
00000000
00000000
00000000
;

//---------------dance-double - t7r----------------
#NOTES:
     dance-double:
     t7r:
     Medium:
     13:
     :
00000000
00000000
00000000
00000000
,
00000000
00000000
00000000
00000000
,
00000000
00000000
00000000
00000000
,
00000000
00000000
00000000
00000000
,
00000000
00000000
00000000
00000000
,
00022000
00000000
00000000
00033000
,
00001000
00001000
01000000
01000000
,
00010000
00010000
00100000
00000000
01000000
01000000
10000000
00000000
,
00100000
02000000
03002000
00023000
,
00030200
00000000
00001300
00000002
00000000
00000000
00000203
00000000
,
00000310
00002000
00000000
00000000
00003200
00000000
00020300
00000000
,
00032000
00000000
01003000
00020000
00100000
00000000
10030000
00000000
,
00010000
00000000
00000000
10000000
00000000
00000000
01000000
00000000
00010000
00000000
00000000
00000000
00001000
00000000
00000000
00000000
,
00000200
00000000
00000301
00000020
00000000
00000000
00000032
00000000
,
00000100
00001003
00000002
00000023
,
00002030
00000000
00013000
02000000
00100000
00000000
13000000
00000000
,
20020000
00000000
00000000
30030000
,
10000000
00000000
00000000
00000000
00100000
00000000
00000000
10000000
00000000
00000000
00010000
00000000
00100000
00000000
00000000
00000000
,
00001000
00000000
00000000
00000000
00010000
00000000
00000000
00000010
00000000
00000000
00001000
00000000
00000001
00000000
00000000
00000000
,
00000010
00000000
00000000
00000000
00000100
00000000
00000000
00001000
00000000
00000000
00010000
00000000
00100000
00000000
00000000
00000000
,
00010000
00000000
00000000
00000000
01000000
00000000
00000000
00200000
00000000
00000000
10300000
00000000
00010000
00000000
00000000
00000000
,
10000000
00000000
00000000
00000000
01000000
00000000
00000000
00010000
00000000
00000000
00001000
00000000
00000100
00000000
00000000
00000000
,
00000001
00000000
00000000
00000000
00000010
00000000
00000000
00000100
00000000
00000000
00001000
00000000
00010000
00000000
00000000
00000000
,
10000000
00000000
00000000
00000000
00100000
00000000
00000000
00010000
00000000
00000000
00001000
00000000
00000010
00000000
00000000
00000000
,
00000001
00000000
00000100
00000100
00000000
00001000
00010000
00001000
,
00000000
01000000
01000000
00010000
00000000
10010000
00000000
10000000
,
01000000
00000000
00000000
00100000
00000000
00000000
00010000
00000000
00001000
00000000
00000000
00000010
00000000
00000000
00000100
00000000
,
00000001
00000000
00000000
00000010
00000000
00000000
00000011
00000000
00000000
00000000
00000001
00000000
00000000
00000000
00001000
00000000
,
00000100
00000000
00000000
00010000
00000000
00000000
00001000
00000000
00010000
00000000
00000000
01000000
00000000
00000000
10000000
00000000
,
00100000
00000000
00000000
01000000
00000000
00000000
00100000
00000000
00000000
00000000
00010000
00000000
00001000
00000000
00000000
00000000
,
00000100
00000000
00000000
00000010
00000000
00000000
00000100
00000000
00000001
00000000
00000000
00001000
00000000
00000000
00000100
00000000
,
00010000
00000000
01100000
00000000
,
10000000
00000000
00000000
01000000
00000000
00000000
00100000
00000000
00010000
00000000
00000000
00001000
00000000
00000000
00000001
00000000
,
00000200
00001000
00000010
00000301
,
00001001
00000000
00000000
00000001
00000000
00000000
00000020
00000000
00000000
00000000
00000031
00000000
00000100
00000000
00000000
00000000
,
00000001
00000000
00000000
00000001
00000000
00000000
00000010
00000000
00000100
00000000
00000000
00000100
00000000
00000000
00010000
00000000
,
00001000
00000000
00000000
00001000
00000000
00000000
01000000
00000000
00200000
00000000
00000000
00000000
10300000
00000000
10000000
00000000
,
00010000
00000000
00000000
10000000
00000000
00000000
01000000
00000000
01000000
00000000
00000000
00100000
00000000
00000000
00010000
00000000
,
00001000
00000000
00000000
00001000
00000000
00000000
00000020
00000000
00000000
00000000
00000130
00000000
00000001
00000000
00000000
00000000
,
00000010
00000000
00000000
00000010
00000000
00000000
00000100
00000000
00010000
00000000
00000000
00010000
00000000
00000000
00001000
00000000
,
01000000
00000000
00000000
01000000
00000000
00000000
00010000
00000000
00200000
00000000
00000000
00000000
00000000
00000000
00310000
00000000
,
20000000
00000000
30100000
01000000
00000000
00010000
00000000
00001000
,
00000100
00000000
00000000
00000100
00000000
00000000
00002000
00000000
00000000
00000000
00003001
00000000
00000100
00000000
00000000
00000000
,
00000001
00000000
00000000
00000001
00000000
00000000
00000010
00000000
00001000
00000000
00000000
00001000
00000000
00000000
00010000
00000000
,
00100000
00000000
00000000
00100000
00000000
00000000
01000000
00000000
00020000
00000000
00000000
00000000
10030000
00000000
00010000
00000000
,
01000000
00000000
00000000
00010000
00000000
00000000
10000000
00000000
01000000
00000000
00000000
00010000
00000000
00000000
00001000
00000000
,
00000010
00000000
00000000
00000010
00000000
00000000
00000200
00000000
00000000
00000000
00001300
00000000
00000001
00000000
00000000
00000000
,
00000100
00000000
00000000
00001000
00000000
00000000
00010000
00000000
00001000
00000000
00000000
00000000
00011000
00000000
00000000
00000000
,
00200000
00000000
00310000
02000000
00000000
03100000
20000000
00000000
,
31000000
00200000
00000000
00301000
00020000
00000000
00030010
00002000
,
00000100
00000000
00003002
00000000
00000013
00000200
00000000
00010300
,
00002000
00000000
00013000
00200000
01000000
00000000
20300000
00000000
,
30010000
00000000
10000000
01000000
10000000
00000000
01000000
00000000
00100000
00000000
00001000
00010000
00001000
00000000
00010000
00000000
,
00000100
00000000
00001000
00000001
00001000
00000000
00000001
00000000
00000100
00000000
00000010
00001000
00000010
00000000
00001000
00000000
,
00000001
00000000
00000010
00000100
00001000
00000000
00010000
00000000
00100000
00000000
01000000
10000000
01000000
00000000
10000000
00000000
,
00100000
00000000
00010000
00000000
00001000
00000000
00000100
00000000
00000010
00000100
00000001
00000000
00000010
00000100
00001000
00000000
,
00000001
00000000
00000000
00000001
00000100
00000000
00001000
00000000
00010000
00000200
00000000
00000000
00001300
00000000
00000000
00000000
,
00001001
00000000
00000000
00000001
00000000
00000000
00000200
00000000
00000000
00000000
00000000
00000000
00000300
00000000
00000000
00000000
,
00000010
00001000
00010000
00000000
,
10000000
00000000
00000000
00100000
00000000
00000000
01000000
00000000
00020000
00000000
00000000
00000000
00000000
00000000
00000000
00000000
,
20030000
00000000
32000000
00000000
,
03010000
00000000
00000000
00010000
00000000
00000000
00000200
00000000
00000000
00000000
00000000
00000000
00000300
00000000
00000000
00000000
,
00001000
00000000
00000000
00000001
00000000
00000000
00000100
00000000
00000020
00000000
00000000
00000000
00000030
00000000
00000000
00000000
,
00010000
00000000
00001000
00010000
00001000
00000000
00010000
00000000
,
00022000
00000000
00000000
00033000
,
00001000
00000000
00000000
01000000
00000000
00000000
00020000
00000000
00000000
00000000
10030000
00000000
01000000
00000000
00000000
00000000
,
10000000
00000000
00000000
00100000
00000000
00000000
01000000
00000000
00010000
00000000
00000000
00001000
00000000
00000000
00000100
00000000
,
00000010
00000000
00000000
00000001
00000000
00000000
00001000
00000000
00000200
00000000
00000000
00000000
00000001
00000000
00000000
00000000
,
00000310
00000000
00000000
00000010
00000000
00000000
00000001
00000000
00000100
00000000
00000000
00000100
00000000
00000000
00000010
00000000
,
00001000
00000000
00000000
00000001
00000000
00000000
00000200
00000000
00000000
00000000
00001300
00000000
00010000
00000000
00000000
00000000
,
00100000
00000000
00000000
01000000
00000000
00000000
00010000
00000000
10000000
00000000
00000000
01000000
00000000
00000000
00100000
00000000
,
00010000
00000000
00000000
00001000
00000000
00000000
00000010
00000000
00000200
00000000
00000000
00000000
00001000
00000000
00000000
00000000
,
00000320
00000000
00001030
00020000
00000000
00130000
00000000
01000000
,
10000000
00000000
00000000
00010000
00000000
00000000
02000000
00000000
00000000
00000000
03100000
00000000
01000000
00000000
00000000
00000000
,
00010000
00000000
00000000
00100000
00000000
00000000
01000000
00000000
00010000
00000000
00000000
00001000
00000000
00000000
00000100
00000000
,
00000010
00000000
00000000
00001000
00000000
00000000
00010000
00000000
02000000
00000000
00000000
00000000
03100000
00000000
10000000
00000000
,
00010000
00000000
00000000
00100000
00000000
00000000
00001000
00000000
00010000
00000000
00000000
00001000
00000000
00000000
00000010
00000000
,
00000001
00000000
00000000
00000100
00000000
00000000
00002000
00000000
00000000
00000000
00013000
00000000
01000000
00000000
00000000
00000000
,
00100000
00000000
00000000
00011000
00000000
00000000
00000010
00000000
00000100
00000000
00000000
00000000
00000110
00000000
00000000
00000000
,
00022000
00000000
00000000
00000000
,
00000000
00000000
00000000
00000000
,
00033000
00000000
00000000
00000000
;

//---------------dance-double - t7r----------------
#NOTES:
     dance-double:
     t7r:
     Hard:
     15:
     :
00000000
00000000
00000000
00000000
,
00000000
00000000
00000000
00000000
,
00000000
00000000
00000000
00000000
,
00000000
00000000
00000000
00000000
,
00000000
00000000
00000000
00000000
,
00011000
00000000
00000000
00010000
00000000
00000000
00000020
00000000
00000000
00000000
00001030
00000000
00000001
00000000
00000100
00000000
,
00000001
00000000
00000000
00000001
00000000
00000000
00000010
00000000
00000100
00000000
00000000
00000100
00000000
00000000
00010000
00000000
,
00001000
00010000
00001000
00000000
01000000
00000000
01000000
00000000
00010000
10000000
00010000
00000000
10000000
00000000
10000000
00000000
,
01000000
00000000
00000000
00100000
00010000
00000000
10000000
00000000
00200000
00000000
00000000
00000000
00320000
00000000
00000000
00000000
,
00032000
00000000
01000000
00023000
00001000
00000000
00030200
00000000
,
00001300
00000000
00000020
00000000
00000100
00000000
00000000
00000000
00001030
00000000
00000000
00000001
00001000
00000000
00000100
00000000
,
00020000
00000000
00000010
00032000
00010000
00000000
00100000
00000000
,
00013000
00000000
00000000
00001000
01000000
00000000
00010000
00000000
10000000
00000000
00000000
00100000
01000000
00000000
00001000
00010000
,
00002000
00000000
00100000
00023000
00001000
00000000
00030020
00000000
,
00001000
00000230
00000302
00000023
,
00002030
00000000
00013000
02000000
00100000
00000000
13000000
00000000
,
10010000
00000000
00000000
10000000
01000000
00000000
00100000
00000000
00010000
10000000
00000000
00010000
10000000
00000000
00000000
00000000
,
00010000
00000000
00100000
00000000
01000000
00000000
00100000
00010000
00000000
00000000
10000000
00000000
00100000
00000000
01000000
00000000
,
00010000
00000000
00001000
00000000
00000100
00000000
00001000
00000001
00000000
00000000
00000100
00000000
00000010
00000000
00001000
00000000
,
00000001
00000000
00000010
00000000
00000100
00000000
00001000
00000001
00000000
00000000
00000100
00000000
00001000
00000000
00010000
00000000
,
00100000
00000000
01000000
00000000
00010000
00000000
10000000
00200000
00000000
00000000
10300000
00000000
00010000
00000000
00100000
00000000
,
00001000
00000000
00010000
00000000
00000100
00000000
00001000
00000001
00000000
00000000
00001000
00000000
00000010
00000000
00001000
00000000
,
00000100
00000000
00001000
00000000
00010000
00000000
00100000
00010000
00000000
00000000
10000000
00000000
00100000
00000000
10000000
00000000
,
01000000
00000000
00100000
00000000
00010000
00000000
00001000
00000010
00000000
00000000
00001000
00000000
00000001
00000000
00000100
00000000
,
00001000
00000000
00010000
00000000
01000000
00000000
10000000
00200000
00000000
00000000
01300000
00000000
00001000
00000000
00010000
00000000
,
00001000
00000100
00000100
00000101
00000000
00001001
00000000
00000001
,
00000010
00000000
00000000
00000010
00000001
00000000
00001000
00000000
00000010
00000000
00000000
00000010
00000100
00000000
00001000
00000000
,
00011000
00000000
00000000
00001000
00000000
00000000
01001000
00000000
01000000
00000000
01010000
00000000
00000000
00000000
10010000
00000000
,
10000000
00000000
00000000
10000000
01000000
00000000
00100000
00000000
00010000
00000000
00000000
00010000
10000000
00000000
00100000
00000000
,
00010000
00000000
00000000
00010000
00001000
00000000
00011000
00000000
00000000
00000000
00010100
00000000
00000100
00000000
00001000
00000000
,
00000001
00000000
00000000
00000001
00000100
00000000
00000001
00000000
00000010
00000000
00000000
00000010
00000100
00000000
00010000
00000000
,
00011000
00000000
00000000
00001000
00000000
00000000
00010000
00000000
00011000
00000000
00000000
00010000
00000000
00000000
01000000
00000000
,
10000000
00000000
00000000
00100000
01000000
00000000
00010000
00000000
10000000
00010000
10000000
00000000
01000000
00000000
00010000
00000000
,
00001000
00000000
00000000
00000100
00000010
00000000
00001000
00000000
00000001
00002000
00000000
00000000
00003001
00000000
00001000
00000001
,
00001000
00000000
00000000
00001000
00000100
00000000
00000020
00000000
00000000
00000000
00000031
00000000
00001000
00000000
00000001
00000000
,
00000100
00000000
00000000
00000100
00000010
00000000
00001000
00000000
00010000
00000000
00000000
00010000
00100000
00000000
00010000
00000000
,
10000000
00000000
00000000
10000000
00100000
00000000
10000000
00000000
00020000
00000000
00000000
00000000
01000000
00000000
01000000
00000000
,
10030000
00000000
00000000
10000000
01000000
00000000
00100000
00000000
00010000
00000000
00000000
00001000
00000000
00000000
00000010
00001000
,
00000010
00000000
00000000
00000010
00000100
00000000
00000002
00000000
00000000
00000000
00000013
00000000
00000100
00000000
00001000
00000000
,
00000001
00000000
00000000
00000001
00000100
00000000
00000010
00000000
00001000
00000000
00000000
00001000
00000100
00000000
00010000
00000000
,
00001000
00000000
00000000
00001000
01000000
00000000
00010000
00000000
20000000
00000000
00000000
00000000
01000000
00000000
01000000
00000000
,
30020000
00000000
00000000
00000000
00130000
00000000
00001000
00000000
00000000
00000000
00010000
00000000
00000000
00000000
00000100
00001000
,
00000100
00000000
00000000
00000100
00001000
00000000
00000002
00000000
00000000
00000000
00000103
00000000
00001000
00000000
00010000
00000000
,
00100000
00000000
00000000
00100000
01000000
00000000
00010000
00000000
00100000
00000000
00000000
00100000
01000000
00000000
10000000
00000000
,
00100000
00000000
00000000
00100000
00010000
00000000
00001000
00000000
00000020
00000000
00000000
00000000
00001000
00000000
00001000
00000000
,
00000130
00000000
00000000
00000100
00000010
00000000
00000001
00000000
00001000
00000000
00000000
00001000
00000100
00000000
00010000
00001000
,
00010000
00000000
00000000
00010000
01000000
00000000
00200000
00000000
00000000
00000000
00310000
00000000
10000000
00000000
00100000
00000000
,
01000000
00000000
00000000
01100000
00000000
00000000
00010000
10000000
00010000
00000000
00000000
00000000
10010000
00000000
00000000
00000000
,
21000000
00000000
30010000
00200000
01000000
00300000
00120000
00000000
,
00130000
00002000
00010000
00003000
00021000
00000000
00030010
00001000
,
00001001
00000000
00000102
00000000
00000013
00000200
00001000
00000300
,
00020100
00000000
00031000
02000000
00100000
03000000
01020000
00000000
,
10030000
00000000
01000000
00100000
00010000
00000000
00001000
00000000
00000100
00000000
00000010
00000001
00000010
00000001
00001000
00000000
,
00000001
00000000
00000100
00000010
00001000
00000000
00010000
00000000
01000000
00000000
00100000
10000000
00100000
10000000
00010000
00000000
,
10000000
01000000
00100000
00010000
00100000
01000000
10000000
00000000
01000000
00000000
00010000
00001000
00010000
00000100
00001000
00000000
,
00000001
00000100
00000010
00001000
00000001
00000000
00000010
00000000
00001000
00010000
00001000
00010000
00001000
01000000
00010000
00000000
,
10000000
00000000
00000000
10000000
00100000
00000000
00010000
00000000
00001000
00000200
00000000
00000000
00000301
00000000
00001000
00000001
,
00002000
00000000
00003100
00000000
,
00001000
00000000
00000000
00001000
00000000
00000000
00000001
00000000
00000100
00000000
00000000
00000100
00000000
00000000
00001000
00000000
,
00010000
00000000
00000000
00010000
00000000
00000000
00100000
00000000
02000000
00000000
00000000
00000000
00000000
00000000
00000000
00000000
,
10000000
00000000
00000000
00000000
03100000
00000000
00000000
10000000
,
10010000
00000000
00000000
10000000
00000000
00000000
00200000
00000000
00000000
00000000
10300000
00000000
01000000
00000000
10000000
00000000
,
00010000
00000000
00000000
00010000
00000000
00000000
00100000
00000000
00001000
00000000
00000000
00001000
00000000
00000000
00010000
00000000
,
00000010
00001000
00000010
00000000
00001000
00000000
00000001
00000000
00000100
00000001
00000100
00000000
00000001
00000000
00000010
00000000
,
00001000
00000000
00000000
00010000
00001000
00000000
00010000
00000000
02000000
00000000
00000000
00000000
00000000
00000000
13000000
00010000
,
10000000
00000000
00000000
10000000
01000000
00000000
10000000
00000000
00100000
10000000
00000000
00010000
10000000
00000000
00010000
00000000
,
00100000
00000000
00000000
00100000
00001000
00000000
00010000
00000000
00000010
00000000
00000000
00000010
00001000
00000000
00000001
00000000
,
00000100
00000000
00000000
00000100
00000010
00000000
00001000
00000000
00000002
00000100
00000000
00001003
00000001
00000000
00000010
00000000
,
00002000
00000000
00000000
00000100
00000000
00000000
00010000
00000000
00013000
00001000
00000000
01000000
00010000
00000000
10000000
00000000
,
00010000
00000000
00000000
00010000
00100000
00000000
01000000
00000000
10000000
00100000
00000000
10000000
00010000
00000000
10000000
00000000
,
01000000
00000000
00000000
01000000
00100000
00000000
00010000
00000000
00001000
00000000
00000000
00001000
00000010
00000000
00000100
00000000
,
00000001
00000000
00000000
00000001
00000010
00000000
00000001
00000000
00002000
00000100
00000000
00003001
00001000
00000000
00000001
00000000
,
00000200
00000000
00000000
00000000
00001300
00000000
00020000
00000000
00000000
00000000
01030000
00000000
00000000
00000000
10000000
00010000
,
10000000
00000000
00000000
10000000
00100000
00000000
01000000
00000000
00010000
00100000
00000000
00010000
10000000
00000000
01000000
00000000
,
00010000
00000000
00000000
00010000
00001000
00000000
00000010
00000000
00000100
00000000
00000000
00000100
00001000
00000000
00000010
00000000
,
00000100
00000000
00000000
00000100
00001000
00000000
00010000
00000000
02000000
00010000
00000000
03100000
00010000
00000000
00001000
00000000
,
00000200
00000000
00000000
00000001
00000000
00000000
00000010
00000000
00000310
00000100
00000000
00010000
00001000
00000000
01000000
00000000
,
00010000
00000000
00000000
00010000
00100000
00000000
01000000
00000000
10000000
00100000
00000000
10000000
00010000
00000000
00100000
00000000
,
00001000
00000000
00000000
00011000
00000000
00000000
00000010
00000100
00000010
00000000
00000000
00000000
00000110
00000000
00000000
00000000
,
00020000
00000000
00000000
00000000
,
00000000
00000000
00000000
00000000
,
00030000
00000000
00000000
00000000
;
