#VERSION:0.83;
#TITLE:Rave In My Garage;
#SUBTITLE:;
#ARTIST:Little Sis Nora;
#TITLETRANSLIT:;
#SUBTITLETRANSLIT:;
#ARTISTTRANSLIT:;
#GENRE:;
#ORIGIN:;
#CREDIT:;
#BANNER:Rave In My Garage.png;
#BACKGROUND:Rave In My Garage - bg.png;
#PREVIEWVID:;
#JACKET:Rave In My Garage - jacket.png;
#CDIMAGE:;
#DISCIMAGE:;
#LYRICSPATH:;
#CDTITLE:cdtitle.png;
#MUSIC:Rave In My Garage.ogg;
#OFFSET:-0.194000;
#SAMPLESTART:32.469002;
#SAMPLELENGTH:17.306000;
#SELECTABLE:YES;
#BPMS:0.000=152.000,
49.000=151.195,
50.000=149.588,
51.000=147.981,
52.000=146.374,
53.000=144.766,
54.000=143.159,
55.000=141.552,
56.000=139.945,
57.000=139.300,
58.000=136.930,
59.000=135.680,
60.000=133.830,
61.000=132.640,
62.000=131.660,
63.000=130.030,
64.000=128.540,
65.000=126.480,
66.000=125.770,
67.000=124.400,
68.000=123.160,
69.000=121.250,
70.000=120.590,
71.000=119.310,
72.000=117.760,
73.000=116.500,
74.000=115.520,
75.000=114.300,
76.000=112.660,
77.000=111.500,
78.000=110.500,
79.000=110.010,
80.000=107.220,
81.000=107.000,
147.000=108.000,
150.000=110.000,
152.000=113.000,
153.000=115.000,
154.000=119.000,
155.000=122.000,
156.000=127.000,
157.000=133.000,
158.000=136.000,
159.000=140.000,
160.000=152.000,
225.000=151.195,
226.000=149.588,
227.000=147.981,
228.000=146.374,
229.000=144.766,
230.000=143.159,
231.000=141.552,
232.000=139.880,
233.000=138.110,
234.000=136.930,
235.000=135.170,
236.000=133.830,
237.000=132.340,
238.000=131.020,
239.000=129.080,
240.000=127.870,
241.000=126.480,
242.000=125.770,
243.000=124.080,
244.000=122.220,
245.000=121.250,
246.000=120.050,
247.000=119.150,
248.000=117.400,
249.000=116.500,
250.000=115.030,
251.000=114.300,
252.000=112.660,
253.000=111.010,
254.000=110.500,
255.000=110.010,
256.000=107.220,
257.000=107.000;
#STOPS:;
#DELAYS:;
#WARPS:;
#TIMESIGNATURES:0.000=4=4;
#TICKCOUNTS:0.000=4;
#COMBOS:0.000=1;
#SPEEDS:0.000=1.000=0.000=0;
#SCROLLS:0.000=1.000,
97.000=2.000,
97.250=1.000,
97.500=0.500,
98.000=1.000,
115.000=0.000,
116.000=1.000,
273.000=2.000,
273.250=1.000,
273.500=0.500,
274.000=1.000;
#FAKES:;
#LABELS:0.000=Song Start;
#BGCHANGES:0.000=Rave In My Garage.mp4=1.000=1=0=1===CrossFade==,
291.000=Rave In My Garage - bg.png=1.000=1=0=1===CrossFade==,
99999=-nosongbg-=1.000=0=0=0 // don't automatically add -songbackground-
;
#KEYSOUNDS:;
#ATTACKS:
;

//---------------dance-single - ----------------
#NOTEDATA:;
#CHARTNAME:;
#STEPSTYPE:dance-single;
#DESCRIPTION:;
#CHARTSTYLE:;
#DIFFICULTY:Easy;
#METER:6;
#RADARVALUES:0.255963,0.366443,0.323809,0.230264,0.000000,249.000000,204.000000,45.000000,32.000000,0.000000,0.000000,0.000000,0.000000,0.000000,0.255963,0.366443,0.323809,0.230264,0.000000,249.000000,204.000000,45.000000,32.000000,0.000000,0.000000,0.000000,0.000000,0.000000;
#CREDIT:Pilgrimsito;
#NOTES:
0000
0000
0000
0000
,
0000
0000
0000
0000
,
0000
0000
0000
0000
,
0000
0000
0000
0000
,
0000
1000
0000
1000
,
0000
0001
0000
0001
,
0000
0100
0000
0100
,
0000
0010
0000
0010
,
0000
1000
0001
1000
,
0001
0100
0010
0100
,
0010
1000
0001
1000
,
0001
0010
0100
0010
,
0100
2000
0000
0010
,
3010
0020
0000
0100
,
0130
0200
0000
0001
,
0301
0002
0000
0010
,
0013
0020
0100
0100
,
0100
0100
0100
0100
,
0100
0200
0000
0000
,
0000
0330
0000
0000
,
0000
0001
0101
1000
,
1100
0001
0101
1000
,
1100
0001
0011
1000
,
1010
0001
0011
1000
,
1010
0000
1001
1000
,
1100
1000
1010
0010
,
0110
0100
0101
0001
,
1001
2000
0100
0100
,
0100
3200
0000
0300
,
0000
1000
0010
0001
,
0010
1000
0100
0001
,
0100
1000
0010
0001
,
0010
2000
3002
2003
,
3002
0023
0230
0320
,
0230
2300
3002
2003
,
3002
0203
0320
0230
,
0320
0130
0000
0000
,
0000
0000
0000
0000
,
0000
0000
0000
0000
,
0000
0000
0000
0000
,
0000
1000
0000
1000
,
0000
0001
0000
0001
,
0000
0100
0000
0100
,
0000
0010
0000
0010
,
0000
1000
0001
1000
,
0001
0100
0010
0100
,
0010
1000
0001
1000
,
0001
1001
0000
0000
,
0000
0100
1001
0100
,
1001
0010
1001
0010
,
1001
1000
1100
1000
,
1010
1000
1100
1000
,
1010
0010
1001
0010
,
1001
0100
1001
0100
,
1001
0001
0101
0001
,
0011
0001
0101
0001
,
0011
0002
0000
0000
,
0000
2003
0000
0000
,
0000
3020
0000
0000
,
0000
0230
0000
0000
,
0000
0302
1000
1000
,
1000
1000
1000
1000
,
1000
2000
0000
0000
,
0000
3003
0000
0000
,
0000
1000
1100
0001
,
0101
1000
1100
0001
,
0101
1000
1010
0001
,
0011
1000
1010
0001
,
0011
0000
1001
0001
,
0101
0001
0011
0010
,
0110
0100
1100
1000
,
1001
0002
0100
0100
,
0100
0203
0000
0300
;

//---------------dance-single - ----------------
#NOTEDATA:;
#CHARTNAME:;
#STEPSTYPE:dance-single;
#DESCRIPTION:;
#CHARTSTYLE:;
#DIFFICULTY:Medium;
#METER:9;
#RADARVALUES:0.368011,0.471141,0.187089,0.280634,0.000000,358.000000,332.000000,26.000000,39.000000,0.000000,0.000000,0.000000,0.000000,0.000000,0.368011,0.471141,0.187089,0.280634,0.000000,358.000000,332.000000,26.000000,39.000000,0.000000,0.000000,0.000000,0.000000,0.000000;
#CREDIT:Pilgrimsito;
#NOTES:
0000
0000
0000
0000
,
0000
0000
0000
0000
,
0000
0000
0000
0000
,
0000
0000
0000
0000
,
0000
0000
1000
0100
,
0010
0002
0100
0103
,
0001
0020
0100
0130
,
0010
0001
0100
0002
,
1000
1003
1001
0100
,
1001
0010
1001
0100
,
1001
0020
0100
0130
,
1001
0002
0203
0320
,
2030
3001
0001
0001
,
0001
0011
0010
0010
,
0010
0110
0100
0100
,
0100
1100
1000
1000
,
1000
0000
1000
0001
1000
0001
1000
0001
,
1000
0001
1000
0001
1000
0001
1000
0001
,
1000
0001
0010
0100
0010
0100
0010
0100
,
0010
0100
0010
0000
0010
0000
0010
0000
,
0010
0000
0010
0000
1001
0000
1000
0100
,
0010
0001
0010
0100
1000
0001
2000
0000
,
3002
0000
0013
0000
1001
0000
0001
0100
,
0010
1000
0010
0100
0001
1000
0002
0000
,
2003
0000
3000
0000
1001
0000
0001
0100
,
0001
0001
0010
0010
0001
0100
0002
0000
,
2003
0000
3100
0000
1001
0000
1000
0010
,
1000
0010
0200
0000
0001
0000
0001
0000
,
0001
0320
0000
0030
,
0000
0000
1000
0100
1000
0000
0001
0010
,
0001
0000
1000
0010
1000
0000
0001
0100
,
0001
0000
0100
0010
0100
0000
0001
1000
,
0001
0000
0010
0000
1001
0000
0001
0010
,
0011
0000
1000
0100
1100
0000
0001
0100
,
0101
0000
1000
0010
1010
0000
0010
0100
,
0110
0000
1000
0001
1001
0000
0100
0010
,
0110
1001
0000
0000
,
0000
0000
0000
0000
,
0000
0000
0000
0000
,
0000
0000
0000
0000
,
0000
0000
1000
0100
,
0010
0001
0010
0100
,
1000
0010
0100
0001
,
0100
0010
1000
0001
,
1000
0001
0001
1000
,
1000
0010
0010
0100
,
0100
0010
0010
1000
,
1000
0001
0001
0001
,
0001
0000
1000
0001
0100
0000
0001
1000
,
0100
0000
1000
0001
0010
0000
0001
1000
,
0010
0000
1000
0100
0010
0000
0001
0010
,
0100
0000
1000
0010
0100
0000
0001
0100
,
0010
0000
1000
0001
0100
0000
0001
1000
,
0100
0000
1000
0001
0010
0000
0001
1000
,
0010
0000
1000
0100
0010
0000
0001
0010
,
0100
0000
1000
0010
0100
0000
0001
0100
,
0010
1001
2000
3002
,
2003
3002
2003
3002
,
2003
3002
2003
3002
,
2003
3002
2003
3002
,
2003
0000
3001
1000
0001
1000
0001
1000
,
0001
1000
0001
1000
0001
1000
0001
1000
,
0001
1000
0100
0010
0100
0010
0100
0010
,
0100
0010
0100
0000
0100
0000
0100
0000
,
0100
0000
0100
0000
1001
0000
0001
0010
,
0100
1000
0100
0010
0001
1000
0002
0000
,
2003
0000
3100
0000
1001
0000
1000
0010
,
0100
0001
0100
0010
1000
0001
2000
0000
,
3002
0000
0003
0000
1001
0000
1000
0010
,
1000
1000
0100
0100
1000
0010
2000
0000
,
3002
0000
0013
0000
1001
0000
0001
0100
,
0001
0100
0020
0000
1000
0000
1000
0000
,
1000
0230
0000
0300
;

//---------------dance-single - ----------------
#NOTEDATA:;
#CHARTNAME:;
#STEPSTYPE:dance-single;
#DESCRIPTION:;
#CHARTSTYLE:;
#DIFFICULTY:Hard;
#METER:11;
#RADARVALUES:0.426605,0.523491,0.201481,0.518094,0.000000,415.000000,387.000000,28.000000,72.000000,104.000000,0.000000,0.000000,0.000000,0.000000,0.426605,0.523491,0.201481,0.518094,0.000000,415.000000,387.000000,28.000000,72.000000,104.000000,0.000000,0.000000,0.000000,0.000000;
#CREDIT:Pilgrimsito;
#NOTES:
// measure 0
0000
0000
0000
0000
,  // measure 1
0000
0000
0000
0000
,  // measure 2
0000
0000
0000
0000
,  // measure 3
0000
0000
0000
0000
,  // measure 4
0000
0000
0000
0000
0001
0100
0010
0100
,  // measure 5
0001
0010
0002
0000
0203
0000
2300
0000
,  // measure 6
3100
0001
2000
0000
3200
0000
0302
0000
,  // measure 7
0103
1000
0020
0000
0230
0000
0302
0000
,  // measure 8
0023
0000
0230
0000
1300
0001
0010
0001
,  // measure 9
0100
0001
0020
0000
2030
0000
3020
0000
,  // measure 10
0031
1000
0020
0000
0032
0000
0023
0000
,  // measure 11
1030
0001
0020
0000
0230
0000
2300
0000
,  // measure 12
3020
0000
0130
0000
0100
0000
0001
0010
,  // measure 13
0100
1000
0010
0000
0010
0000
1000
0100
,  // measure 14
0010
0001
0100
0000
0100
0000
0001
0010
,  // measure 15
0100
1000
0020
0000
2030
0000
3200
0000
,  // measure 16
0320
0000
0031
0001
1000
1000
0010
0010
,  // measure 17
0100
0100
0001
0001
0010
0010
0100
0100
,  // measure 18
1000
1000
0001
0001
0001
0001
0001
0001
,  // measure 19
0001
0001
0010
0000
0010
0000
0010
0000
,  // measure 20
0010
0000
0001
0100
0010
0100
1001
0100
,  // measure 21
1001
0001
1000
0100
0010
0100
2000
0000
,  // measure 22
3002
0000
1003
0100
0010
0001
1000
0100
,  // measure 23
0010
0001
1000
0100
0010
0001
2000
0000
,  // measure 24
3002
0000
0003
0000
1001
MMMM
0110
MMMM
,  // measure 25
1001
MMMM
0110
MMMM
1001
MMMM
0110
MMMM
,  // measure 26
1001
MMMM
0110
MMMM
2002
3003
1001
0110
,  // measure 27
1001
1000
0200
0000
0001
0000
1000
0000
,  // measure 28
0001
2300
0000
3000
,  // measure 29
0000
0000
0001
0001
0100
0010
1000
1000
,  // measure 30
0100
MMMM
0000
1000
0010
1000
0100
1000
,  // measure 31
0001
0010
0010
0001
0100
0100
0010
1000
,  // measure 32
0001
0010
1000
0010
0001
1000
0001
0100
,  // measure 33
1000
0100
0001
0010
1000
0001
0100
1000
,  // measure 34
0001
1000
0001
0100
1000
0001
0010
1000
,  // measure 35
0001
1000
0001
0100
1000
0100
0001
0010
,  // measure 36
1000
0010
0100
M00M
0000
M00M
0000
M00M
,  // measure 37
0000
M00M
0000
M00M
0000
M00M
0000
M00M
,  // measure 38
0000
M00M
0000
M00M
0000
M00M
0000
M00M
,  // measure 39
0000
M00M
0000
M00M
0000
M00M
0000
M00M
,  // measure 40
0000
M00M
0000
0000
1000
0100
0010
0100
,  // measure 41
1000
0010
2000
0000
3200
0000
0302
0000
,  // measure 42
0103
1000
0002
0000
0203
0000
2300
0000
,  // measure 43
3100
0001
0020
0000
0230
0000
2300
0000
,  // measure 44
3020
0000
0230
0000
0301
1000
0010
1000
,  // measure 45
0100
1000
0020
0000
0032
0000
0023
0000
,  // measure 46
1030
0001
0020
0000
2030
0000
3020
0000
,  // measure 47
0031
1000
0100
0000
0100
0000
0100
0000
,  // measure 48
MMMM
0000
0001
1000
0100
1000
0001
1000
,  // measure 49
0010
1000
0001
1000
0100
1000
0001
1000
,  // measure 50
0010
0100
0001
0100
0010
0100
1000
0100
,  // measure 51
0010
0100
0001
0100
0010
0100
1000
0100
,  // measure 52
0010
0100
0001
1000
0010
1000
0001
1000
,  // measure 53
0100
1000
0001
1000
0010
1000
0001
1000
,  // measure 54
0100
0010
0001
0010
0100
0010
1000
0010
,  // measure 55
0100
0010
0001
0010
0100
0010
1000
0010
,  // measure 56
0100
0010
0001
0000
2000
0000
3020
0000
,  // measure 57
0230
0302
2003
3020
,  // measure 58
0230
0302
2003
3020
,  // measure 59
0130
0001
0020
0000
0230
0000
2300
0000
,  // measure 60
3002
0000
1003
1000
0001
0001
0010
0010
,  // measure 61
0100
0100
1000
1000
0010
0010
0100
0100
,  // measure 62
0001
0001
1000
1000
1000
1000
1000
1000
,  // measure 63
1000
1000
0010
0000
0010
0000
0010
0000
,  // measure 64
0010
0000
1000
0100
0010
0100
1001
0100
,  // measure 65
1001
0001
1000
0100
0010
0100
2000
0000
,  // measure 66
3002
0000
1003
0100
0010
0001
1000
0100
,  // measure 67
0010
0001
1000
0100
0010
0001
2000
0000
,  // measure 68
3002
0000
0003
0000
1001
MMMM
0110
MMMM
,  // measure 69
1001
MMMM
0110
MMMM
1001
MMMM
0110
MMMM
,  // measure 70
1001
MMMM
0110
MMMM
2002
3003
1001
0110
,  // measure 71
1001
1000
0200
0000
0001
0000
1000
0000
,  // measure 72
0001
2300
0000
3000
;
