#TITLE:Rändajad;
#SUBTITLE:;
#ARTIST:Urban Symphony;
#TITLETRANSLIT:Randajad;
#SUBTITLETRANSLIT:;
#ARTISTTRANSLIT:;
#GENRE:TRAVELER FOLK POP;
#CREDIT:;
#BANNER:Randajad.png;
#BACKGROUND:Randajad-bg.png;
#LYRICSPATH:;
#CDTITLE:cdtitle.png;
#MUSIC:Randajad.ogg;
#OFFSET:-0.198000;
#SAMPLESTART:34.512001;
#SAMPLELENGTH:15.000000;
#SELECTABLE:YES;
#BPMS:0.000000=124.000000
,136.000000=62.000000
,152.000000=124.000000
;
#STOPS:
;
#BGCHANGES:;
#KEYSOUNDS:;
#ATTACKS:;

//---------------dance-single - Daff_4K----------------
#NOTES:
     dance-single:
     Daff_4K:
     Beginner:
     1:
     0.065273,0.116101,0.044942,0.000000,0.000000,61.000000,55.000000,6.000000,0.000000,0.000000,0.000000,0.065273,0.116101,0.044942,0.000000,0.000000,61.000000,55.000000,6.000000,0.000000,0.000000,0.000000:
0000
0000
0000
0000
,
0000
0000
0000
0000
,
0000
0000
0000
0000
,
0000
0000
0000
0000
,
0000
0000
0000
0000
,
0000
0000
0000
0000
,
0010
0000
0000
0000
,
0100
0000
0000
0000
,
0010
0000
0000
0000
,
0000
0000
0000
0000
,
1000
0000
0000
0000
,
0100
0000
0000
0000
,
1000
0000
0000
0000
,
0000
0000
0000
0000
,
0001
0000
0000
0000
,
0100
0000
0000
0000
,
0001
0000
0000
0000
,
0000
0000
0000
0000
,
1001
0000
0000
0000
,
1000
0000
0000
0000
,
0100
0000
0000
0000
,
1000
0000
0000
0000
,
1001
0000
0000
0000
,
0001
0000
0000
0000
,
0100
0000
0000
0000
,
0001
0000
0000
0000
,
0010
0000
0010
0000
,
0010
0000
0000
0000
,
0100
0000
0100
0000
,
0100
0000
0000
0000
,
1000
0000
0001
0000
,
1000
0000
0000
0000
,
0001
0000
1000
0000
,
0001
0000
0000
0000
,
1001
0000
0000
0000
,
0000
0000
0000
0000
,
1000
0000
0000
0000
,
0001
0000
0000
0000
,
0010
0000
0000
0000
,
0010
0000
0000
0000
,
0100
0000
0000
0000
,
0100
0000
0000
0000
,
1000
0000
0000
0000
,
1000
0000
0000
0000
,
0001
0000
0000
0000
,
0001
0000
0000
0000
,
0100
0000
0000
0000
,
0010
0000
0000
0000
,
1000
0000
0000
0000
,
0000
0000
0000
0000
,
0100
0000
0000
0000
,
0010
0000
0000
0000
,
0001
0000
0000
0000
,
0000
0000
0000
0000
,
1001
0000
0000
0000
,
1000
0000
0000
0000
,
0010
0000
0000
0000
,
1000
0000
0000
0000
,
1001
0000
0000
0000
,
0001
0000
0000
0000
,
0010
0000
0000
0000
,
0001
0000
0000
0000
,
1001
0000
0000
0000
;

//---------------dance-single - Daff_4K----------------
#NOTES:
     dance-single:
     Daff_4K:
     Easy:
     4:
     0.158368,0.208981,0.044942,0.127336,0.000000,148.000000,142.000000,6.000000,17.000000,0.000000,0.000000,0.158368,0.208981,0.044942,0.127336,0.000000,148.000000,142.000000,6.000000,17.000000,0.000000,0.000000:
0000
0000
0000
0000
,
0000
0000
0000
0000
,
0000
0000
0000
0000
,
0000
0000
0000
0000
,
0000
0000
0000
0000
,
0000
0000
0000
0000
,
0200
0000
0300
0000
,
0020
0000
0030
0000
,
1000
0000
0001
0000
,
1000
0000
0000
0000
,
0002
0000
0003
0000
,
2000
0000
3000
0000
,
0100
0010
0100
0000
,
0010
0000
0001
0000
,
2000
0000
3000
0000
,
0002
0000
0003
0000
,
0100
0010
0100
0000
,
0020
0000
0000
0030
,
1001
0000
1000
0100
,
0010
0100
1000
0000
,
0020
0030
0100
0001
,
1000
0100
0010
0000
,
1001
0000
0001
0100
,
0010
0100
0001
0000
,
0020
0030
0100
1000
,
0001
0100
0010
0000
,
1000
0100
1000
0100
,
0010
0001
1000
0000
,
0001
0100
0001
0100
,
0010
1000
0001
0000
,
0010
0100
0010
0100
,
1000
0001
1000
0000
,
0010
0100
0001
1000
,
0100
0010
0001
0000
,
1001
0000
0000
0000
,
0000
0000
0000
0000
,
2000
3000
0002
0003
,
0200
0300
0020
0030
,
2000
0000
0100
0000
,
0100
0000
3100
0000
,
1000
0000
0001
1000
,
0010
0000
0010
0100
,
0002
0000
0100
0000
,
0100
0000
0103
0000
,
0001
0000
1000
0001
,
0010
0000
0010
0100
,
1000
0000
0010
0100
,
0001
0000
0010
0100
,
1000
0000
0001
0000
,
0100
0010
0100
0000
,
0001
0010
0001
0000
,
1000
0010
1000
0000
,
0100
0000
0010
0000
,
0001
1000
0001
0000
,
1001
0000
1000
0010
,
0001
0010
1000
0000
,
0200
0300
0010
0001
,
1000
0001
0100
0000
,
1001
0000
0001
0010
,
1000
0010
0001
0000
,
0200
0300
0010
1000
,
0001
1000
0100
0000
,
1001
0000
0000
0000
;

//---------------dance-single - Daff_4K----------------
#NOTES:
     dance-single:
     Daff_4K:
     Medium:
     7:
     0.270723,0.325081,0.089884,0.307105,0.014981,253.000000,241.000000,12.000000,41.000000,0.000000,0.000000,0.270723,0.325081,0.089884,0.307105,0.014981,253.000000,241.000000,12.000000,41.000000,0.000000,0.000000:
0000
0000
0000
0000
,
0000
0000
0000
0000
,
0000
0000
0000
0000
,
0000
0000
0000
0000
,
0000
0000
0000
0000
,
0000
0000
0000
0000
,
2000
0000
0000
3010
0000
0000
0000
0000
,
0200
0000
0000
0301
0000
0000
0000
0000
,
1000
0000
0000
0001
1000
0000
0000
0000
,
0100
0000
0000
0010
0000
0100
0010
0000
,
0002
0000
0000
0103
0000
0001
0100
0000
,
0020
0000
0000
1030
0000
0010
1000
0000
,
0001
0000
0010
0100
0010
0000
0001
0000
,
2000
0000
0000
3001
0000
0100
0010
0000
,
2000
0000
0000
3100
0000
1000
0100
0000
,
0020
0000
0000
0031
0000
0010
0001
0000
,
1000
0000
0010
0100
0010
0000
1000
0000
,
0002
0000
0000
1000
2000
0000
3003
0000
,
2001
0000
3100
0010
0100
0000
1000
0000
,
0001
0000
0100
0010
0000
0010
1000
0000
,
1002
0000
0013
0100
0010
0000
0001
0000
,
1000
0000
0010
0100
0000
0001
1000
0000
,
1002
0000
0103
0010
0100
0000
0001
0000
,
1000
0000
0100
0010
0000
0010
0001
0000
,
2001
0000
3010
0100
0010
0000
1000
0000
,
0001
0000
0010
0100
0000
1000
0001
0000
,
1000
0010
0001
0010
,
1000
0000
0001
1000
0000
1000
0100
0000
,
0001
0100
1000
0010
,
0001
0000
0010
0100
0000
0010
1000
0000
,
0001
0010
1000
0010
,
0001
0000
1000
0001
0000
0001
0100
0000
,
1000
0100
0001
0010
,
1000
0000
0010
0100
0000
0010
0001
0000
,
2002
0000
0000
0003
,
0200
0000
0000
3300
,
1000
0000
0010
0100
0000
0000
0000
0000
0001
0000
0010
0100
0000
0000
0000
0000
,
0010
0000
0001
1000
0000
0000
0000
0000
0010
0000
1000
0001
0000
0000
0000
0000
,
2001
0100
0010
0100
,
3002
0103
0020
1030
,
0200
0310
0002
1003
,
0200
0010
0001
0310
,
1002
0100
0010
0100
,
2003
3100
0020
0031
,
0200
0310
2000
3001
,
0020
0130
2000
3001
,
0200
0000
0000
0310
0000
1000
0010
0000
,
2000
0000
0000
3001
0000
1000
0001
1000
,
0200
0000
0000
0310
0000
0001
0010
0000
,
0002
0000
0000
1003
0000
0001
1000
0000
,
0020
0000
0000
0130
0000
0001
1000
0000
,
0200
0000
0000
0310
0000
0001
1000
0001
,
0020
0000
0000
0130
0000
1000
0001
0000
,
0200
0000
0000
0310
0000
1000
0001
0000
,
2001
0000
3100
0010
0100
0000
0001
0000
,
0100
0000
1000
0001
0000
0001
0100
0000
,
0120
0000
1030
0001
1000
0000
0100
0000
,
0010
0000
0001
0100
0000
0010
1000
0000
,
1002
0000
0103
0010
0100
0000
1000
0000
,
0100
0000
0001
1000
0000
1000
0100
0000
,
0120
0000
0031
1000
0001
0000
0100
0000
,
0010
0000
1000
0100
0000
0010
0001
0000
,
1001
0000
0000
0000
;

//---------------dance-single - Daff_4K----------------
#NOTES:
     dance-single:
     Daff_4K:
     Hard:
     11:
     0.384148,0.580503,0.119846,0.516835,0.146062,359.000000,343.000000,16.000000,69.000000,0.000000,0.000000,0.384148,0.580503,0.119846,0.516835,0.146062,359.000000,343.000000,16.000000,69.000000,0.000000,0.000000:
// measure 0
0000
0000
0000
0000
,  // measure 1
0000
0000
0000
0000
,  // measure 2
0000
0000
0000
0000
,  // measure 3
0000
0000
0000
0000
,  // measure 4
0000
0000
0000
0000
,  // measure 5
0000
0000
0000
0000
,  // measure 6
0002
0000
0000
0100
0000
0000
0103
0000
,  // measure 7
0020
0000
0000
1000
0000
0000
1030
0000
,  // measure 8
0001
0000
0010
0100
0010
0000
0001
0000
,  // measure 9
2000
0000
3001
0100
0000
0100
0010
1000
,  // measure 10
0002
0000
0000
0010
0000
0000
0013
0000
0000
0000
0100
0000
1000
0000
0001
0000
,  // measure 11
0200
0000
0000
0010
0000
0000
0310
0000
0000
0000
1000
0000
0001
0000
0000
0000
,  // measure 12
1000
0100
0001
0100
1000
0000
0001
1000
,  // measure 13
0020
0000
0000
0100
0000
0000
0130
0000
0000
0000
0001
0000
0010
0000
0100
0000
,  // measure 14
2000
0000
0000
0010
0000
0000
3010
0000
0000
0000
0100
0000
0001
0000
1000
0000
,  // measure 15
0200
0000
0000
0010
0000
0000
0310
0000
0000
0000
0001
0000
1000
0000
0000
0000
,  // measure 16
0001
0100
1000
0100
0001
0000
1000
0100
,  // measure 17
0010
0000
0000
0001
0000
0000
1000
0000
0020
0000
0000
0000
0130
0000
0000
0000
,  // measure 18
1002
0000
0000
0000
0013
0000
0100
1000
0200
0000
0000
0000
1300
0000
0001
0000
,  // measure 19
0100
1000
0100
0020
0000
1030
0001
0000
,  // measure 20
1200
0000
0000
0000
0310
0000
0001
1000
0002
0000
0000
0000
0103
0000
0010
0000
,  // measure 21
1000
0001
0010
0200
0000
1300
0001
0000
,  // measure 22
2001
0000
0000
0000
3010
0000
0100
0001
0200
0000
0000
0000
0301
0000
1000
0000
,  // measure 23
0100
0001
0100
0020
0000
0031
1000
0000
,  // measure 24
0201
0000
0000
0000
0310
0000
1000
0001
2000
0000
0000
0000
3100
0000
0010
0000
,  // measure 25
0001
0000
0000
1000
0001
0000
0200
0000
0000
0000
0310
0000
1000
0000
0000
0000
,  // measure 26
1001
0000
0000
0001
0010
0000
0000
0010
0001
0000
0000
0001
1000
0000
0000
1000
,  // measure 27
0010
0100
0001
0020
0000
0100
0130
0000
,  // measure 28
1000
0010
0001
0010
1000
0100
0001
0100
,  // measure 29
1000
0010
0100
0002
0000
1000
1003
0000
,  // measure 30
1001
0000
0000
1000
0010
0000
0000
0010
1000
0000
0000
1000
0001
0000
0000
0001
,  // measure 31
0010
0100
1000
0020
0000
0100
0130
0000
,  // measure 32
0001
0010
1000
0010
0001
0100
1000
0100
,  // measure 33
0001
0010
0100
2000
0000
0001
3001
0000
,  // measure 34
2002
0000
0000
3000
,  // measure 35
0200
0000
0000
0303
,  // measure 36
0001
0010
0100
2000
0000
3001
0000
0001
1000
0010
0100
0002
0000
1003
0000
1000
,  // measure 37
0100
0010
0001
2000
0000
3010
0000
0010
0100
0010
1000
0002
0000
1003
0000
0000
,  // measure 38
2001
0000
0100
0000
0001
0000
3010
0200
,  // measure 39
0001
0000
0310
2000
0001
0000
0100
0000
,  // measure 40
3020
0000
0130
0002
1000
0000
0023
0000
,  // measure 41
1000
0100
0032
1003
,  // measure 42
1002
0000
0100
0000
1000
0000
0013
0200
,  // measure 43
1000
0000
0310
0002
1000
0000
0100
0000
,  // measure 44
0023
0000
0130
2000
0001
0000
3020
0000
,  // measure 45
0130
0002
1000
0000
0023
0000
0130
0000
,  // measure 46
2001
0000
3010
0200
0000
0310
0001
0010
,  // measure 47
2000
0000
3001
0020
0000
0130
1000
0000
,  // measure 48
1002
0000
0013
0200
0000
0310
1000
0010
,  // measure 49
0002
0000
1003
0020
0000
0130
0001
1000
,  // measure 50
0001
0010
0100
2000
0000
0001
3001
0000
,  // measure 51
1000
0010
0100
0002
0000
1000
1003
0001
,  // measure 52
0010
0100
1000
0020
0000
0100
0130
0001
,  // measure 53
1000
0001
0010
0100
2000
0000
3001
0000
,  // measure 54
1002
0000
0000
0000
0103
0000
0010
1000
0002
0000
0000
0000
1003
0000
0100
0000
,  // measure 55
0001
0100
1000
0020
0000
0130
0001
1000
,  // measure 56
1200
0000
0000
0000
0310
0000
0001
1000
0020
0000
0000
0000
0130
0000
0001
0000
,  // measure 57
0010
1000
0001
0100
1000
0010
0100
0000
,  // measure 58
2001
0000
0000
0000
3100
0000
0010
0001
2000
0000
0000
0000
3001
0000
0100
0000
,  // measure 59
1000
0100
0001
0020
0000
0130
1000
0001
,  // measure 60
0201
0000
0000
0000
0310
0000
1000
0001
0020
0000
0000
0000
0130
0000
1000
0000
,  // measure 61
0001
0000
0100
0010
0100
0000
0010
0000
1000
0000
0001
0000
0010
0000
0000
0000
,  // measure 62
1001
0000
0000
0000
;
