#VERSION:0.83;
#TITLE:ライメイ;
#SUBTITLE:;
#ARTIST:常闇トワ;
#TITLETRANSLIT:Raimei;
#SUBTITLETRANSLIT:;
#ARTISTTRANSLIT:Tokoyami Towa;
#GENRE:;
#ORIGIN:;
#TAGS:;
#CREDIT:;
#BANNER:Raimei.png;
#BACKGROUND:Raimei-bg.png;
#PREVIEWVID:;
#JACKET:Raimei-jacket.png;
#CDIMAGE:;
#DISCIMAGE:;
#LYRICSPATH:;
#CDTITLE:cdtitle.png;
#MUSIC:Raimei.ogg;
#OFFSET:0.000000;
#SAMPLESTART:86.271004;
#SAMPLELENGTH:12.712000;
#SELECTABLE:YES;
#BPMS:0.000000=177.000000;
#STOPS:;
#DELAYS:;
#WARPS:;
#TIMESIGNATURES:0.000000=4=4;
#TICKCOUNTS:0.000000=4;
#COMBOS:0.000000=1;
#SPEEDS:0.000000=1.000000=0.000000=0;
#SCROLLS:0.000000=1.000000;
#FAKES:;
#LABELS:0.000000=Song Start;
#BGCHANGES:;
#KEYSOUNDS:;
#ATTACKS:
;

//---------------dance-single - MEGAtive----------------
#NOTEDATA:;
#CHARTNAME:;
#CHARTHASH:4235449588:
#STEPSTYPE:dance-single;
#BANNER:;
#DESCRIPTION:MEGAtive;
#CHARTSTYLE:;
#DIFFICULTY:Hard;
#METER:15;
#METERF:0.000000;
#RADARVALUES:0.756738,0.821359,0.297594,0.518663,0.323102,623.000000,588.000000,35.000000,61.000000,9.000000,0.000000,0.000000,0.000000,0.000000,0.756738,0.821359,0.297594,0.518663,0.323102,623.000000,588.000000,35.000000,61.000000,9.000000,0.000000,0.000000,0.000000,0.000000;
#CREDIT:;
#NOTES:
// measure 0
0000
0000
0000
0000
,  // measure 1
0000
0000
0000
0000
,  // measure 2
0000
0000
0000
0000
,  // measure 3
0000
0000
0000
0000
,  // measure 4
0000
0000
0000
0000
,  // measure 5
1000
0000
0100
0010
0000
0100
1000
0001
,  // measure 6
0100
0000
0010
0100
0000
0010
1000
0001
,  // measure 7
0010
0000
0000
0000
0100
0000
0010
0000
0001
0000
1000
0000
0010
0100
0010
0000
,  // measure 8
1000
0001
1000
0000
0001
0010
0001
0000
1000
0000
0200
0000
0000
0000
0300
0000
,  // measure 9
1002
0000
0103
0100
0010
1000
0100
0010
,  // measure 10
0200
0000
1300
1000
0100
0010
0001
0100
,  // measure 11
0020
0000
0130
0100
0001
1000
0001
0010
,  // measure 12
0200
0000
0000
0000
0310
0000
0010
0000
0100
0000
1000
0001
1000
0000
0000
0000
,  // measure 13
1002
0000
0013
1000
0010
0001
1000
0000
,  // measure 14
0001
0000
0100
0000
1000
0000
0100
0000
0010
0000
1000
0001
1000
0000
0000
0000
,  // measure 15
1200
0000
0000
0000
0310
0001
0010
0000
0100
0000
0001
0000
0100
0000
0000
0000
,  // measure 16
1000
0100
1000
0000
0001
0000
1000
0000
0010
0100
0001
0000
1000
0000
1000
0000
,  // measure 17
0002
0000
0010
0010
0000
0013
0000
0100
,  // measure 18
1000
0001
1000
0100
1000
0001
0100
0010
,  // measure 19
2000
0000
0010
0010
0000
3010
0000
0100
,  // measure 20
0001
0000
1000
0000
0001
0000
0100
0000
0010
0000
1000
0001
1000
0000
0100
0000
,  // measure 21
1100
0000
1000
0001
0010
1000
0010
0000
,  // measure 22
0110
0000
0100
1000
0000
0010
0100
0010
,  // measure 23
2000
0000
0010
0010
0000
3001
0000
0010
,  // measure 24
0100
0010
0001
1000
0010
0100
0010
0100
,  // measure 25
0002
0000
0010
0010
0000
1003
0000
0010
,  // measure 26
0100
0000
0010
0000
1000
0000
0001
0000
0010
0000
0100
1000
0100
0000
0010
0000
,  // measure 27
0011
0000
1000
0001
0100
1000
0100
0000
,  // measure 28
0110
0000
0000
0000
0010
0000
1000
0000
0100
0000
0010
0000
0001
0010
0001
0000
,  // measure 29
1000
0000
0201
0000
0000
0000
0310
0000
0100
0001
0010
0000
0100
0000
0000
0000
,  // measure 30
0021
0000
0000
0000
0130
0000
1000
0000
0001
0100
0010
0000
0002
0000
0000
0000
,  // measure 31
0013
0000
1002
0000
0000
0000
0103
0000
0010
1000
0010
0000
0100
0000
0001
0000
,  // measure 32
0010
0100
0010
0001
1000
0100
0002
0000
,  // measure 33
0103
0000
0210
0000
0000
0000
1300
0000
0100
1000
0010
0000
0100
0000
0000
0000
,  // measure 34
1020
0000
0000
0000
0130
0000
0001
0000
1000
0100
1000
0000
0001
0000
0010
0000
,  // measure 35
0100
0000
1000
0000
0001
1000
0010
0100
0010
0000
0100
0010
1000
0000
0001
0000
,  // measure 36
0101
0000
1000
2200
0000
3300
0000
0000
,  // measure 37
1020
0000
0130
0001
0010
0100
0001
1000
,  // measure 38
0020
0000
0031
0001
0000
1000
0100
0010
,  // measure 39
0021
0000
0130
1000
0010
0001
1000
0100
,  // measure 40
0020
0000
0130
1000
0100
0001
0001
1000
,  // measure 41
1200
0000
0310
0001
1000
0010
0001
1000
,  // measure 42
0200
0000
0310
1000
0001
1000
0200
0010
,  // measure 43
1300
0001
0200
0010
0301
1000
0200
0010
,  // measure 44
1300
0000
0001
0000
0100
0010
0100
0010
1000
0000
0001
0010
0100
0000
0010
0000
,  // measure 45
1200
0000
0310
0001
0100
0010
0001
1000
,  // measure 46
0200
0000
0000
0000
0310
0000
0010
0000
0000
0100
0001
0000
0001
0000
0010
0000
,  // measure 47
1200
0000
1300
0001
0010
1000
0001
0100
,  // measure 48
0020
0000
0000
0000
0031
0000
1000
0000
0001
0000
0100
0010
1000
0000
0001
0010
,  // measure 49
0200
0000
0000
0000
0310
0000
0001
0000
0010
0000
0100
1000
0000
1000
0001
0000
,  // measure 50
2010
0000
0000
0000
0000
0000
0000
3000
,  // measure 51
0102
0000
0000
0000
0013
0M00
0010
0000
1000
0000
0001
0000
0100
0000
0010
0000
,  // measure 52
0001
0000
0010
0000
0100
00M0
0100
0000
1000
0000
0001
0000
0010
0000
0100
0000
,  // measure 53
0001
0000
0100
0000
0010
0M00
0010
0000
1000
0000
0001
0000
0100
0000
0010
0000
,  // measure 54
0001
0000
0010
0000
0100
00M0
0100
0000
1000
0000
0001
0000
0010
0000
0100
0000
,  // measure 55
2100
0000
3010
0001
0010
0100
0001
0010
,  // measure 56
0200
0310
2000
3010
0002
0103
0010
1000
,  // measure 57
0001
1000
0100
0000
0010
0100
1000
0000
0001
1000
0010
0000
0100
0001
1000
0100
,  // measure 58
2000
0000
0000
0000
3010
0000
0010
0000
0100
0001
1000
0000
0100
0000
0010
0000
,  // measure 59
2000
0000
0000
0000
3010
0000
0010
0100
2000
0000
0000
0000
3001
0000
0001
0000
,  // measure 60
0100
0010
0100
0000
0001
0000
1000
0000
1010
0000
0000
0010
0100
0000
0001
0010
,  // measure 61
0200
0000
0000
0000
1300
0000
1000
0000
0001
0010
0001
0000
1000
0000
0100
0000
,  // measure 62
0001
0000
0100
0010
0000
0010
0100
1000
0002
0000
0000
0000
0103
0000
0100
0000
,  // measure 63
0001
0010
0100
0000
0100
0000
0010
0001
0200
0000
0300
0000
0000
0000
0000
0000
,  // measure 64
1002
0000
0013
0010
0100
1000
0010
0001
,  // measure 65
0020
0000
0130
0200
0000
1300
0100
0001
,  // measure 66
0012
0000
1003
1000
0001
0010
0100
0001
,  // measure 67
0200
0000
0310
0001
0010
1000
0010
0100
,  // measure 68
2100
0000
3001
0001
0100
0010
0100
1000
,  // measure 69
0200
0000
0000
0000
0001
0000
0000
0000
0310
0000
1000
0000
0100
0000
0010
0M00
,  // measure 70
0010
0000
1000
0000
0001
0000
0100
00M0
0100
0000
1000
0000
0001
0000
0010
0M00
,  // measure 71
0010
0000
0000
0100
0001
0000
1000
0100
0010
0000
0100
1000
0001
1000
0010
0100
,  // measure 72
0001
0000
0001
0100
1000
0100
0010
1000
,  // measure 73
0002
0000
0000
0000
0013
0100
0010
0000
0001
0000
0010
0000
1000
0000
0010
0000
,  // measure 74
0200
0000
0000
0000
1300
0001
1000
0000
0010
0000
0100
0000
1000
0000
0100
0000
,  // measure 75
0020
0000
0000
0130
0001
0000
0010
0100
1000
0000
0001
0000
0010
0100
0010
0001
,  // measure 76
2000
0000
0000
0000
3001
0000
0001
1000
0010
0000
0100
0000
0110
0000
0000
0000
,  // measure 77
1020
0000
0000
0000
0130
0000
0001
0010
0001
0010
0100
0000
0110
0000
0000
0000
,  // measure 78
1002
0000
0000
0000
1003
0100
1000
0000
0001
0100
0001
0000
1000
0100
1000
0001
,  // measure 79
0020
0000
0000
0030
0000
0000
0000
0001
,  // measure 80
2001
0000
0000
0000
3010
0M00
0010
0000
0001
0000
1000
0000
0100
0000
0001
0000
,  // measure 81
0100
0000
1000
0000
0100
M000
0100
0000
0001
0000
1000
0000
0010
0000
0001
0000
,  // measure 82
0010
0000
0000
0100
0010
0000
1010
0000
0000
1000
0100
0000
0000
0010
0100
0000
,  // measure 83
1001
0000
0000
1000
0010
0000
0100
0010
0100
0001
1000
0000
1001
0000
0010
0000
,  // measure 84
1001
0000
0000
0000
;
