#VERSION:0.83;
#TITLE:Radio Silence;
#SUBTITLE:;
#ARTIST:LutariFan;
#TITLETRANSLIT:;
#SUBTITLETRANSLIT:;
#ARTISTTRANSLIT:;
#GENRE:;
#CREDIT:;
#MUSIC:Radio Silence.ogg;
#BANNER:SC2023-bn.png;
#BACKGROUND:SC2023-bg.png;
#CDTITLE:;
#SAMPLESTART:21.338;
#SAMPLELENGTH:21.333;
#SELECTABLE:YES;
#OFFSET:0.004;
#BPMS:0.000=90.000;
#STOPS:;
#SPEEDS:0.000=0.700=0.000=0,
31.000=1.000=1.000=0,
64.000=0.850=0.000=0,
64.250=0.700=0.000=0,
71.000=100.000=0.000=0,
71.125=0.700=0.000=0,
71.250=100.000=0.000=0,
71.375=0.700=0.000=0,
72.000=0.000=0.000=0,
72.063=0.700=0.000=0,
72.125=0.000=0.000=0,
72.188=0.700=0.000=0,
72.250=0.000=0.000=0,
72.313=0.700=0.000=0,
72.375=0.000=0.000=0,
72.438=0.700=0.000=0,
72.500=0.000=0.000=0,
72.563=0.700=0.000=0,
72.625=0.000=0.000=0,
72.688=0.700=0.000=0,
73.000=1.000=0.500=0,
77.500=0.700=2.000=0,
79.500=0.700=0.000=0,
84.500=100.000=0.000=0,
84.563=0.700=0.000=0,
84.625=100.000=0.000=0,
84.688=0.700=0.000=0,
84.750=100.000=0.000=0,
84.813=0.700=0.000=0,
84.875=100.000=0.000=0,
84.938=0.700=0.000=0,
85.000=100.000=0.000=0,
85.063=0.700=0.000=0,
85.125=100.000=0.000=0,
85.188=0.700=0.000=0,
85.250=100.000=0.000=0,
85.313=0.700=0.000=0,
85.375=100.000=0.000=0,
85.438=0.700=0.000=0,
85.500=100.000=0.000=0,
85.563=0.700=0.000=0,
85.625=100.000=0.000=0,
85.688=0.700=0.000=0,
85.750=100.000=0.000=0,
85.813=0.700=0.000=0,
85.875=100.000=0.000=0,
85.938=0.700=0.000=0,
89.500=0.540=1.125=0,
90.625=0.680=0.500=0,
91.125=0.340=0.875=0,
92.000=0.480=0.500=0,
92.500=0.240=1.000=0,
93.500=0.700=1.500=0,
95.000=1.000=0.000=0,
95.063=0.700=0.000=0,
95.125=1.000=0.000=0,
95.188=0.700=0.000=0,
95.250=1.000=0.000=0,
95.313=0.700=0.000=0,
95.375=1.000=0.000=0,
95.438=0.700=0.000=0,
95.500=1.000=0.000=0,
95.563=0.700=0.000=0,
95.625=1.000=0.000=0,
95.688=0.700=0.000=0,
95.750=1.000=0.000=0,
95.813=0.700=0.000=0,
95.875=1.000=0.000=0,
95.938=0.700=0.000=0,
110.000=1.000=1.000=0,
143.000=1.050=0.000=0,
143.063=1.000=0.000=0,
143.125=1.050=0.000=0,
143.188=1.000=0.000=0,
143.250=1.050=0.000=0,
143.313=1.000=0.000=0,
143.375=1.050=0.000=0,
143.438=1.000=0.000=0,
143.500=1.050=0.000=0,
143.563=1.000=0.000=0,
143.625=1.050=0.000=0,
143.688=1.000=0.000=0,
143.750=1.050=0.000=0,
143.813=1.000=0.000=0,
143.875=1.050=0.000=0,
143.938=1.000=0.000=0,
151.000=1.050=0.000=0,
151.063=1.000=0.000=0,
151.125=1.050=0.000=0,
151.188=1.000=0.000=0,
151.250=1.050=0.000=0,
151.313=1.000=0.000=0,
151.375=1.050=0.000=0,
151.438=1.000=0.000=0,
151.500=1.050=0.000=0,
151.563=1.000=0.000=0,
151.625=1.050=0.000=0,
151.688=1.000=0.000=0,
151.750=1.050=0.000=0,
151.813=1.000=0.000=0,
151.875=1.050=0.000=0,
151.938=1.000=0.000=0,
159.000=1.050=0.000=0,
159.063=1.000=0.000=0,
159.125=1.050=0.000=0,
159.188=1.000=0.000=0,
159.250=1.050=0.000=0,
159.313=1.000=0.000=0,
159.375=1.050=0.000=0,
159.438=1.000=0.000=0,
159.500=1.050=0.000=0,
159.563=1.000=0.000=0,
159.625=1.050=0.000=0,
159.688=1.000=0.000=0,
159.750=1.050=0.000=0,
159.813=1.000=0.000=0,
159.875=1.050=0.000=0,
159.938=1.000=0.000=0,
167.000=1.050=0.000=0,
167.063=1.000=0.000=0,
167.125=1.050=0.000=0,
167.188=1.000=0.000=0,
167.250=1.050=0.000=0,
167.313=1.000=0.000=0,
167.375=1.050=0.000=0,
167.438=1.000=0.000=0,
167.500=1.050=0.000=0,
167.563=1.000=0.000=0,
167.625=1.050=0.000=0,
167.688=1.000=0.000=0,
167.750=1.050=0.000=0,
167.813=1.000=0.000=0,
167.875=1.050=0.000=0,
167.938=1.000=0.000=0,
174.000=0.000=0.000=0,
174.063=100.000=0.000=0,
174.125=0.000=0.000=0,
174.188=100.000=0.000=0,
174.250=0.000=0.000=0,
174.313=100.000=0.000=0,
174.375=0.000=0.000=0,
174.438=100.000=0.000=0,
174.500=0.000=0.000=0,
174.563=100.000=0.000=0,
174.625=0.000=0.000=0,
174.688=100.000=0.000=0,
174.750=0.000=0.000=0,
174.813=100.000=0.000=0,
174.875=0.000=0.000=0,
174.938=100.000=0.000=0,
175.000=0.000=0.000=0,
175.063=100.000=0.000=0,
175.125=0.000=0.000=0,
175.188=100.000=0.000=0,
175.250=0.000=0.000=0,
175.313=100.000=0.000=0,
175.375=0.000=0.000=0,
175.438=100.000=0.000=0,
175.500=0.000=0.000=0,
175.563=100.000=0.000=0,
175.625=0.000=0.000=0,
175.688=100.000=0.000=0,
175.750=0.000=0.000=0,
175.813=100.000=0.000=0,
175.875=0.000=0.000=0,
175.938=100.000=0.000=0
;
#SCROLLS:0.000=1.000;
#LABELS:88.625=24 slowing 20 rising;
#BGCHANGES:;
#FGCHANGES:;

//--------------- dance-single - D0omsday ----------------
#NOTEDATA:;
#STEPSTYPE:dance-single;
#DESCRIPTION:D0omsday;
#DIFFICULTY:Hard;
#METER:13;
#RADARVALUES:0,0,0,0,0;
#NOTES:
0000
0000
0000
0000
,
0000
0000
0000
0000
,
0000
0000
0000
0000
,
0000
0000
0000
0000
,
2100
0000
0000
0000
3000
0000
0002
0000
0000
0000
0000
0000
0003
0000
0100
0010
,
0001
0000
0010
0000
1000
0000
0002
0000
0000
0000
0003
0000
0000
0000
1000
0100
,
0010
0000
0000
0000
0000
0000
0200
0000
0000
0000
0000
0000
0300
0000
0000
0000
0000
0000
2000
0002
0000
0000
0000
0000
0000
0000
0000
0000
0000
0000
0000
0000
0000
0000
0000
0000
3003
0000
0000
0000
0000
0000
0100
0000
0000
0010
0000
0000
,
1000
0000
0100
0000
0010
0000
0020
0000
0000
0000
0030
0000
0001
0000
1000
0010
,
0110
0000
0100
0001
1000
0000
1100
0000
0100
0000
0010
0000
0011
0000
0001
1000
,
1010
0000
1100
0000
0100
0000
0110
0000
0010
0000
0001
1000
0010
1000
0001
0010
,
0110
0000
0000
0000
0000
0000
0100
0000
0000
1000
0000
0000
1001
0000
0000
0000
0000
0000
0001
0100
0000
0000
0000
0000
0010
0000
0000
0100
0000
0000
0001
0000
0000
0000
0000
0000
0010
0000
0000
0000
0000
0000
0100
0000
0000
1000
0000
0000
,
1001
0000
0101
0000
0100
0000
0110
0000
0010
1000
0001
0010
0100
0010
0001
1000
,
1010
0000
0010
1000
0001
0000
0011
0000
0010
0000
0001
0000
1001
0000
1000
0010
,
0110
0000
0101
0000
0001
0000
1001
0000
1000
0100
0010
0100
1000
0010
0100
0001
,
0011
0000
0000
0000
0000
0000
0010
0000
0000
0100
0000
0000
0110
0000
0000
0000
0000
0000
1000
0001
0000
0000
0000
0000
1000
0000
0000
0010
0000
0000
0100
0000
0000
0000
0000
0000
0001
0000
0000
0000
0000
0000
1000
0000
0000
0001
0000
0000
,
0011
0000
1010
0000
0010
0000
0110
0000
0100
0001
1000
0001
0010
0100
1000
0010
,
0100
0000
0000
0100
0000
0000
0000
0000
0000
0000
0000
0000
0001
0000
0000
0000
0000
0000
0020
0000
0000
0000
0000
0000
0100
0000
0000
0000
0000
0000
0031
0000
0100
0000
0010
0000
1000
0000
0000
0000
0000
0000
0100
0000
0000
0000
0000
0000
,
0010
0000
0000
0000
0001
0000
0000
0000
0000
0000
0000
0000
1000
0000
0000
0000
0000
0000
0010
0000
0000
0100
0000
0000
0000
0000
0000
0000
0000
0000
1000
0000
0000
0000
0000
0000
0100
0000
0000
0000
0000
0000
0000
0000
0000
0000
0000
0000
0001
0000
0000
0000
0000
0000
0000
0000
0000
0000
0000
0000
0010
0000
0000
0000
0000
0000
0000
0000
0000
0000
0000
0000
0200
0000
0000
0300
0000
0000
2000
0000
0000
3000
0000
0000
0001
0000
0000
0000
0000
0000
0000
0000
0000
0000
0000
0000
,
0200
0000
0000
0310
0001
0000
0110
0000
1000
0000
0001
0010
0100
0010
1000
0000
,
0110
0000
0011
1000
0000
0001
2020
0000
3000
0000
0230
0000
0302
0000
0013
0000
,
0210
0000
0000
2300
0000
0000
0000
3002
,
0000
0000
0000
0000
0000
0000
0000
0000
0203
0000
0000
0000
0310
1000
0002
0000
,
0000
0000
0000
0000
0013
0100
2000
0000
0000
0000
0000
0000
0000
0000
0000
0000
,
0000
0000
0000
3020
,
0030
0000
0200
0000
0000
0000
0000
0000
0300
0000
0001
0010
1000
0000
0010
0000
,
0001
0000
0002
0000
0000
0000
0003
0000
0000
0000
1000
0010
0100
0000
2000
0000
,
3000
0000
0000
0000
0000
0000
0200
0020
0000
0000
0000
0000
0000
0000
0000
0000
0000
0000
0000
0000
0000
0000
0000
0000
0330
0000
0000
0000
0000
0000
1000
0000
0000
0001
0000
0000
0010
0000
0000
0000
0000
0000
1000
0000
0000
0000
0000
0000
,
0010
0000
0020
0000
0000
0000
0030
0000
0100
0000
1000
0001
1001
1000
0010
0000
,
0100
0000
0101
0001
1000
0000
0100
0000
0110
0000
0010
0001
0011
0000
0101
0000
,
1000
0000
1010
0010
0100
0000
0001
0010
0100
0010
0001
1000
1010
0000
0010
0100
,
0101
0000
0000
0000
0000
0000
0001
0010
0000
0000
0000
0000
0100
0000
0000
0000
0000
0000
1000
0000
0000
0000
0000
0000
1001
0000
0000
0000
0000
0000
0001
0000
0000
0100
0000
0000
0110
0000
0000
0000
0000
0000
0101
0000
0000
0000
0000
0000
,
0001
0000
0011
0010
0100
0000
1000
0001
0100
0001
1000
0100
0110
0010
0001
0000
,
1000
0000
1010
0010
0100
0001
1000
0000
1100
0000
0100
0010
0110
0000
1001
0000
,
1000
0000
1010
0010
0100
0001
0010
0100
1000
0010
1000
0100
0110
0000
0010
0001
,
1001
0000
0000
0000
0000
0000
1000
0010
0000
0000
0000
0000
0100
0000
0000
0001
0000
0000
0010
0000
0000
0000
0000
0000
0001
0000
0000
1000
0000
0000
0010
0000
0000
0100
0000
0000
0110
0000
0000
0000
0000
0000
0101
0000
0000
0000
0000
0000
,
0001
0000
1001
0000
1000
0100
0010
0100
1000
0000
0001
0100
0210
0000
1300
0100
,
0010
0000
2010
0000
0001
0000
3100
0000
0110
0000
0010
0001
0011
0000
1010
0000
,
1000
0000
2001
0000
3010
0100
1000
0100
0010
0001
0010
0100
0201
0000
0310
1000
,
1100
0000
0000
0000
0000
0000
0001
0020
0000
0000
0000
0000
0100
0000
0000
0000
0000
0000
0032
0000
0000
0000
0000
0000
0203
0000
0000
0000
0000
0000
0310
0000
0000
1000
0000
0000
1001
0000
0000
0000
0000
0000
0011
0000
0000
0000
0000
0000
,
0010
0000
0120
0000
0031
1000
0010
0100
0001
0010
0100
1000
2010
0000
3001
0010
,
0100
0000
1200
0000
0010
0000
0301
0000
0101
0000
0100
0010
0011
0000
1001
0000
,
1000
0000
1020
0000
0130
0010
0001
0010
0100
1000
0100
0010
2010
0000
3001
0010
,
0110
0000
0000
0000
0000
0000
1000
0002
0000
0000
0000
0000
0010
0000
0000
0000
0000
0000
0203
0000
0000
0000
0000
0000
0320
0000
0000
0000
0000
0000
1030
0000
0000
0001
0000
0000
0011
0000
0000
0000
0000
0000
0110
0000
0000
0000
0000
0000
,
0100
2100
0000
0000
0000
0000
0000
0000
,
3000
0000
0000
0000
;
