#VERSION:0.83;
#TITLE:ラビットホール;
#SUBTITLE:;
#ARTIST:DECO*27 feat. 初音ミク;
#TITLETRANSLIT:Rabbit Hole;
#SUBTITLETRANSLIT:;
#ARTISTTRANSLIT:DECO*27 feat. Hatsune Miku;
#GENRE:;
#CREDIT:;
#MUSIC:Rabbit Hole.ogg;
#BANNER:Rabbit Hole-bn.png;
#BACKGROUND:Rabbit Hole-bg.png;
#CDTITLE:;
#SAMPLESTART:41.142;
#SAMPLELENGTH:10.925;
#SELECTABLE:YES;
#OFFSET:-0.217;
#BPMS:0.000=173.000;
#STOPS:;
#JACKET:Rabbit Hole-jacket.png;
#BGCHANGES:;
#FGCHANGES:;

//--------------- dance-single - Highflyer ----------------
#NOTEDATA:;
#STEPSTYPE:dance-single;
#DESCRIPTION:Highflyer;
#DIFFICULTY:Beginner;
#METER:3;
#RADARVALUES:0,0,0,0,0;
#NOTES:
0000
0000
0000
0000
,
0000
0000
0000
0000
,
0000
0000
1000
0000
,
0001
0000
0100
0000
,
0010
0010
0010
0000
,
0100
0000
0001
0000
,
1000
1000
1000
0000
,
0100
0000
0010
0000
,
0001
0001
0001
0000
,
1000
0000
0010
0000
,
0100
0100
0100
0000
,
0010
0000
0100
0000
,
0010
0000
0000
0000
,
0100
0000
0010
0000
,
1000
0000
0001
0000
,
0010
0000
0100
0000
,
0010
0000
0100
0000
,
1000
0000
0000
0000
,
0001
0000
1000
0000
,
1000
0000
0010
0000
,
0010
0000
0100
0000
,
0000
0000
0010
0000
,
0010
0000
1000
0000
,
0000
0000
0001
0000
,
0001
0000
0010
0000
,
0010
0000
0100
0000
,
0010
0000
0001
0000
,
1000
0000
0010
0000
,
0010
0000
0100
0100
,
0100
0000
0010
0000
,
0010
0000
0100
0000
,
0100
0000
0001
0000
,
0001
0000
1000
0000
,
1000
0000
0100
0000
,
0100
0000
0010
0000
,
0010
0000
0100
0000
,
1000
0000
0001
0000
,
0100
0100
0100
0000
,
0010
0000
0100
0000
,
0010
0000
1000
0000
,
0100
0000
0010
0000
,
0001
0000
1000
0000
,
1000
0000
0010
0000
,
0010
0000
0100
0000
,
0001
0000
1000
0000
,
0100
0000
0000
0000
,
0000
0000
0010
0000
,
0010
0000
0100
0000
,
0100
0100
0100
0000
,
1000
0000
0001
0000
,
0001
0001
0001
0000
,
0100
0000
0010
0000
,
0100
0000
0010
0000
,
1000
0000
0001
0000
,
1000
1000
1000
0000
,
0100
0000
0010
0000
,
0100
0000
0010
0000
,
0010
0000
0100
0100
,
0100
0000
1000
0000
,
0001
0000
0000
0000
,
0010
0000
0100
0000
,
0100
0000
0010
0000
,
0010
0000
0001
0000
,
1000
0000
1000
0000
,
0010
0000
0100
0000
,
0010
0000
0100
0100
,
0100
0000
0010
0000
,
1000
0000
0001
0000
,
0010
0000
0100
0100
,
0100
0000
0100
0100
,
0100
0000
0010
0000
,
0000
0000
0000
1000
,
0000
1000
0000
0001
,
0000
0001
0000
0100
,
0000
0100
0000
0010
,
0000
0010
0000
1000
,
0000
1000
0000
0100
,
0000
0100
0000
0010
,
0000
0001
0000
1000
,
0000
0010
0000
0100
,
0100
0100
0000
0010
,
0010
0010
0000
1000
,
1000
1000
0000
0001
,
0001
0001
0000
0010
,
0010
0010
0010
0010
,
0010
0010
0000
0100
,
0000
0010
0000
0100
,
0000
0000
0000
0100
0000
0100
0000
0000
;

//--------------- dance-single - Highflyer ----------------
#NOTEDATA:;
#STEPSTYPE:dance-single;
#DESCRIPTION:Highflyer;
#DIFFICULTY:Easy;
#METER:7;
#RADARVALUES:0,0,0,0,0;
#NOTES:
0000
0000
0000
0000
,
0000
0000
0000
0000
,
0000
0000
1000
0010
,
0100
0001
0010
0100
,
1000
0001
1000
0010
,
0100
0001
1000
0100
,
0010
0100
1000
0001
,
0100
0010
0100
0001
,
1000
0100
0010
0100
,
1000
0001
0100
0010
,
1000
0100
0010
0000
,
0010
0000
0100
0000
,
0100
0000
1000
0000
,
1000
0000
0001
0000
,
0001
0000
1000
0010
,
0100
0000
0010
1000
,
0100
0100
0010
0100
,
0010
0000
0001
1000
,
0010
0100
0010
0010
,
0100
0100
0010
1000
,
0100
0010
0100
1000
,
0000
0001
0100
0010
,
1000
0100
0010
0001
,
0000
1000
0010
0100
,
0010
0000
0100
0001
,
1000
0100
0010
0001
,
1001
0000
1000
0010
,
0100
0100
0010
0010
,
0010
0200
0301
0001
,
0001
1000
1010
1000
,
0100
0010
0011
1000
,
0010
0100
0110
0010
,
1000
0100
0110
0010
,
0001
1000
1010
1000
,
1100
0100
0110
0010
,
0011
0001
1000
0010
,
0100
0010
1000
0100
,
0010
0001
0110
1000
,
0100
1000
1010
0010
,
0100
0001
0011
0010
,
0100
1000
1001
0001
,
0100
0010
1100
0100
,
0020
0031
0011
1000
,
1010
0100
0010
1000
,
0100
0010
0001
1000
,
0001
0001
0000
0000
,
0000
2000
3010
0100
,
0010
1000
0100
0010
,
0001
1000
0001
0100
,
0010
1000
0100
0010
,
0001
1000
0010
0000
,
0110
1001
1000
0100
,
0010
0001
1000
0010
,
0100
0010
1000
0100
,
0010
0001
1000
0000
,
0010
0000
0100
0000
,
0110
0000
1001
0000
,
0011
0000
1000
0010
,
0100
0010
1010
0000
,
0101
0000
1000
0000
,
1100
0000
0010
0010
,
0010
0010
0100
0100
,
0100
0100
1000
0000
,
1001
0000
0001
0000
,
0110
0000
1010
0000
,
0011
0000
1000
1000
,
1000
1001
0001
0000
,
0101
0000
0100
0000
,
0110
0000
0010
0010
,
0010
0010
0100
0100
,
0100
0100
0010
0000
,
0000
0000
0020
1030
,
0100
0010
0001
2000
,
3020
0230
0302
1003
,
0100
1000
0010
0200
,
0302
2003
0000
3001
,
0010
0100
1000
0001
,
0100
0010
0000
0100
,
0000
0010
0000
1000
,
0100
0010
0000
0110
,
1001
2000
3002
0013
,
0100
0000
2000
0000
0000
3000
1001
0000
,
0110
2000
3002
0013
,
0100
0010
0001
1010
,
0101
2000
3200
0310
,
0001
1000
0010
0100
,
0000
0010
0000
0100
,
0010
0000
1000
0001
0000
1000
0000
0000
;

//--------------- dance-single - Highflyer ----------------
#NOTEDATA:;
#STEPSTYPE:dance-single;
#DESCRIPTION:Highflyer;
#DIFFICULTY:Medium;
#METER:11;
#RADARVALUES:0,0,0,0,0;
#NOTES:
0000
0000
0000
0000
,
0000
0000
0000
0000
,
0000
0000
2000
3020
,
0230
0302
0023
0230
,
1300
0010
0200
0000
0302
0000
2003
0000
,
3200
0000
2300
0000
3020
0000
0130
0001
,
1000
0100
0010
0001
2000
0000
3020
0000
,
0230
0320
2030
3200
,
0310
0001
0200
0000
0320
0000
2030
0000
,
3002
2003
3200
0320
,
0031
0100
0001
0100
0000
0000
0000
0000
,
0000
0000
0000
0000
,
0000
0000
0000
0000
,
0000
0000
0000
0000
,
0000
0000
0001
1000
,
0100
0010
0000
0100
0010
0000
0001
0000
,
1000
0010
1000
0100
,
0001
0000
0000
0100
0000
0010
0001
0000
,
1000
0010
0100
0100
,
0010
0000
0010
0000
1000
0001
1000
0000
,
0001
0010
0001
0000
1000
0000
0100
0010
,
0000
0100
2000
0000
3010
0100
0010
0000
,
1000
0001
1000
0000
0010
0000
0100
0001
,
0000
1000
0100
1000
0001
0000
0100
0000
,
0010
0100
0000
0010
0100
0000
0001
0000
,
1000
0100
0010
1001
,
0100
0000
0000
0010
0000
1000
0001
0000
,
0020
0130
1000
0001
,
1000
0000
0001
0000
1000
0010
1000
0000
,
0001
0100
0001
0000
1000
0000
0100
0000
,
0010
0001
0010
0000
0001
0000
0100
0000
,
0010
1000
0010
0000
1000
0000
0100
0000
,
1000
0001
1000
0000
0001
0000
0100
0000
,
0010
0100
0010
0000
1000
0100
1000
0000
,
0001
0100
0001
0000
1000
0100
0001
0000
,
1000
0100
0001
0000
1000
0000
0010
0000
,
0100
0010
0100
0000
0010
0000
1000
0000
,
0100
0010
0100
0000
1000
0000
0001
0000
,
0100
0010
1000
0000
0001
0000
0010
0000
,
0100
1000
0001
0000
0100
0000
0010
0000
,
0100
0001
1000
0000
0100
0000
0010
0000
,
0001
1000
0010
0000
0100
0001
0100
0000
,
0010
1000
0010
0000
1000
0010
0001
0000
,
1000
0010
0001
0000
1000
0000
0100
0000
,
0010
0100
0010
0000
0100
0000
1000
0000
,
0001
0100
0001
0000
0000
0000
0000
0000
,
0000
2000
3002
0023
,
0230
2300
3020
0230
,
0301
0010
0200
0000
2300
0000
3002
0000
,
0203
0000
0302
0000
0023
0000
0130
1000
,
0001
0100
0010
1000
0002
0000
0003
0000
,
0110
2001
3002
0203
,
0310
1000
0200
0000
0320
0000
0032
0000
,
2003
3002
0203
0320
,
1030
0100
1000
0100
0010
0000
0000
0001
,
1000
0001
0000
1000
0000
0010
0000
0100
,
0010
0100
0000
0001
1000
0001
0000
0010
,
0100
0010
0000
0100
2000
0000
3020
0000
,
0130
0000
1001
0000
0002
0000
0003
0010
,
0100
0010
0000
0001
0000
0100
0000
0010
,
1000
0010
0200
0000
0302
0000
0023
0000
,
0230
2300
3002
0203
,
0320
0000
2030
0000
3100
0000
0000
0010
,
0001
0010
0000
0100
0000
1000
0000
0010
,
0100
0010
0000
0100
0001
0100
0000
0010
,
1000
0010
0000
1000
0200
0000
0320
0000
,
0031
0000
1001
0000
2000
0000
3000
0001
,
0010
0001
0000
1000
0000
0001
0000
1000
,
0100
1000
0002
0000
0203
0000
0320
0000
,
2030
3002
0023
0230
,
2300
3002
0103
0000
,
0000
0000
0002
2003
,
3200
0000
0320
0000
0230
0000
1300
0001
,
1000
0000
0001
1000
0001
0000
0200
0000
,
0320
0000
2030
0000
3002
0000
0013
0100
,
0010
0100
0000
0100
0010
0100
2000
0000
,
3002
0000
0203
0000
0320
0000
1030
0001
,
1000
0100
0010
1001
,
0000
0001
0100
0000
0010
0000
0100
0010
,
0100
0000
0001
0000
0010
0000
0100
1000
,
0100
0000
0100
0010
0100
0000
0100
1000
,
0001
0000
0100
0010
0100
0010
1000
0001
,
1000
0000
1000
0100
1000
0000
1000
0010
,
1000
0001
0000
0001
0100
0001
0100
0010
,
0100
0000
0100
0001
0100
0000
0100
0010
,
0100
0001
1000
0000
0100
0000
0010
0000
,
0000
0100
1000
0001
0200
0000
0310
0000
,
1000
0100
1000
0001
0000
0100
0000
0000
;

//--------------- dance-single - Highflyer XO ----------------
#NOTEDATA:;
#STEPSTYPE:dance-single;
#DESCRIPTION:Highflyer XO;
#DIFFICULTY:Hard;
#METER:14;
#RADARVALUES:0,0,0,0,0;
#NOTES:
0000
0000
0000
0000
,
0000
0000
0000
0000
,
0000
0000
0000
0000
1000
0010
1000
0001
,
0100
0001
1000
0100
1000
0001
0010
0100
,
1000
0000
0020
0030
0002
0000
0000
0000
0013
0000
0100
0000
0001
0000
1000
0000
,
0100
0010
0100
1000
0001
0100
0010
1000
,
0100
0001
0100
1000
0010
0100
0010
1000
,
0001
1000
0100
0010
0001
1000
0010
0100
,
0001
0000
0020
0030
2000
0000
0000
0000
3010
0000
0100
0000
1000
0000
0001
0000
,
0100
0010
0100
0001
1000
0100
1000
0001
,
0200
0300
1000
0000
0200
0300
0001
0000
0000
0000
1000
0000
0100
0000
1000
0000
,
0100
0010
0000
0001
0200
0310
1000
0001
,
0100
0000
2000
0000
3000
0100
0010
1000
,
0001
1000
0000
0100
0020
0130
1000
0001
,
0010
0100
1001
1000
,
0100
1000
0000
0001
0100
0010
0100
0001
,
1000
0100
1000
0001
0100
0000
0020
0000
,
1030
0000
0000
0001
0000
0010
0100
1000
,
0001
0000
0100
0000
0010
0000
1000
0000
0001
0000
0000
0000
1000
0100
1000
0000
,
0002
0003
0200
0300
0010
1000
0100
0010
,
0001
0100
0010
1000
0001
0010
1000
0010
,
0000
0100
1000
0010
0100
0001
1000
0001
,
0100
0010
1000
0001
1000
0010
0001
0010
,
0000
0100
0001
0100
0010
0000
1000
0000
,
0001
0010
0000
0001
0100
0010
0100
0001
,
1000
0100
1000
0001
0100
0000
0010
0000
,
2000
0000
3000
0001
0000
1000
0100
1000
,
0010
0100
1000
0100
0001
0000
1000
0000
,
0001
0000
0000
0000
2000
0000
0000
0000
3001
0000
0000
0100
0010
0000
0000
1000
,
0001
0000
0020
0000
0130
1000
0001
0100
,
0010
1000
0100
0001
0100
0010
0001
1000
,
0001
0100
0010
0001
0010
0100
0001
1000
,
0100
0010
0100
0001
0100
1000
0001
0100
,
0010
1000
0010
0001
0010
0100
0001
0010
,
0100
1000
0100
0001
1000
0001
0100
1000
,
0001
1000
0100
0001
0100
0010
0001
0100
,
0010
0100
0001
1000
0100
1000
0010
0100
,
0001
0010
1000
0000
0010
0100
1000
0001
,
0010
0001
0100
1000
0100
0010
1000
0001
,
0100
0001
0010
1000
0010
0100
1000
0001
,
0100
0010
0100
1000
0100
0001
1000
0100
,
1000
0001
0010
1000
0010
0100
1000
0010
,
0100
0001
0100
1000
0001
1000
0100
0001
,
1000
0001
0100
1000
0100
0010
1000
0100
,
0010
0100
1000
0001
0100
0001
0010
0100
,
1000
0010
0001
MMMM
MMMM
0000
0000
0000
,
0000
0000
2002
0003
3001
0010
0001
1000
,
0100
1000
0001
0100
0001
1000
0010
0100
,
0001
0000
0020
0030
2000
0000
0000
0000
3010
0000
0100
0000
1000
0000
0001
0000
,
0100
0010
0100
0001
1000
0100
0010
0001
,
0100
1000
0100
0001
0020
0000
0030
0000
,
0110
0000
1001
0001
1000
0001
0010
0100
,
1000
0000
0020
0030
0002
0000
0000
0000
0013
0000
0100
0000
0001
0000
1000
0000
,
0100
0010
0100
1000
0001
0100
0001
1000
,
0200
0300
0001
0000
0200
0300
1000
0000
0020
0000
0000
0000
0030
0000
1000
0000
,
0100
0001
0000
0100
0000
0010
0000
0001
,
0100
1000
0000
0001
0010
1000
0000
0001
,
0010
0000
0000
1000
0000
0000
0000
0000
0000
0001
0000
0000
0100
0000
1000
0000
0001
0000
1000
0000
0010
0000
1000
0000
,
0001
0000
0110
0000
2000
0000
3000
0001
,
0100
1000
0000
0100
0000
0001
0000
1000
,
0100
0000
0000
0001
0000
0000
0200
0000
0000
0000
0000
0000
1300
0000
0010
0000
1000
0000
0001
0000
0100
0000
0001
0000
,
1000
0100
1000
0001
0010
0001
1000
0010
1000
0001
0100
0001
,
0010
0000
0200
0000
0320
0000
0030
0001
,
0100
1000
0000
0100
0000
0010
0000
1000
,
0100
0001
0000
1000
0010
0001
0000
1000
,
0010
0000
0000
0001
0000
0000
0000
0000
0000
1000
0000
0000
0100
0000
0010
0000
1000
0000
0001
0000
0010
0000
0001
0000
,
1000
0000
0110
0000
2000
0000
3000
0001
,
0010
1000
0000
0010
0000
0100
0000
1000
,
0010
0000
0000
0001
0000
0000
0020
0000
0000
0000
0000
0000
1030
0000
0001
0000
1000
0000
0100
0000
0010
0000
0100
0000
,
1000
0010
1000
0001
0100
0001
1000
0100
1000
0001
0010
0001
,
1000
0000
0020
0000
0130
MMMM
MMMM
0000
,
0000
0000
0000
0000
2000
0000
3001
0100
,
0010
0100
0001
0010
0100
1000
0001
0010
,
1000
0010
0001
0100
1000
0100
0010
1000
,
0001
1000
0100
0010
0001
1000
0001
0100
,
1000
0100
0001
1000
1000
0100
0010
0100
,
1000
0001
0100
0010
1000
0100
1000
0010
,
0001
0010
1000
0000
0001
0000
0011
0000
,
0000
0001
0010
0100
0010
0001
0100
0010
,
1000
0000
0001
0000
0010
0000
0100
0000
1000
0000
0001
0000
0100
0000
0000
0010
,
1000
0000
0001
0000
0010
0000
0000
0100
1000
0000
0001
0000
1000
0000
0100
0000
,
0001
0000
0100
0000
1000
0000
0010
0000
0001
0000
0010
0000
1000
0000
0000
0001
,
0010
0000
0100
0000
1000
0000
0000
0010
0100
0000
0001
0000
1000
0000
0010
0000
,
0001
0000
0010
0000
1000
0000
0100
0000
0100
0000
0010
0000
0001
0000
0000
1000
,
0010
0000
0100
0000
0001
0000
0000
1000
0100
0000
0010
0000
0001
0000
0100
0000
,
1000
0000
0100
0000
0001
0000
1000
0000
0001
0000
0000
0000
0101
0000
0000
0100
,
0010
0000
1000
0000
0100
0000
0010
0000
0001
0000
1000
0010
1000
0000
0001
0000
,
0010
0100
1000
1001
0000
0220
0330
0000
;

//--------------- dance-single - Highflyer ----------------
#NOTEDATA:;
#STEPSTYPE:dance-single;
#DESCRIPTION:Highflyer;
#DIFFICULTY:Challenge;
#METER:17;
#RADARVALUES:0,0,0,0,0;
#NOTES:
0000
0000
0000
0000
,
0000
0000
0000
0000
,
0000
0000
0000
0000
2000
3001
0200
0310
,
2000
3100
0020
0031
2000
3001
0200
0310
,
1000
0100
0100
0000
0020
0130
2000
3001
,
0200
0000
0310
0000
2000
0000
3001
0000
0020
0000
0130
0000
2000
0000
3001
0100
,
0001
1000
0100
1000
0001
0100
0010
0000
2000
0000
3100
0000
0020
0000
0031
0000
,
2000
3010
0200
0301
2000
3100
2000
3001
,
0100
0010
0010
0000
0200
0301
2000
3001
,
0020
0130
2000
3001
0200
0310
2000
3001
,
0020
0130
2000
3000
0000
0001
0100
0010
,
0100
0001
0000
1000
0100
1000
0001
0010
,
0100
0000
2000
0000
3000
0001
0100
0010
,
1000
0100
0000
0010
0100
1000
0001
0100
,
0010
0200
0301
1000
,
0001
0000
0010
0000
0000
0000
0100
1000
0100
0000
1000
0000
0001
0000
0100
0000
,
0010
1000
0001
0010
0100
0000
0010
0000
,
0001
0000
0000
0000
0000
0000
1000
0000
0000
0000
0010
0100
0010
0000
0100
0010
,
0100
0000
0001
0000
1000
0000
0100
0000
0010
0000
0000
0000
0100
1000
0001
0000
,
0100
0001
1000
0000
0100
0000
0000
0000
0010
0000
0001
1000
0010
0000
0100
0001
,
1000
0000
0100
0010
0100
1000
0001
0100
0001
0000
0010
0000
1000
0000
0010
0000
,
0000
0000
0100
0000
1000
0000
0010
0000
0100
0000
0010
1000
0001
0000
0010
0001
,
1000
0000
0010
0100
0001
0000
0100
0010
1000
0000
0100
0000
0001
0000
0100
0000
,
0000
0010
0001
0100
0110
0000
1001
0000
,
0001
0010
0000
0100
1000
0001
0100
0010
,
1000
0100
0010
0100
1000
0000
1001
0000
,
0002
0003
0000
1000
0000
0010
0100
0001
,
0010
0100
1000
0001
0100
0000
0010
0000
,
0100
0000
0000
0000
0020
0000
0000
0000
1030
0100
1000
0001
0100
0010
0100
0001
,
1000
0000
0000
0000
0100
0000
0000
0000
0010
0000
0001
0100
0001
0000
0001
0100
,
0001
0000
0001
0100
0010
0000
1000
0000
0100
0000
1000
0001
1000
0010
0100
0001
,
1000
0000
0100
0010
0100
0000
0010
0000
0001
0000
1000
0010
1000
0000
0001
0010
,
0001
0000
1000
0100
0010
0000
0001
0000
1000
0000
0001
0100
0001
0000
1000
0100
,
1000
0000
0001
0100
0010
0000
0100
0000
0001
0010
0001
0010
0100
0000
1000
0000
,
0100
0010
0100
0010
0001
0000
1000
0000
0001
0100
0001
0100
0010
0000
1000
0000
,
0001
0100
0001
0100
0010
0000
1000
0000
0100
0010
0100
1000
0001
1000
0100
0010
,
0001
1000
0010
1000
0100
0000
0010
0000
0100
1000
0001
1000
0010
0100
0001
1000
,
0100
0000
0010
0000
1001
0000
0000
0000
0001
0000
1000
0100
1000
0000
1000
0100
,
1000
0000
1000
0100
0010
0000
0001
0000
1000
0000
0010
0100
0010
0000
0010
0100
,
0010
0000
0010
0100
0001
0000
1000
0000
0100
0000
0010
0001
1000
0001
0100
0010
,
1000
0000
0001
0010
0100
0000
1000
0000
0010
0000
0100
0001
1000
0000
0100
0000
,
1000
0000
0001
1000
0010
0000
0100
0000
0001
1000
0001
1000
0100
0000
0010
0000
,
0100
1000
0100
1000
0001
0000
1000
0000
0010
1000
0010
1000
0001
0000
0100
0000
,
0010
1000
0010
1000
0001
0000
0100
0000
0001
1000
0100
1000
0010
0100
0001
1000
,
0100
0000
0010
0001
1000
0000
0010
0000
0100
0001
1000
0100
1000
0001
0100
0010
,
1000
0100
0010
MMMM
MMMM
0000
0000
0000
,
0000
0000
0000
0000
1002
0000
0000
0000
0103
0000
0010
1000
0010
0000
1000
0000
,
0100
0000
0010
0001
0010
0000
0100
0000
1000
0000
0001
0100
0001
0000
1000
0000
,
0100
0000
0010
0001
0200
0000
0000
0000
0310
0000
1000
0001
1000
0000
0100
0000
,
0010
0000
0001
1000
0001
0000
1000
0000
0010
0000
0100
0001
0100
0010
1000
0001
,
0010
0100
1000
0001
0100
0001
1000
0000
0200
0000
0000
0000
0000
0000
0300
0000
,
1001
0000
0000
0000
0110
0000
1000
0001
1000
0000
0100
0000
0010
0000
0100
0000
,
1000
0000
0010
1000
0100
0000
0010
0100
1000
0000
0001
0100
0001
0000
1000
0000
,
0100
0000
0010
0001
0010
0000
0100
1000
0100
0000
1000
0000
0001
0000
0100
0000
,
0010
1000
0100
0010
0200
0000
0300
1000
,
1010
0001
0000
1000
0000
0100
0000
0010
,
0110
1000
0000
0001
0011
1000
0000
0001
,
1001
0000
0000
1000
0000
0000
0000
0000
0000
0010
0000
0000
1000
0000
0100
0000
1000
0000
0001
0000
0100
0000
0010
0000
,
1000
0000
1001
0000
0002
0000
0003
1000
,
1010
0001
0000
1000
0000
0100
0000
0010
,
0011
0000
0000
1000
0000
0000
0020
0000
0000
0000
0000
0000
0130
0000
0100
0000
0001
0000
1000
0000
1000
0000
0001
0000
,
0010
0010
0100
0010
0010
0001
1000
1000
0010
0100
0100
0001
,
1000
0000
0000
0000
0000
0000
0001
0000
0010
0000
0100
0000
2000
0000
0000
0000
0000
0000
3001
0000
0000
0100
0000
0000
,
1100
0100
0000
0001
0000
1000
0000
0100
,
0101
0100
0000
1000
1010
0010
0000
0100
,
1100
0000
0000
0100
0000
0000
0000
0000
0000
0001
0000
0000
1000
0000
0001
0000
0010
0000
0100
0000
0010
0000
0001
0000
,
0100
0000
0110
0000
2000
0000
3000
0010
,
1001
1000
0000
0100
0000
0010
0000
0001
,
1100
0000
0000
1000
0000
0000
0020
0000
0000
0000
0000
0000
0130
0000
0100
0000
0001
0000
1000
0000
1000
0000
0100
0000
,
0010
0010
0001
1000
1000
0010
0100
0100
0010
1000
1000
0100
,
0010
0000
0002
0000
0103
MMMM
MMMM
0000
,
0000
0000
0000
0000
0000
0000
0000
0000
0002
0000
0000
0000
1003
0000
0010
0100
,
0010
0000
1000
0000
0100
0000
0010
0001
0010
0000
0100
0000
1000
0000
0010
0000
,
0001
0000
0010
0000
1000
0000
0001
0000
0100
0000
1000
0000
0100
0000
0010
1000
,
0010
0000
1000
0000
0001
0000
0010
0100
0010
0000
0001
0000
1000
0000
0100
0000
,
0001
0000
0100
0000
1000
0000
0002
0000
0023
0000
2030
0000
3010
0000
0100
1000
,
0100
0000
1000
0000
0001
0000
0100
0010
0100
0000
0001
0000
1000
0000
0100
0000
,
0001
0100
1000
0010
0100
0000
1001
0000
,
0001
0010
0100
0100
1000
0010
0100
0001
,
0010
0000
0100
0000
1000
0000
0001
0000
1000
0000
0001
0000
0010
0000
0100
1000
,
0001
1000
0010
0000
0100
0000
0001
1000
0100
1000
0001
0000
0010
0000
0001
0100
,
0001
0000
1000
0000
0010
0000
0010
0000
0100
0000
0100
0000
0001
0000
0010
0100
,
0010
0001
1000
0000
0001
0000
1000
0010
0100
0010
1000
0000
0001
0000
0010
0100
,
1000
0000
0001
0000
0100
0000
0002
0000
0023
0000
2030
0000
3010
0000
0100
1000
,
0001
1000
0010
0000
0100
0000
0001
1000
0010
0100
0001
0000
0010
0000
0100
1000
,
0001
0000
1000
0000
0100
0000
0010
0001
0010
0000
0001
1000
0010
0000
1000
0100
,
1000
0000
0001
0000
0100
0000
0010
1000
0001
0000
0010
0000
0100
0000
1000
0000
,
0010
0100
0010
1010
0000
0101
0000
0000
;
